osu file format v14

[General]
AudioFilename: audio.mp3
AudioLeadIn: 0
PreviewTime: 96
Countdown: 1
SampleSet: Soft
StackLeniency: 0.7
Mode: 0
LetterboxInBreaks: 0
WidescreenStoryboard: 1

[Editor]
DistanceSpacing: 1.4
BeatDivisor: 4
GridSize: 4
TimelineZoom: 1

[Metadata]
Title:WONDERFUL WONDER (TV Size)
TitleUnicode:WONDERFUL WONDER (TV Size)
Artist:EDOGA-SULLIVAN
ArtistUnicode:エドガー・サリヴァン
Creator:tomadoi
Version:Hard
Source:みだらな青ちゃんは勉強ができない
Tags:anime ao-chan can't study! op opening shiinoha kotone japanese Midara na wa Benkyou ga Dekinai 佐々木萌 Moe Sasaki 坂本遥 Haruka Sakamoto
BeatmapID:2006493
BeatmapSetID:958314

[Difficulty]
HPDrainRate:5
CircleSize:3.8
OverallDifficulty:6
ApproachRate:7.5
SliderMultiplier:1.2
SliderTickRate:1

[Events]
//Background and Video events
0,0,"bg anime.jpg",0,0
//Break Periods
//Storyboard Layer 0 (Background)
//Storyboard Layer 1 (Fail)
//Storyboard Layer 2 (Pass)
//Storyboard Layer 3 (Foreground)
//Storyboard Layer 4 (Overlay)
//Storyboard Sound Samples

[TimingPoints]
96,375,4,2,0,58,1,0
18096,-125,4,2,0,42,0,0
27096,-100,4,2,0,58,0,0
28221,-142.857142857143,4,2,0,58,0,0
30096,-90.9090909090909,4,2,0,72,0,0

[Colours]
Combo1 : 0,191,96
Combo2 : 107,107,182
Combo3 : 255,194,166
Combo4 : 255,128,255

[HitObjects]
40,241,96,6,0,B|115:231|87:268|180:260,1,120,2|8,0:3|0:1,0:0:0:0:
224,212,658,2,0,P|256:214|307:288,1,120,8|0,0:1|3:0,0:0:0:0:
273,355,1221,1,8,0:1:0:0:
427,289,1596,6,0,P|420:237|417:168,1,120,0|8,3:0|0:1,0:0:0:0:
328,129,2158,2,0,P|335:181|338:250,1,120,8|0,0:1|3:0,0:0:0:0:
254,273,2721,2,0,P|254:232|250:195,1,60,8|0,0:1|3:0,0:0:0:0:
188,109,3096,6,0,P|134:103|91:158,1,120,2|8,3:0|0:1,0:0:0:0:
142,215,3658,2,0,L|154:338,1,120,8|0,0:1|3:0,0:0:0:0:
76,368,4221,1,8,0:1:0:0:
241,254,4596,6,0,B|314:241|293:281|361:275,1,120,0|8,3:0|0:1,0:0:0:0:
420,222,5158,2,0,L|403:89,1,120,8|0,0:1|3:0,0:0:0:0:
346,42,5721,2,0,B|318:55|318:55|277:50,1,60,8|0,0:1|3:0,0:0:0:0:
204,126,6096,6,0,L|80:112,1,120,4|8,3:1|0:1,0:0:0:0:
40,183,6658,1,8,0:1:0:0:
40,183,6846,2,0,P|49:212|52:248,1,60,0|0,0:0|3:0,0:0:0:0:
25,321,7221,1,8,0:1:0:0:
119,367,7408,6,0,P|156:340|235:347,1,120,0|0,0:0|0:0,0:0:0:0:
317,382,7971,1,8,0:1:0:0:
317,382,8158,2,0,P|310:356|308:318,1,60,8|0,0:1|0:0,0:0:0:0:
351,250,8533,1,0,3:0:0:0:
306,178,8721,2,0,P|313:152|315:114,1,60,8|0,0:1|3:0,0:0:0:0:
409,33,9096,6,0,L|476:25,2,60,4|0|8,3:1|0:0|0:1,0:0:0:0:
349,92,9658,1,8,0:1:0:0:
267,37,9846,2,0,L|200:29,2,60,0|0|8,0:0|3:0|0:1,0:0:0:0:
429,148,10596,6,0,P|417:210|410:275,1,120,0|8,3:0|0:1,0:0:0:0:
458,334,11158,2,0,P|415:363|339:349,1,120,8|0,0:1|3:0,0:0:0:0:
297,288,11721,2,0,P|261:277|222:281,1,60,8|0,0:1|3:0,0:0:0:0:
171,327,12096,5,4,3:1:0:0:
171,327,12283,1,0,0:0:0:0:
108,269,12471,2,0,P|115:243|116:208,1,60,8|8,0:1|0:1,0:0:0:0:
51,116,12846,1,0,0:0:0:0:
51,116,13033,1,0,3:0:0:0:
123,73,13221,2,0,P|149:80|184:81,1,60,8|0,0:1|0:0,0:0:0:0:
268,167,13596,6,0,P|296:146|393:148,1,120,0|8,3:0|0:1,0:0:0:0:
462,258,14158,2,0,P|434:237|337:239,1,120,8|0,0:1|3:0,0:0:0:0:
293,303,14721,2,0,L|226:318,1,60,8|0,0:1|3:0,0:0:0:0:
176,255,15096,5,4,3:1:0:0:
176,255,15283,1,0,0:0:0:0:
88,310,15471,2,0,P|83:277|86:246,1,60,8|8,0:1|0:1,0:0:0:0:
163,168,15846,2,0,P|172:122|173:41,1,120,0|8,0:0|0:1,0:0:0:0:
6,228,16596,6,0,B|116:188|109:288|247:291,1,240,0|0,3:0|0:0,0:0:0:0:
293,236,17533,1,0,3:0:0:0:
364,300,17721,2,0,L|444:320,1,60,8|0,0:1|3:0,0:0:0:0:
480,364,18096,6,0,L|322:382,1,144,4|0,3:1|0:0,0:0:0:0:
196,285,19033,1,0,3:0:0:0:
196,285,19221,2,0,L|132:274,1,48,8|0,0:1|0:0,0:0:0:0:
77,312,19596,6,0,P|59:278|70:218,1,96,0|8,3:0|0:1,0:0:0:0:
175,87,20346,2,0,P|168:135|164:188,1,96,0|8,0:0|0:1,0:0:0:0:
235,227,20908,1,0,3:0:0:0:
322,167,21096,6,0,B|410:148|382:197|466:194,1,144,4|0,3:1|0:0,0:0:0:0:
303,47,22033,1,0,3:0:0:0:
303,47,22221,2,0,P|278:52|251:55,1,48,8|0,0:1|0:0,0:0:0:0:
181,125,22596,6,0,P|144:100|82:97,1,96,0|8,3:0|0:1,0:0:0:0:
0,233,23346,2,0,P|37:208|99:205,1,96,0|8,0:0|0:1,0:0:0:0:
156,247,23908,1,0,3:0:0:0:
269,180,24096,6,0,L|241:333,1,144,4|0,3:1|0:0,0:0:0:0:
422,365,25033,1,0,3:0:0:0:
422,365,25221,2,0,L|416:309,1,48,8|0,0:1|0:0,0:0:0:0:
465,233,25596,6,0,L|476:172,1,48,0|0,3:0|0:0,0:0:0:0:
392,147,25971,2,0,L|381:85,1,48,8|0,0:1|0:0,0:0:0:0:
293,91,26346,2,0,L|262:37,1,48,0|0,0:0|3:0,0:0:0:0:
180,72,26721,2,0,L|132:31,1,48,8|0,0:1|3:0,0:0:0:0:
65,14,27096,6,0,L|77:151,1,120,4|8,3:1|0:1,0:0:0:0:
179,180,27658,2,0,L|167:317,1,120,0|0,3:0|0:0,0:0:0:0:
60,384,28221,6,0,P|101:326|266:339,1,251.999992309571,4|2,3:1|0:0,0:0:0:0:
264,337,30096,6,0,P|294:323|330:318,1,66.0000020141602,4|0,3:1|3:0,0:0:0:0:
376,248,30471,2,0,P|343:242|313:228,1,66.0000020141602,8|0,0:1|0:0,0:0:0:0:
287,146,30846,1,0,3:0:0:0:
287,146,31033,1,0,3:0:0:0:
379,97,31221,2,0,P|373:133|372:165,1,66.0000020141602,8|0,0:1|0:0,0:0:0:0:
286,60,31596,6,0,P|246:57|181:119,1,132.00000402832,4|8,3:1|0:1,0:0:0:0:
126,231,32158,2,0,P|86:234|21:172,1,132.00000402832,0|0,3:0|3:0,0:0:0:0:
52,94,32721,1,8,0:1:0:0:
223,202,33096,6,0,P|214:234|210:269,1,66.0000020141602,4|0,3:1|0:0,0:0:0:0:
283,356,33471,2,0,P|287:323|295:291,1,66.0000020141602,8|0,0:1|3:0,0:0:0:0:
370,249,33846,1,0,0:0:0:0:
370,249,34033,1,0,3:0:0:0:
462,317,34221,2,0,P|425:323|398:333,1,66.0000020141602,8|0,0:1|0:0,0:0:0:0:
459,217,34596,6,0,P|463:144|475:86,1,132.00000402832,4|8,3:1|0:1,0:0:0:0:
306,39,35158,2,0,P|317:103|321:169,1,132.00000402832,0|0,3:0|3:0,0:0:0:0:
208,282,35721,2,0,P|201:246|204:206,1,66.0000020141602,8|0,0:1|3:0,0:0:0:0:
153,361,36096,6,0,P|119:336|25:337,1,132.00000402832,4|8,3:1|0:1,0:0:0:0:
17,201,36658,2,0,P|81:206|138:173,1,132.00000402832,0|0,3:0|3:0,0:0:0:0:
175,96,37221,1,8,0:1:0:0:
175,96,37408,1,0,0:0:0:0:
276,166,37596,6,0,B|351:160|327:200|427:209,1,132.00000402832,4|8,3:1|0:1,0:0:0:0:
489,291,38158,2,0,P|416:308|355:329,1,132.00000402832,0|0,3:0|3:0,0:0:0:0:
235,378,38721,2,0,P|244:349|247:311,1,66.0000020141602,8|0,0:1|3:0,0:0:0:0:
201,215,39096,5,4,3:1:0:0:
201,215,39283,1,0,3:0:0:0:
258,151,39471,2,0,P|249:122|246:84,1,66.0000020141602,8|0,0:1|0:0,0:0:0:0:
363,53,39846,2,0,P|349:126|347:187,1,132.00000402832,0|8,3:0|0:1,0:0:0:0:
440,257,40408,6,0,P|434:224|433:188,1,66.0000020141602,4|0,3:1|0:0,0:0:0:0:
352,273,40783,1,0,3:0:0:0:
352,273,40971,2,0,P|276:284|215:303,1,132.00000402832,8|0,0:1|0:0,0:0:0:0:
152,348,41533,1,0,3:0:0:0:
88,289,41721,1,8,3:0:0:0:
88,289,41814,1,8,3:0:0:0:
88,289,41908,1,0,3:0:0:0:
151,203,42096,6,0,P|154:169|163:129,1,66.0000020141602,4|0,3:1|3:0,0:0:0:0:
240,58,42471,2,0,P|246:90|249:123,1,66.0000020141602,8|0,0:1|0:0,0:0:0:0:
317,176,42846,1,0,3:0:0:0:
317,176,43033,1,0,3:0:0:0:
419,118,43221,2,0,P|383:111|353:96,1,66.0000020141602,8|0,0:1|0:0,0:0:0:0:
399,203,43596,6,0,P|414:243|386:329,1,132.00000402832,4|8,3:1|0:1,0:0:0:0:
268,359,44158,2,0,P|242:299|258:236,1,132.00000402832,0|0,3:0|3:0,0:0:0:0:
317,176,44721,1,8,0:1:0:0:
197,46,45096,6,0,B|125:33|142:79|62:74,1,132.00000402832,4|8,3:1|0:1,0:0:0:0:
18,142,45658,1,0,3:0:0:0:
18,142,45846,2,0,P|26:174|31:214,1,66.0000020141602,0|0,0:0|3:0,0:0:0:0:
131,250,46221,2,0,P|123:218|118:178,1,66.0000020141602,8|0,0:1|0:0,0:0:0:0:
17,316,46596,6,0,P|48:341|143:343,1,132.00000402832,4|8,3:1|0:1,0:0:0:0:
220,266,47158,2,0,P|251:241|346:239,1,132.00000402832,0|0,3:0|3:0,0:0:0:0:
440,333,47721,2,0,P|438:303|440:260,1,66.0000020141602,8|0,0:1|3:0,0:0:0:0:
352,159,48096,6,0,P|357:212|351:294,1,132.00000402832,4|8,3:1|0:1,0:0:0:0:
196,355,48658,2,0,P|190:289|195:223,1,132.00000402832,0|0,3:0|3:0,0:0:0:0:
252,140,49221,2,0,P|260:102|258:67,1,66.0000020141602,8|0,0:1|0:0,0:0:0:0:
195,17,49596,5,4,3:1:0:0:
195,17,49783,1,0,3:0:0:0:
102,62,49971,1,8,0:1:0:0:
102,62,50158,2,0,P|121:89|111:184,1,132.00000402832,0|0,3:0|3:0,0:0:0:0:
38,254,50721,2,0,P|31:287|29:325,1,66.0000020141602,8|0,0:1|0:0,0:0:0:0:
93,376,51096,5,4,3:1:0:0:
93,376,51283,1,0,3:0:0:0:
167,311,51471,2,0,P|197:312|234:306,1,66.0000020141602,8|0,0:1|0:0,0:0:0:0:
322,350,51846,2,0,L|458:370,1,132.00000402832,0|8,3:0|0:1,0:0:0:0:
503,299,52408,6,0,P|491:264|492:163,1,132.00000402832,0|0,3:0|3:0,0:0:0:0:
440,99,52971,1,8,0:1:0:0:
440,99,53158,1,0,3:0:0:0:
364,184,53346,2,0,P|326:187|294:194,1,66.0000020141602,8|0,0:1|3:0,0:0:0:0:
205,93,53721,2,0,P|243:90|275:83,1,66.0000020141602,8|0,0:1|3:0,0:0:0:0:
197,205,54096,6,0,P|169:178|70:170,1,132.00000402832,4|8,3:1|0:1,0:0:0:0:
34,286,54658,2,0,P|62:313|161:321,1,132.00000402832,4|8,3:1|0:1,0:0:0:0:
256,375,55221,2,0,P|284:348|383:340,1,132.00000402832,4|8,3:1|0:1,0:0:0:0:
409,212,55783,2,0,P|344:211|291:173,1,132.00000402832,4|0,3:1|3:0,0:0:0:0:
266,90,56346,1,2,3:0:0:0:
266,90,56721,1,2,3:0:0:0:
