osu file format v14

[General]
AudioFilename: new_audio.mp3
AudioLeadIn: 0
PreviewTime: 30252
Countdown: 1
SampleSet: Normal
StackLeniency: 0.7
Mode: 0
LetterboxInBreaks: 0
WidescreenStoryboard: 1

[Editor]
Bookmarks: 7002,18252,27252
DistanceSpacing: 2.7
BeatDivisor: 4
GridSize: 16
TimelineZoom: 1

[Metadata]
Title:WONDERFUL WONDER (TV Size)
TitleUnicode:WONDERFUL WONDER (TV Size)
Artist:EDOGA-SULLIVAN
ArtistUnicode:EDOGA-SULLIVAN
Creator:nobbele
Version:Insane v2
Source:淫らな青ちゃんは勉強ができない
Tags:
BeatmapID:2036259
BeatmapSetID:964683

[Difficulty]
HPDrainRate:6
CircleSize:4
OverallDifficulty:8
ApproachRate:9
SliderMultiplier:1.6
SliderTickRate:1

[Events]
//Background and Video events
0,0,"y8ujppuSi7qy3nNACLhold3dyWE.jpg",0,0
//Break Periods
//Storyboard Layer 0 (Background)
//Storyboard Layer 1 (Fail)
//Storyboard Layer 2 (Pass)
//Storyboard Layer 3 (Foreground)
//Storyboard Sound Samples

[TimingPoints]
252,375,4,1,0,100,1,0
29502,-142.857142857143,4,1,0,100,0,0
29877,-50,4,1,0,100,0,0
30252,-83.3333333333333,4,1,0,100,0,1
54252,-100,4,1,0,100,0,0

[HitObjects]
116,121,252,6,0,P|106:64|153:70,1,120
183,79,627,1,0,0:0:0:0:
237,209,814,1,0,0:0:0:0:
148,207,1002,1,0,0:0:0:0:
276,82,1189,1,0,0:0:0:0:
312,261,1377,1,0,0:0:0:0:
433,173,1752,6,0,P|443:116|396:122,1,120
366,131,2127,1,0,0:0:0:0:
312,261,2314,1,0,0:0:0:0:
401,259,2502,1,0,0:0:0:0:
276,82,2689,1,0,0:0:0:0:
241,309,2877,1,0,0:0:0:0:
366,131,3064,1,0,0:0:0:0:
158,271,3252,6,0,P|110:237|148:208,1,120
175,193,3627,1,0,0:0:0:0:
304,247,3814,1,0,0:0:0:0:
241,309,4002,1,0,0:0:0:0:
243,119,4189,1,0,0:0:0:0:
389,239,4377,1,0,0:0:0:0:
472,201,4752,6,0,P|519:167|481:138,1,120
455,123,5127,1,0,0:0:0:0:
325,177,5314,1,0,0:0:0:0:
389,239,5502,1,0,0:0:0:0:
430,35,5689,1,0,0:0:0:0:
389,239,5877,1,0,0:0:0:0:
312,18,6064,1,0,0:0:0:0:
461,182,6252,6,0,P|472:219|459:257,1,80
277,262,6627,1,0,0:0:0:0:
364,126,6814,1,0,0:0:0:0:
341,305,7002,6,0,P|300:339|254:338,1,80
175,262,7377,2,0,B|161:273|161:273|169:304|169:304|134:311|145:308,1,80
98,199,7752,2,0,P|116:157|167:136,1,80
288,119,8127,1,0,0:0:0:0:
121,42,8314,1,0,0:0:0:0:
145,138,8502,1,0,0:0:0:0:
203,59,8689,1,0,0:0:0:0:
69,109,8877,2,0,B|61:153|61:153|26:177,1,80
234,168,9252,6,0,P|277:147|288:111,1,80
273,32,9627,1,0,0:0:0:0:
145,138,9814,1,0,0:0:0:0:
324,217,10002,1,0,0:0:0:0:
74,180,10189,1,0,0:0:0:0:
366,288,10377,2,0,P|398:251|401:206,1,80
376,151,10752,6,0,P|433:147|466:178,1,80
471,246,11127,1,0,0:0:0:0:
369,317,11314,1,0,0:0:0:0:
317,202,11502,1,0,0:0:0:0:
471,347,11689,1,0,0:0:0:0:
270,290,11877,1,0,0:0:0:0:
450,157,12064,1,0,0:0:0:0:
194,310,12252,6,0,P|196:256|220:226,1,80
288,175,12627,1,0,0:0:0:0:
384,285,12814,1,0,0:0:0:0:
383,132,13002,1,0,0:0:0:0:
278,281,13189,1,0,0:0:0:0:
451,193,13377,2,0,B|488:153|468:108,1,80
342,79,13752,6,0,P|382:108|392:169,1,80
377,214,14127,1,0,0:0:0:0:
251,231,14314,1,0,0:0:0:0:
292,133,14502,1,0,0:0:0:0:
322,296,14689,1,0,0:0:0:0:
187,162,14877,1,0,0:0:0:0:
421,107,15064,1,0,0:0:0:0:
220,334,15252,6,0,B|196:282|241:237,1,80
315,186,15627,1,0,0:0:0:0:
421,273,15814,1,0,0:0:0:0:
377,139,16002,2,0,P|347:115|308:111,1,80
419,272,16377,2,0,P|457:262|479:230,1,80
304,212,16752,6,0,P|278:241|272:281,1,80
312,367,17127,1,0,0:0:0:0:
184,237,17314,1,0,0:0:0:0:
190,346,17502,1,0,0:0:0:0:
288,230,17689,1,0,0:0:0:0:
114,305,17877,1,0,0:0:0:0:
294,327,18064,1,0,0:0:0:0:
157,165,18252,6,0,P|198:167|229:191,1,80
294,327,18627,1,0,0:0:0:0:
210,280,18814,1,0,0:0:0:0:
330,202,19002,1,0,0:0:0:0:
381,292,19189,1,0,0:0:0:0:
228,189,19377,1,0,0:0:0:0:
411,87,19564,1,0,0:0:0:0:
308,337,19752,6,0,P|295:284|319:241,1,80
411,87,20127,1,0,0:0:0:0:
238,198,20502,6,0,P|200:207|163:195,1,80
411,87,20877,1,0,0:0:0:0:
449,202,21064,1,0,0:0:0:0:
299,83,21252,6,0,P|306:37|333:11,1,80
325,175,21627,1,0,0:0:0:0:
206,238,21814,1,0,0:0:0:0:
209,135,22002,1,0,0:0:0:0:
300,266,22189,1,0,0:0:0:0:
113,208,22377,1,0,0:0:0:0:
303,78,22564,1,0,0:0:0:0:
230,330,22752,6,0,P|206:293|216:246,1,80
303,78,23127,1,0,0:0:0:0:
398,259,23502,6,0,P|429:283|469:283,1,80
303,78,23877,1,0,0:0:0:0:
239,209,24064,1,0,0:0:0:0:
431,60,24252,6,0,P|409:13|378:0,1,80
208,82,24627,1,0,0:0:0:0:
300,168,24814,1,0,0:0:0:0:
325,57,25002,1,0,0:0:0:0:
210,167,25189,1,0,0:0:0:0:
388,119,25377,2,0,P|412:80|414:42,1,80
365,222,25752,6,0,P|330:252|287:253,1,80,0|0,3:0|0:0,0:0:0:0:
440,188,26127,2,0,P|487:217|527:218,1,80
313,159,26502,6,0,P|275:117|274:77,1,80,0|0,3:0|0:0,0:0:0:0:
348,324,26877,1,0,0:0:0:0:
162,234,27252,6,0,L|243:181,1,80
32,220,27627,1,0,0:0:0:0:
208,97,27814,6,0,L|289:44,1,80
14,113,28189,1,0,0:0:0:0:
194,315,28377,5,0,0:0:0:0:
256,192,28564,12,0,29314,0:0:0:0:
168,91,29502,6,0,L|204:142,1,55.9999982910157
287,133,29877,2,0,B|271:233|164:217,1,160
343,309,30252,5,0,0:0:0:0:
480,180,30439,1,0,0:0:0:0:
287,133,30627,1,0,0:0:0:0:
451,294,30814,1,0,0:0:0:0:
407,84,31002,1,0,0:0:0:0:
255,247,31189,1,0,0:0:0:0:
470,153,31377,1,0,0:0:0:0:
240,114,31564,1,0,0:0:0:0:
451,294,31752,6,0,P|418:256|434:199,1,95.9999970703126
497,84,32127,1,0,0:0:0:0:
358,161,32314,1,0,0:0:0:0:
434,25,32502,1,0,0:0:0:0:
256,259,32689,6,0,B|229:192|292:153,1,95.9999970703126
324,87,33064,1,0,0:0:0:0:
169,309,33252,5,0,0:0:0:0:
32,180,33439,1,0,0:0:0:0:
225,133,33627,1,0,0:0:0:0:
61,294,33814,1,0,0:0:0:0:
105,84,34002,1,0,0:0:0:0:
257,247,34189,1,0,0:0:0:0:
42,153,34377,1,0,0:0:0:0:
272,128,34564,1,0,0:0:0:0:
61,294,34752,6,0,P|62:241|97:210,1,95.9999970703126
239,144,35127,1,0,0:0:0:0:
164,288,35314,1,0,0:0:0:0:
110,133,35502,1,0,0:0:0:0:
395,216,35689,2,0,P|352:169|306:157,1,95.9999970703126
239,144,36064,1,0,0:0:0:0:
384,316,36252,6,0,P|442:311|467:279,1,95.9999970703126
485,207,36627,1,0,0:0:0:0:
278,338,36814,2,0,P|281:279|313:254,1,95.9999970703126
385,235,37189,1,0,0:0:0:0:
186,239,37377,2,0,L|131:151,1,95.9999970703126
308,256,37752,5,0,0:0:0:0:
441,162,37939,1,0,0:0:0:0:
286,109,38127,1,0,0:0:0:0:
239,305,38314,2,0,P|288:344|337:343,1,95.9999970703126
426,272,38689,1,0,0:0:0:0:
286,109,38877,1,0,0:0:0:0:
312,271,39064,1,0,0:0:0:0:
210,76,39252,6,0,P|248:33|299:28,1,95.9999970703126
309,187,39627,2,0,P|262:189|224:163,1,95.9999970703126,0|0,3:0|0:0,0:0:0:0:
374,129,40002,2,0,P|393:198|377:234,1,95.9999970703126
327,272,40377,1,0,0:0:0:0:
450,88,40564,6,0,P|404:45|362:45,1,95.9999970703126,0|0,3:0|0:0,0:0:0:0:
286,109,40939,1,0,0:0:0:0:
435,259,41127,1,0,0:0:0:0:
240,177,41314,1,0,0:0:0:0:
447,334,41502,2,0,P|505:306|512:273,1,95.9999970703126
498,184,41877,1,0,0:0:0:0:
498,184,41970,1,0,0:0:0:0:
498,184,42064,1,0,0:0:0:0:
396,93,42252,5,0,0:0:0:0:
216,251,42439,1,0,0:0:0:0:
447,334,42627,1,0,0:0:0:0:
296,147,42814,1,0,0:0:0:0:
296,384,43002,1,0,0:0:0:0:
455,205,43189,1,0,0:0:0:0:
245,324,43377,1,0,0:0:0:0:
392,135,43564,1,0,0:0:0:0:
131,277,43752,6,0,P|126:230|148:188,1,95.9999970703126
266,84,44127,1,0,0:0:0:0:
253,232,44314,1,0,0:0:0:0:
138,114,44502,1,0,0:0:0:0:
333,262,44689,6,0,P|329:194|301:165,1,95.9999970703126
138,114,45064,1,0,0:0:0:0:
410,317,45252,5,0,0:0:0:0:
430,59,45439,1,0,0:0:0:0:
205,189,45627,1,0,0:0:0:0:
463,183,45814,1,0,0:0:0:0:
265,14,46002,1,0,0:0:0:0:
255,272,46189,1,0,0:0:0:0:
433,82,46377,1,0,0:0:0:0:
325,317,46564,1,0,0:0:0:0:
370,35,46752,6,0,P|420:1|463:11,1,95.9999970703126
484,164,47127,1,0,0:0:0:0:
356,290,47314,2,0,P|316:265|301:220,1,95.9999970703126
484,164,47689,1,0,0:0:0:0:
370,35,47877,1,0,0:0:0:0:
235,322,48252,6,0,P|177:317|152:285,1,95.9999970703126
134,213,48627,1,0,0:0:0:0:
341,344,48814,2,0,P|338:285|306:260,1,95.9999970703126
234,241,49189,1,0,0:0:0:0:
433,245,49377,2,0,L|488:157,1,95.9999970703126
311,262,49752,5,0,0:0:0:0:
178,168,49939,1,0,0:0:0:0:
333,115,50127,1,0,0:0:0:0:
377,324,50314,2,0,P|328:363|277:351,1,95.9999970703126
193,278,50689,1,0,0:0:0:0:
333,115,50877,1,0,0:0:0:0:
309,277,51064,1,0,0:0:0:0:
406,78,51252,6,0,P|368:35|317:30,1,95.9999970703126
309,191,51627,2,0,P|356:193|394:167,1,95.9999970703126,0|0,3:0|0:0,0:0:0:0:
242,131,52002,2,0,P|223:200|239:236,1,95.9999970703126
333,115,52377,1,0,0:0:0:0:
259,290,52564,6,0,P|208:295|165:262,1,95.9999970703126
141,161,52939,1,0,0:0:0:0:
340,277,53127,1,0,0:0:0:0:
120,345,53314,1,0,0:0:0:0:
317,195,53502,6,0,P|380:195|412:230,1,95.9999970703126
242,248,53877,2,0,P|222:205|235:159,1,95.9999970703126
495,308,54252,5,0,0:0:0:0:
242,248,54439,1,0,0:0:0:0:
348,85,54627,1,0,0:0:0:0:
242,248,54814,5,0,0:0:0:0:
442,229,55001,1,0,0:0:0:0:
304,16,55189,1,0,0:0:0:0:
495,308,55377,5,0,0:0:0:0:
242,248,55564,1,0,0:0:0:0:
350,86,55752,1,0,0:0:0:0:
250,331,55939,6,0,P|178:303|160:229,1,160
444,135,56502,5,0,0:0:0:0:
75,350,56877,1,0,0:0:0:0:
