osu file format v14

[General]
AudioFilename: audio.mp3
AudioLeadIn: 0
PreviewTime: 29299
Countdown: 0
SampleSet: Soft
StackLeniency: 0.5
Mode: 0
LetterboxInBreaks: 0
WidescreenStoryboard: 0

[Editor]
Bookmarks: 49,6049,18049,30049,54049,56674
DistanceSpacing: 0.7
BeatDivisor: 4
GridSize: 32
TimelineZoom: 1

[Metadata]
Title:WONDERFUL WONDER (TV Size)
TitleUnicode:WONDERFUL WONDER (TV Size)
Artist:EDOGA-SULLIVAN
ArtistUnicode:エドガー・サリヴァン
Creator:eiri-
Version:Study Time
Source:みだらな青ちゃんは勉強ができない
Tags:Ayyri Trynna Lafayla Midara na Ao-chan wa Benkyou ga Dekinai Ao Can't Study! Japanese Anime Opening 佐々木萌 Moe Sasaki 坂本 遥 Haruka Sakamoto
BeatmapID:2209233
BeatmapSetID:1056950

[Difficulty]
HPDrainRate:5
CircleSize:5
OverallDifficulty:8.5
ApproachRate:9
SliderMultiplier:2
SliderTickRate:1

[Events]
//Background and Video events
0,0,"WONDERFUL WONDER.jpg",0,0
//Break Periods
//Storyboard Layer 0 (Background)
//Storyboard Layer 1 (Fail)
//Storyboard Layer 2 (Pass)
//Storyboard Layer 3 (Foreground)
//Storyboard Layer 4 (Overlay)
//Storyboard Sound Samples

[TimingPoints]
49,375,4,2,1,75,1,0
6049,-100,4,2,1,80,0,0
18049,-100,4,2,1,90,0,0
27424,-400,4,2,1,90,0,0
27611,-100,4,2,1,90,0,0
28174,-200,4,2,1,90,0,0
30049,-80,4,2,1,100,0,1
54049,-100,4,2,1,95,0,0

[Colours]
Combo1 : 192,182,222
Combo2 : 171,194,233
Combo3 : 202,197,207
Combo4 : 227,189,176

[HitObjects]
40,284,49,6,0,B|87:271|87:271|120:315|120:315|212:333,1,150,4|0,1:2|0:0,0:0:0:0:
211,330,424,5,10,0:0:0:0:
181,173,611,1,2,0:0:0:0:
178,191,986,5,0,1:2:0:0:
353,237,1174,1,10,0:0:0:0:
358,251,1549,5,0,1:0:0:0:
358,251,1924,1,10,0:0:0:0:
328,94,2111,1,2,0:0:0:0:
327,107,2486,5,0,1:0:0:0:
441,162,2674,1,10,0:0:0:0:
264,214,2861,1,0,1:0:0:0:
403,86,3049,6,0,B|388:48|388:48|369:179,1,150,4|0,1:2|0:0,0:0:0:0:
363,204,3424,5,10,0:0:0:0:
160,139,3611,1,2,0:0:0:0:
157,152,3986,5,0,1:0:0:0:
403,86,4174,1,10,0:0:0:0:
404,98,4549,5,0,1:0:0:0:
404,98,4924,1,10,0:0:0:0:
140,57,5111,1,2,0:0:0:0:
141,68,5486,5,0,1:0:0:0:
115,256,5674,1,10,0:0:0:0:
85,118,5861,1,0,1:0:0:0:
269,176,6049,6,0,P|311:135|312:39,1,150,6|0,1:2|0:0,0:0:0:0:
289,7,6424,1,10,0:0:0:0:
323,231,6611,1,2,0:0:0:0:
202,147,6799,6,0,P|148:133|57:136,1,100,2|0,0:0|1:0,0:0:0:0:
181,339,7174,2,0,P|228:322|271:297,1,100,10|0,0:0|0:0,0:0:0:0:
102,275,7549,1,0,1:0:0:0:
185,220,7736,1,2,0:0:0:0:
352,373,7924,2,0,L|343:242,1,100,10|0,0:0|0:0,0:0:0:0:
334,142,8299,1,0,0:0:0:0:
463,183,8486,1,2,1:2:0:0:
279,225,8674,1,8,0:0:0:0:
329,162,8861,1,2,1:2:0:0:
437,317,9049,6,0,L|458:194,1,100,6|2,1:2|0:0,0:0:0:0:
260,160,9424,1,10,0:0:0:0:
260,160,9611,1,2,0:0:0:0:
414,123,9799,1,0,0:0:0:0:
391,41,9986,1,2,1:2:0:0:
237,78,10174,2,0,P|280:17|381:29,1,150,10|0,0:0|0:0,0:0:0:0:
391,41,10549,6,0,L|280:22,1,100,2|0,1:2|0:0,0:0:0:0:
173,123,10924,2,0,L|62:142,2,100,10|0|0,0:0|0:0|0:0,0:0:0:0:
329,162,11486,1,2,1:2:0:0:
301,93,11674,1,8,0:0:0:0:
274,212,11861,1,2,1:2:0:0:
454,175,12049,5,6,1:2:0:0:
454,175,12236,1,2,0:0:0:0:
414,49,12424,2,0,L|525:68,1,100,10|0,0:0|0:0,0:0:0:0:
254,244,12799,5,2,0:0:0:0:
254,244,12986,1,2,1:2:0:0:
294,118,13174,2,0,L|183:137,1,100,10|0,0:0|0:0,0:0:0:0:
18,166,13549,6,0,P|53:110|139:66,1,150,2|0,1:2|0:0,0:0:0:0:
124,77,13924,1,10,0:0:0:0:
103,252,14111,1,2,0:0:0:0:
104,241,14486,5,2,1:2:0:0:
52,308,14674,1,8,0:0:0:0:
190,335,14861,1,2,1:2:0:0:
167,144,15049,5,6,1:2:0:0:
283,104,15236,1,2,0:0:0:0:
214,228,15424,2,0,L|203:104,1,100,10|0,0:0|0:0,0:0:0:0:
416,183,15799,2,0,P|386:240|325:255,1,100,2|0,0:0|1:0,0:0:0:0:
441,76,16174,2,0,P|498:106|513:167,1,100,10|0,0:0|0:0,0:0:0:0:
267,100,16549,6,0,L|278:-24,1,100,2|0,1:2|0:0,0:0:0:0:
306,182,16924,1,10,0:0:0:0:
167,144,17111,1,2,0:0:0:0:
167,144,17486,2,0,P|135:132|89:137,1,50,2|0,1:2|0:0,0:0:0:0:
87,303,17674,2,0,L|204:283,1,100,10|2,0:0|1:2,0:0:0:0:
0,230,18049,6,0,P|1:195|92:125,1,150,6|0,1:2|0:0,0:0:0:0:
120,131,18424,1,8,0:0:0:0:
144,340,18611,2,0,L|27:320,1,100,2|0,0:0|0:0,0:0:0:0:
283,269,18986,1,2,1:2:0:0:
211,211,19174,1,10,0:0:0:0:
397,191,19361,1,2,0:0:0:0:
253,361,19549,6,0,L|273:238,1,100,2|0,1:2|0:0,0:0:0:0:
324,152,19924,2,0,L|304:29,1,100,10|0,0:0|0:0,0:0:0:0:
350,319,20299,2,0,P|404:303|436:239,1,100,2|0,0:0|1:0,0:0:0:0:
219,182,20674,2,0,P|231:230|269:262,1,100,10|2,0:0|1:2,0:0:0:0:
248,83,21049,6,0,B|200:102|200:102|91:80,1,150,6|0,1:2|0:0,0:0:0:0:
59,70,21424,1,8,0:0:0:0:
332,31,21611,2,0,L|320:138,1,100,2|0,0:0|0:0,0:0:0:0:
300,271,21986,1,2,1:2:0:0:
415,178,22174,1,10,0:0:0:0:
337,141,22361,1,2,0:0:0:0:
162,246,22549,6,0,P|131:191|141:140,1,100,2|0,1:2|0:0,0:0:0:0:
300,271,22924,2,0,P|299:320|272:360,1,100,10|0,0:0|0:0,0:0:0:0:
219,182,23299,1,2,0:0:0:0:
276,250,23486,1,0,1:0:0:0:
299,61,23674,2,0,L|422:89,1,100,10|2,0:0|1:2,0:0:0:0:
117,121,24049,6,0,P|145:57|239:44,1,150,6|0,1:2|0:0,0:0:0:0:
219,49,24424,1,8,0:0:0:0:
162,246,24611,2,0,L|39:218,1,100,2|0,0:0|0:0,0:0:0:0:
240,174,24986,1,2,1:2:0:0:
202,384,25174,2,0,L|178:274,1,100,10|0,0:0|0:0,0:0:0:0:
431,208,25549,6,0,L|396:372,1,150,2|0,1:2|0:0,0:0:0:0:
392,383,25924,2,0,P|428:334|499:323,1,100,10|0,0:0|0:0,0:0:0:0:
291,207,26299,2,0,P|327:256|398:267,1,100,2|0,0:0|1:0,0:0:0:0:
115,306,26674,1,10,0:0:0:0:
202,384,26861,1,0,1:0:0:0:
306,131,27049,6,0,P|280:65|182:56,1,150,6|0,1:2|0:0,0:0:0:0:
220,64,27424,6,0,L|219:85,1,12.5,10|0,0:0|0:0,0:0:0:0:
202,337,27611,6,0,B|296:294|293:367|408:367,1,200,6|0,1:2|0:0,0:0:0:0:
497,345,28174,6,0,P|513:306|471:356,1,250,6|0,1:2|0:0,0:0:0:0:
458,355,29299,5,2,0:0:0:0:
488,286,29674,1,2,0:0:0:0:
246,350,30049,6,0,L|267:202,1,125,6|2,1:2|1:2,0:0:0:0:
48,141,30424,1,10,0:0:0:0:
66,265,30611,1,0,1:0:0:0:
190,105,30799,1,2,1:2:0:0:
0,60,30986,1,2,1:2:0:0:
253,2,31174,1,10,0:0:0:0:
207,87,31361,1,2,0:0:0:0:
396,89,31549,6,0,P|359:48|217:74,1,187.5,6|0,1:2|0:0,0:0:0:0:
207,87,31924,1,8,0:0:0:0:
458,46,32111,2,0,P|484:113|492:176,1,125,2|0,1:2|0:0,0:0:0:0:
326,63,32486,1,2,1:2:0:0:
493,11,32674,1,8,0:0:0:0:
479,110,32861,1,2,1:2:0:0:
237,22,33049,6,0,L|254:172,1,125,6|2,1:2|1:2,0:0:0:0:
271,338,33424,1,10,0:0:0:0:
193,262,33611,1,0,1:0:0:0:
399,274,33799,1,2,1:2:0:0:
414,175,33986,1,2,1:2:0:0:
215,142,34174,1,10,0:0:0:0:
200,241,34361,1,2,0:0:0:0:
401,145,34549,6,0,P|347:95|229:119,1,187.5,6|0,1:2|0:0,0:0:0:0:
215,142,34924,1,8,0:0:0:0:
461,227,35111,2,0,L|438:99,1,125,2|0,1:2|0:0,0:0:0:0:
278,314,35486,1,2,1:2:0:0:
232,153,35674,1,8,0:0:0:0:
200,241,35861,1,2,1:2:0:0:
175,51,36049,6,0,L|367:80,1,187.5,6|0,1:2|0:0,0:0:0:0:
360,79,36424,1,8,0:0:0:0:
269,285,36611,2,0,L|77:256,1,187.5,6|0,1:2|0:0,0:0:0:0:
83,257,36986,1,2,1:2:0:0:
361,204,37174,2,0,L|382:287,1,62.5,10|0,0:0|0:0,0:0:0:0:
232,153,37361,2,0,L|253:70,1,62.5,2|0,1:2|0:0,0:0:0:0:
446,28,37549,6,0,L|494:214,1,187.5,6|0,1:2|0:0,0:0:0:0:
506,251,37924,1,10,0:0:0:0:
512,110,38111,1,2,1:2:0:0:
331,182,38299,1,0,0:0:0:0:
302,81,38486,1,2,1:2:0:0:
221,192,38674,1,10,0:0:0:0:
399,227,38861,1,2,1:2:0:0:
185,349,39049,6,0,L|217:203,1,125,6|0,1:2|1:0,0:0:0:0:
31,136,39424,2,0,L|63:282,1,125,10|0,0:0|0:0,0:0:0:0:
221,88,39799,2,0,P|188:21|100:0,1,125,2|0,1:2|1:0,0:0:0:0:
73,230,40174,1,8,0:0:0:0:
355,171,40361,6,0,L|524:196,1,125,6|0,1:2|0:0,0:0:0:0:
316,255,40736,1,2,1:2:0:0:
369,145,40924,1,10,0:0:0:0:
220,113,41111,1,2,1:2:0:0:
374,0,41299,2,0,L|359:145,1,125,2|6,0:0|1:2,0:0:0:0:
349,297,41674,1,10,0:0:0:0:
349,297,41767,1,10,0:0:0:0:
349,297,41861,1,10,0:0:0:0:
126,184,42049,6,0,L|-14:215,1,125,6|2,1:2|1:2,0:0:0:0:
229,295,42424,1,10,0:0:0:0:
256,131,42611,1,0,1:0:0:0:
57,160,42799,1,2,1:2:0:0:
294,229,42986,1,2,1:2:0:0:
271,47,43174,1,10,0:0:0:0:
113,202,43361,1,2,0:0:0:0:
410,261,43549,6,0,P|468:205|448:57,1,187.5,6|0,1:2|0:0,0:0:0:0:
453,60,43924,1,8,0:0:0:0:
347,285,44111,2,0,P|414:310|496:297,1,125,2|0,1:2|0:0,0:0:0:0:
376,123,44486,1,2,1:2:0:0:
403,337,44674,1,8,0:0:0:0:
432,228,44861,1,2,1:2:0:0:
211,275,45049,6,0,L|192:111,1,125,6|2,1:2|1:2,0:0:0:0:
180,5,45424,1,10,0:0:0:0:
283,89,45611,1,0,1:0:0:0:
86,148,45799,1,2,1:2:0:0:
168,28,45986,1,2,1:2:0:0:
354,128,46174,1,10,0:0:0:0:
345,33,46361,1,2,0:0:0:0:
370,262,46549,6,0,P|430:221|441:155,1,125,6|0,1:2|0:0,0:0:0:0:
238,207,46924,1,8,0:0:0:0:
377,14,47111,2,0,L|387:160,1,125,2|0,1:2|0:0,0:0:0:0:
136,233,47486,2,0,L|146:87,1,125,2|8,1:2|0:0,0:0:0:0:
230,240,47861,1,2,1:2:0:0:
122,377,48049,6,0,P|50:353|40:225,1,187.5,6|0,1:2|0:0,0:0:0:0:
24,252,48424,1,8,0:0:0:0:
277,208,48611,2,0,P|262:296|179:332,1,187.5,6|0,1:2|0:0,0:0:0:0:
178,331,48986,1,2,1:2:0:0:
91,123,49174,2,0,P|115:51|191:20,1,125,10|2,0:0|1:2,0:0:0:0:
133,262,49549,5,6,1:2:0:0:
213,344,49736,1,0,1:0:0:0:
0,375,49924,1,10,0:0:0:0:
208,259,50111,2,0,L|199:112,1,125,2|0,1:2|0:0,0:0:0:0:
213,344,50486,1,2,1:2:0:0:
235,197,50674,1,10,0:0:0:0:
278,283,50861,1,2,1:2:0:0:
417,91,51049,6,0,L|267:113,1,125,6|0,1:2|1:0,0:0:0:0:
69,0,51424,2,0,L|219:22,1,125,10|0,0:0|0:0,0:0:0:0:
118,240,51799,1,2,1:2:0:0:
97,140,51986,1,0,1:0:0:0:
301,216,52174,1,10,0:0:0:0:
203,274,52361,1,6,1:2:0:0:
203,274,52736,5,6,1:2:0:0:
184,106,52924,1,10,0:0:0:0:
201,245,53111,1,2,1:2:0:0:
178,25,53299,2,0,L|316:58,1,125,14|0,0:0|1:0,0:0:0:0:
121,223,53674,2,0,L|0:252,1,125,14|0,0:0|1:0,0:0:0:0:
296,360,54049,6,0,P|358:338|353:224,1,150,6|0,1:2|0:0,0:0:0:0:
377,262,54424,1,10,0:0:0:0:
134,262,54611,2,0,P|149:332|216:360,1,150,6|0,1:2|0:0,0:0:0:0:
216,359,54986,1,10,0:0:0:0:
256,160,55174,2,0,L|256:0,1,150,6|0,1:2|0:0,0:0:0:0:
256,10,55549,1,10,0:0:0:0:
256,256,55736,2,0,L|464:229,1,200,6|0,1:2|1:0,0:0:0:0:
454,230,56299,5,6,1:2:0:0:
32,128,56674,1,6,1:2:0:0:
