osu file format v14

[General]
AudioFilename: audio.mp3
AudioLeadIn: 0
PreviewTime: 29299
Countdown: 0
SampleSet: Soft
StackLeniency: 0.7
Mode: 3
LetterboxInBreaks: 0
SpecialStyle: 0
WidescreenStoryboard: 1

[Editor]
Bookmarks: 26205
DistanceSpacing: 1
BeatDivisor: 4
GridSize: 32
TimelineZoom: 1

[Metadata]
Title:WONDERFUL WONDER (TV Size)
TitleUnicode:WONDERFUL WONDER (TV Size)
Artist:EDOGA-SULLIVAN
ArtistUnicode:エドガー・サリヴァン
Creator:Sun
Version:Nabi's Normal
Source:みだらな青ちゃんは勉強ができない
Tags:_Asha Paran Nabi- Affirmation 淫らな青ちゃんは勉強ができない Midara na Ao-chan wa Benkyou ga Dekinai Ao-chan Can't Study! Opening op Japanese Anime 佐々木萌 Sasaki Moe 坂本遥 Sakamoto Haruka can't cant cannot pop jpop j-pop
BeatmapID:3605429
BeatmapSetID:1761527

[Difficulty]
HPDrainRate:7
CircleSize:4
OverallDifficulty:7
ApproachRate:5
SliderMultiplier:1.4
SliderTickRate:1

[Events]
//Background and Video events
0,0,"bg.jpg",0,0
Video,-955,"ao-chan.mp4"
//Break Periods
//Storyboard Layer 0 (Background)
//Storyboard Layer 1 (Fail)
//Storyboard Layer 2 (Pass)
//Storyboard Layer 3 (Foreground)
//Storyboard Layer 4 (Overlay)
//Storyboard Sound Samples
Sample,28174,0,"break.wav",70
Sample,37549,0,"softfinish.wav",70
Sample,49549,0,"softfinish.wav",70
Sample,54611,0,"softfinish.wav",70
Sample,55174,0,"cymbal.wav",70
Sample,55736,0,"softfinish.wav",70

[TimingPoints]
49,375.0,4,2,1,30,1,0
18049,-100.0,4,2,1,50,0,0
29299,-100.0,4,2,1,20,0,0
30049,-100.0,4,2,1,60,0,1
54049,-100.0,4,2,1,60,0,0

[HitObjects]
64,192,49,1,2,0:0:0:0:
448,192,49,1,0,0:0:0:70:softfinish.wav
192,192,424,1,8,0:0:0:0:
320,192,424,1,4,0:0:0:0:
448,192,611,1,4,0:0:0:0:
64,192,986,1,2,0:0:0:0:
192,192,1174,1,8,0:0:0:0:
320,192,1174,1,4,0:0:0:0:
448,192,1549,1,2,0:0:0:0:
192,192,1924,1,8,0:0:0:0:
320,192,1924,1,4,0:0:0:0:
64,192,2111,1,4,0:0:0:0:
448,192,2486,1,2,0:0:0:0:
192,192,2674,1,8,0:0:0:0:
320,192,2674,1,4,0:0:0:0:
64,192,2861,1,2,0:0:0:0:
320,192,3049,1,2,0:0:0:0:
448,192,3049,1,0,0:0:0:70:softfinish.wav
64,192,3424,1,8,0:0:0:0:
192,192,3424,1,4,0:0:0:0:
320,192,3611,1,4,0:0:0:0:
192,192,3986,1,2,0:0:0:0:
320,192,4174,1,8,0:0:0:0:
448,192,4174,1,4,0:0:0:0:
64,192,4549,1,2,0:0:0:0:
320,192,4924,1,8,0:0:0:0:
448,192,4924,1,4,0:0:0:0:
192,192,5111,1,4,0:0:0:0:
320,192,5486,1,2,0:0:0:0:
64,192,5674,1,8,0:0:0:0:
192,192,5674,1,4,0:0:0:0:
448,192,5861,1,2,0:0:0:0:
192,192,6049,1,2,0:0:0:0:
320,192,6049,1,0,0:0:0:70:softfinish.wav
64,192,6424,1,8,0:0:0:0:
448,192,6424,1,4,0:0:0:0:
320,192,6611,1,4,0:0:0:0:
192,192,6986,1,2,0:0:0:0:
64,192,7174,1,8,0:0:0:0:
448,192,7174,1,4,0:0:0:0:
320,192,7549,1,2,0:0:0:0:
64,192,7924,1,8,0:0:0:0:
448,192,7924,1,4,0:0:0:0:
192,192,8111,1,4,0:0:0:0:
320,192,8486,1,2,0:0:0:0:
64,192,8674,1,8,0:0:0:0:
448,192,8674,1,4,0:0:0:0:
192,192,8861,1,2,0:0:0:0:
320,192,9049,1,2,0:0:0:0:
448,192,9049,1,0,0:0:0:70:softfinish.wav
64,192,9424,1,8,0:0:0:0:
192,192,9424,1,4,0:0:0:0:
320,192,9611,1,4,0:0:0:0:
192,192,9986,1,2,0:0:0:0:
320,192,10174,1,8,0:0:0:0:
448,192,10174,1,4,0:0:0:0:
64,192,10549,1,2,0:0:0:0:
320,192,10924,1,8,0:0:0:0:
448,192,10924,1,4,0:0:0:0:
192,192,11111,1,4,0:0:0:0:
320,192,11486,1,2,0:0:0:0:
64,192,11674,1,8,0:0:0:0:
192,192,11674,1,4,0:0:0:0:
448,192,11861,1,2,0:0:0:0:
192,192,12049,1,2,0:0:0:0:
320,192,12049,1,0,0:0:0:70:softfinish.wav
64,192,12424,1,8,0:0:0:0:
448,192,12424,1,4,0:0:0:0:
192,192,12611,1,4,0:0:0:0:
320,192,12986,1,2,0:0:0:0:
64,192,13174,1,8,0:0:0:0:
448,192,13174,1,4,0:0:0:0:
192,192,13549,1,2,0:0:0:0:
64,192,13924,1,8,0:0:0:0:
448,192,13924,1,4,0:0:0:0:
320,192,14111,1,4,0:0:0:0:
192,192,14486,1,2,0:0:0:0:
64,192,14674,1,8,0:0:0:0:
448,192,14674,1,4,0:0:0:0:
320,192,14861,1,2,0:0:0:0:
64,192,15049,1,2,0:0:0:0:
192,192,15049,1,0,0:0:0:70:softfinish.wav
320,192,15424,1,8,0:0:0:0:
448,192,15424,1,4,0:0:0:0:
192,192,15611,1,4,0:0:0:0:
320,192,15986,1,2,0:0:0:0:
64,192,16174,1,8,0:0:0:0:
192,192,16174,1,4,0:0:0:0:
448,192,16549,1,2,0:0:0:0:
64,192,16924,1,8,0:0:0:0:
192,192,16924,1,4,0:0:0:0:
320,192,17111,1,4,0:0:0:0:
192,192,17486,1,2,0:0:0:0:
320,192,17674,1,8,0:0:0:0:
448,192,17674,1,4,0:0:0:0:
64,192,17861,1,2,0:0:0:0:
192,192,18049,1,2,0:0:0:0:
320,192,18049,1,0,0:0:0:70:softfinish.wav
64,192,18424,1,8,0:0:0:0:
448,192,18424,1,0,0:0:0:0:
320,192,18799,1,0,0:0:0:0:
192,192,18986,1,2,0:0:0:0:
64,192,19174,1,8,0:0:0:0:
448,192,19174,1,0,0:0:0:0:
320,192,19549,1,2,0:0:0:0:
64,192,19924,1,8,0:0:0:0:
192,192,19924,1,0,0:0:0:0:
448,192,20299,1,0,0:0:0:0:
64,192,20486,1,2,0:0:0:0:
192,192,20674,1,8,0:0:0:0:
320,192,20674,1,0,0:0:0:0:
448,192,20861,1,2,0:0:0:0:
64,192,21049,1,2,0:0:0:0:
192,192,21049,1,0,0:0:0:70:softfinish.wav
320,192,21424,1,8,0:0:0:0:
448,192,21424,1,0,0:0:0:0:
192,192,21799,1,0,0:0:0:0:
320,192,21986,1,2,0:0:0:0:
64,192,22174,1,8,0:0:0:0:
448,192,22174,1,0,0:0:0:0:
192,192,22549,1,2,0:0:0:0:
320,192,22924,1,8,0:0:0:0:
448,192,22924,1,0,0:0:0:0:
64,192,23299,1,0,0:0:0:0:
448,192,23486,1,2,0:0:0:0:
192,192,23674,1,8,0:0:0:0:
320,192,23674,1,0,0:0:0:0:
64,192,23861,1,2,0:0:0:0:
320,192,24049,1,2,0:0:0:0:
448,192,24049,1,0,0:0:0:70:softfinish.wav
64,192,24424,1,8,0:0:0:0:
192,192,24424,1,0,0:0:0:0:
320,192,24799,1,0,0:0:0:0:
192,192,24986,1,2,0:0:0:0:
64,192,25174,1,8,0:0:0:0:
448,192,25174,1,0,0:0:0:0:
320,192,25549,1,2,0:0:0:0:
64,192,25924,1,8,0:0:0:0:
192,192,25924,1,0,0:0:0:0:
448,192,26299,1,0,0:0:0:0:
64,192,26486,1,2,0:0:0:0:
192,192,26674,1,8,0:0:0:0:
320,192,26674,1,0,0:0:0:0:
448,192,26861,1,2,0:0:0:0:
64,192,27049,128,2,27424:0:0:0:0:
192,192,27049,1,0,0:0:0:70:softfinish.wav
320,192,27424,1,8,0:0:0:0:
448,192,27424,1,0,0:0:0:0:
64,192,27611,1,2,0:0:0:0:
192,192,27611,128,0,27986:0:0:0:0:
320,192,28174,128,2,29299:0:0:0:0:
448,192,28174,128,0,29299:0:0:0:70:cymbal.wav
192,192,30049,1,2,0:0:0:0:
320,192,30049,1,0,0:0:0:70:cymbal.wav
192,192,30236,1,2,0:0:0:0:
320,192,30424,1,8,0:0:0:0:
448,192,30424,1,0,0:0:0:0:
64,192,30611,1,0,0:0:0:0:
320,192,30799,1,2,0:0:0:0:
320,192,30986,1,2,0:0:0:0:
64,192,31174,1,8,0:0:0:0:
192,192,31174,1,0,0:0:0:0:
448,192,31361,1,0,0:0:0:0:
192,192,31549,128,2,32299:0:0:0:0:
320,192,31549,1,0,0:0:0:70:softfinish.wav
448,192,31924,1,8,0:0:0:0:
64,192,32111,1,2,0:0:0:0:
320,192,32486,1,2,0:0:0:0:
64,192,32674,1,8,0:0:0:0:
192,192,32674,1,0,0:0:0:0:
448,192,32861,1,2,0:0:0:0:
192,192,33049,1,2,0:0:0:0:
320,192,33049,1,0,0:0:0:70:softfinish.wav
320,192,33236,128,0,33424:0:0:0:0:
64,192,33424,1,8,0:0:0:0:
192,192,33424,1,0,0:0:0:0:
448,192,33611,1,2,0:0:0:0:
192,192,33799,1,0,0:0:0:0:
192,192,33986,128,2,34174:0:0:0:0:
320,192,34174,1,8,0:0:0:0:
448,192,34174,1,0,0:0:0:0:
64,192,34361,1,0,0:0:0:0:
192,192,34549,1,2,0:0:0:0:
320,192,34549,128,0,35299:0:0:0:70:softfinish.wav
64,192,34924,1,8,0:0:0:0:
448,192,35111,1,2,0:0:0:0:
192,192,35486,1,2,0:0:0:0:
320,192,35674,1,8,0:0:0:0:
448,192,35674,1,0,0:0:0:0:
64,192,35861,1,0,0:0:0:0:
192,192,36049,1,2,0:0:0:0:
320,192,36049,128,0,36424:0:0:0:70:softfinish.wav
64,192,36424,1,8,0:0:0:0:
448,192,36424,1,0,0:0:0:0:
192,192,36611,128,2,36986:0:0:0:0:
320,192,36986,1,2,0:0:0:0:
64,192,37174,128,8,37361:0:0:0:0:
448,192,37361,128,2,37924:0:0:0:0:
192,192,37549,1,2,0:0:0:0:
64,192,37924,1,8,0:0:0:0:
320,192,37924,1,0,0:0:0:0:
192,192,38111,1,2,0:0:0:0:
320,192,38486,1,2,0:0:0:0:
64,192,38674,1,8,0:0:0:0:
192,192,38674,1,0,0:0:0:0:
448,192,38861,1,2,0:0:0:0:
192,192,39049,128,2,39424:0:0:0:0:
320,192,39049,1,0,0:0:0:70:softfinish.wav
64,192,39236,1,2,0:0:0:0:
320,192,39424,128,8,39799:0:0:0:0:
448,192,39424,1,0,0:0:0:0:
64,192,39799,128,2,40174:0:0:0:0:
192,192,39986,1,2,0:0:0:0:
320,192,40174,1,8,0:0:0:0:
448,192,40174,1,0,0:0:0:0:
192,192,40361,128,2,40736:0:0:0:0:
320,192,40736,1,2,0:0:0:0:
64,192,40924,1,8,0:0:0:0:
448,192,40924,1,0,0:0:0:0:
192,192,41111,1,2,0:0:0:0:
320,192,41299,128,0,41486:0:0:0:0:
448,192,41486,128,2,41674:0:0:0:0:
64,192,41674,1,8,0:0:0:0:
192,192,41767,1,8,0:0:0:0:
320,192,41861,1,2,0:0:0:0:
64,192,42049,1,2,0:0:0:0:
448,192,42049,1,0,0:0:0:70:cymbal.wav
64,192,42236,1,2,0:0:0:0:
320,192,42424,1,8,0:0:0:0:
448,192,42424,1,0,0:0:0:0:
192,192,42611,1,0,0:0:0:0:
448,192,42799,1,2,0:0:0:0:
448,192,42986,1,2,0:0:0:0:
64,192,43174,1,8,0:0:0:0:
192,192,43174,1,0,0:0:0:0:
320,192,43361,1,0,0:0:0:0:
64,192,43549,128,2,44299:0:0:0:0:
448,192,43549,1,0,0:0:0:70:softfinish.wav
320,192,43924,1,8,0:0:0:0:
192,192,44111,1,2,0:0:0:0:
448,192,44486,1,2,0:0:0:0:
64,192,44674,1,8,0:0:0:0:
192,192,44674,1,0,0:0:0:0:
320,192,44861,1,0,0:0:0:0:
64,192,45049,1,2,0:0:0:0:
448,192,45049,1,0,0:0:0:70:softfinish.wav
448,192,45236,128,0,45424:0:0:0:0:
64,192,45424,1,8,0:0:0:0:
192,192,45424,1,0,0:0:0:0:
320,192,45611,1,2,0:0:0:0:
64,192,45799,1,0,0:0:0:0:
64,192,45986,128,2,46174:0:0:0:0:
320,192,46174,1,8,0:0:0:0:
448,192,46174,1,0,0:0:0:0:
192,192,46361,1,0,0:0:0:0:
64,192,46549,1,2,0:0:0:0:
448,192,46549,128,0,46924:0:0:0:70:softfinish.wav
192,192,46924,1,8,0:0:0:0:
320,192,46924,1,0,0:0:0:0:
64,192,47111,128,2,47486:0:0:0:0:
448,192,47486,1,2,0:0:0:0:
192,192,47674,1,8,0:0:0:0:
320,192,47674,1,0,0:0:0:0:
64,192,48049,1,2,0:0:0:0:
448,192,48049,128,0,48424:0:0:0:70:softfinish.wav
320,192,48236,1,2,0:0:0:0:
64,192,48424,1,8,0:0:0:0:
192,192,48424,1,0,0:0:0:0:
320,192,48611,128,0,48986:0:0:0:0:
448,192,48799,1,2,0:0:0:0:
64,192,48986,1,2,0:0:0:0:
192,192,49174,128,8,49361:0:0:0:0:
448,192,49174,1,0,0:0:0:0:
64,192,49361,128,0,49924:0:0:0:0:
320,192,49549,1,2,0:0:0:0:
192,192,49736,1,2,0:0:0:0:
320,192,49924,1,8,0:0:0:0:
448,192,49924,1,0,0:0:0:0:
192,192,50111,1,2,0:0:0:0:
64,192,50486,1,2,0:0:0:0:
320,192,50674,1,8,0:0:0:0:
448,192,50674,1,0,0:0:0:0:
192,192,50861,1,0,0:0:0:0:
64,192,51049,1,2,0:0:0:0:
448,192,51049,1,0,0:0:0:70:softfinish.wav
448,192,51236,1,2,0:0:0:0:
192,192,51424,1,8,0:0:0:0:
320,192,51424,128,0,51799:0:0:0:0:
64,192,51799,1,2,0:0:0:0:
64,192,51986,1,2,0:0:0:0:
192,192,52174,1,8,0:0:0:0:
320,192,52174,1,0,0:0:0:0:
448,192,52361,128,2,52736:0:0:0:0:
64,192,52736,128,2,52924:0:0:0:0:
192,192,52924,128,8,53111:0:0:0:0:
448,192,52924,1,0,0:0:0:0:
320,192,53111,128,2,53299:0:0:0:0:
64,192,53299,1,8,0:0:0:0:
448,192,53299,1,0,0:0:0:0:
192,192,53486,1,2,0:0:0:0:
64,192,53674,1,8,0:0:0:0:
448,192,53674,1,0,0:0:0:0:
320,192,53861,1,2,0:0:0:0:
192,192,54049,1,2,0:0:0:0:
320,192,54049,128,0,54424:0:0:0:70:cymbal.wav
64,192,54424,1,8,0:0:0:0:
448,192,54424,1,0,0:0:0:0:
64,192,54611,128,8,54986:0:0:0:0:
320,192,54986,1,8,0:0:0:0:
448,192,54986,1,0,0:0:0:0:
448,192,55174,128,8,55549:0:0:0:0:
64,192,55549,1,8,0:0:0:0:
192,192,55549,1,0,0:0:0:0:
192,192,55736,128,8,56111:0:0:0:0:
320,192,56111,1,2,0:0:0:0:
64,192,56299,128,8,56486:0:0:0:0:
448,192,56299,128,0,56486:0:0:0:0:
64,192,56674,128,8,57049:0:0:0:0:
448,192,56674,128,0,57049:0:0:0:0:
