osu file format v14

[General]
AudioFilename: audio.mp3
AudioLeadIn: 0
PreviewTime: 17911
Countdown: 0
SampleSet: Normal
StackLeniency: 0.7
Mode: 1
LetterboxInBreaks: 0
WidescreenStoryboard: 0

[Editor]
DistanceSpacing: 2
BeatDivisor: 4
GridSize: 32
TimelineZoom: 1.9

[Metadata]
Title:WONDERFUL WONDER (TV Size)
TitleUnicode:WONDERFUL WONDER (TV Size)
Artist:EDOGA-SULLIVAN
ArtistUnicode:エドガー・サリヴァン
Creator:Een Persoon
Version:Oni
Source:みだらな青ちゃんは勉強ができない
Tags:Midara na Ao-chan wa Benkyou ga Dekinai Can't Study! Opening Japanese Anime 佐々木萌 Moe Sasaki 坂本遥 Haruka Sakamoto jpop pop j-pop
BeatmapID:2756836
BeatmapSetID:1330627

[Difficulty]
HPDrainRate:6
CircleSize:2
OverallDifficulty:5
ApproachRate:10
SliderMultiplier:1.4
SliderTickRate:1

[Events]
//Background and Video events
0,0,"stolen from Kuki1537.jpg",0,90
//Break Periods
//Storyboard Layer 0 (Background)
//Storyboard Layer 1 (Fail)
//Storyboard Layer 2 (Pass)
//Storyboard Layer 3 (Foreground)
//Storyboard Layer 4 (Overlay)
//Storyboard Sound Samples

[TimingPoints]
99,375,4,1,0,52,1,0
99,-125,4,1,0,52,0,0
5536,-121.212121212121,4,1,0,52,0,0
5724,-117.647058823529,4,1,0,52,0,0
5911,-114.285714285714,4,1,0,52,0,0
6099,-111.111111111111,4,1,0,62,0,0
17536,-108.695652173913,4,1,0,62,0,0
17630,-106.382978723404,4,1,0,62,0,0
17724,-104.166666666667,4,1,0,62,0,0
17911,-102.040816326531,4,1,0,62,0,0
18099,-100,4,1,0,72,0,0
30099,-90.9090909090909,4,1,0,82,0,1
54474,-93.0232558139535,4,1,0,82,0,1
55036,-95.2380952380952,4,1,0,82,0,1
55599,-97.5609756097561,4,1,0,82,0,1
56161,-100,4,1,0,82,0,1
56724,-100,4,1,0,82,0,0

[HitObjects]
256,192,99,5,4,0:0:0:0:
266,149,474,1,8,0:0:0:0:
266,149,661,1,8,0:0:0:0:
266,149,1036,1,0,0:0:0:0:
266,149,1224,1,8,0:0:0:0:
266,149,1599,1,0,0:0:0:0:
256,145,1974,1,8,0:0:0:0:
256,145,2161,1,8,0:0:0:0:
256,145,2536,1,0,0:0:0:0:
256,145,2724,1,8,0:0:0:0:
256,145,2911,1,0,0:0:0:0:
256,145,3099,1,4,0:0:0:0:
262,117,3474,1,8,0:0:0:0:
262,117,3661,1,8,0:0:0:0:
262,117,4036,1,0,0:0:0:0:
262,117,4224,1,8,0:0:0:0:
262,117,4599,1,0,0:0:0:0:
262,117,4974,1,8,0:0:0:0:
262,117,5161,1,8,0:0:0:0:
268,136,5536,1,0,0:0:0:0:
268,136,5724,1,8,0:0:0:0:
268,136,5911,1,8,0:0:0:0:
268,136,6099,1,4,0:0:0:0:
214,131,6474,1,0,0:0:0:0:
214,131,6661,1,8,0:0:0:0:
214,131,6849,1,8,0:0:0:0:
268,136,7036,1,0,0:0:0:0:
268,136,7224,1,8,0:0:0:0:
268,136,7411,1,0,0:0:0:0:
243,61,7786,1,0,0:0:0:0:
243,61,7974,1,8,0:0:0:0:
266,124,8161,1,8,0:0:0:0:
266,124,8536,1,0,0:0:0:0:
266,124,8724,1,8,0:0:0:0:
266,124,8911,1,8,0:0:0:0:
231,106,9099,1,4,0:0:0:0:
320,134,9474,1,8,0:0:0:0:
320,134,9661,1,8,0:0:0:0:
320,134,9849,1,0,0:0:0:0:
320,134,10036,1,0,0:0:0:0:
320,134,10224,1,8,0:0:0:0:
208,149,10599,1,0,0:0:0:0:
208,149,10974,1,8,0:0:0:0:
208,149,11161,1,8,0:0:0:0:
208,149,11536,1,0,0:0:0:0:
208,149,11724,1,8,0:0:0:0:
208,149,11911,1,8,0:0:0:0:
208,149,12099,1,4,0:0:0:0:
225,158,12286,1,0,0:0:0:0:
225,158,12474,1,8,0:0:0:0:
261,113,12849,1,8,0:0:0:0:
261,113,13036,1,0,0:0:0:0:
261,113,13224,1,8,0:0:0:0:
201,107,13599,1,0,0:0:0:0:
201,107,13974,1,8,0:0:0:0:
201,107,14161,1,8,0:0:0:0:
201,107,14536,1,0,0:0:0:0:
201,107,14724,1,8,0:0:0:0:
201,107,14911,1,8,0:0:0:0:
201,107,15099,1,4,0:0:0:0:
258,141,15474,1,8,0:0:0:0:
258,141,15661,1,8,0:0:0:0:
258,141,15849,1,0,0:0:0:0:
258,141,16036,1,0,0:0:0:0:
258,141,16224,1,8,0:0:0:0:
253,121,16599,1,0,0:0:0:0:
253,121,16974,1,8,0:0:0:0:
253,121,17161,1,8,0:0:0:0:
253,121,17536,1,0,0:0:0:0:
253,108,17630,1,0,0:0:0:0:
253,121,17724,1,8,0:0:0:0:
253,121,17911,1,0,0:0:0:0:
214,105,18099,1,4,0:0:0:0:
291,136,18474,1,8,0:0:0:0:
282,114,18661,1,8,0:0:0:0:
291,136,19036,1,0,0:0:0:0:
286,109,19224,1,8,0:0:0:0:
286,109,19411,1,8,0:0:0:0:
286,109,19505,1,8,0:0:0:0:
282,114,19599,1,0,0:0:0:0:
286,109,19786,1,0,0:0:0:0:
286,109,19974,1,8,0:0:0:0:
269,86,20349,1,0,0:0:0:0:
269,86,20536,1,0,0:0:0:0:
269,86,20724,1,8,0:0:0:0:
269,86,20911,1,0,0:0:0:0:
269,86,21005,1,0,0:0:0:0:
269,86,21099,1,0,0:0:0:0:
226,134,21474,1,8,0:0:0:0:
226,134,21661,1,0,0:0:0:0:
226,134,22036,1,0,0:0:0:0:
226,134,22224,1,8,0:0:0:0:
226,134,22411,1,0,0:0:0:0:
226,134,22505,1,0,0:0:0:0:
226,134,22599,1,8,0:0:0:0:
226,134,22786,1,0,0:0:0:0:
226,134,22974,1,8,0:0:0:0:
280,103,23349,1,8,0:0:0:0:
280,103,23536,1,0,0:0:0:0:
280,103,23724,1,8,0:0:0:0:
280,103,23911,1,0,0:0:0:0:
280,103,24005,1,0,0:0:0:0:
280,103,24099,1,0,0:0:0:0:
280,130,24474,1,8,0:0:0:0:
280,130,24661,1,8,0:0:0:0:
280,130,25036,1,0,0:0:0:0:
280,130,25224,1,8,0:0:0:0:
280,130,25411,1,8,0:0:0:0:
280,130,25505,1,0,0:0:0:0:
280,130,25599,1,8,0:0:0:0:
280,130,25786,1,0,0:0:0:0:
280,130,25974,1,8,0:0:0:0:
237,97,26349,1,0,0:0:0:0:
237,97,26536,1,0,0:0:0:0:
237,97,26724,1,8,0:0:0:0:
237,97,26911,1,0,0:0:0:0:
237,97,27005,1,0,0:0:0:0:
237,97,27099,1,12,0:0:0:0:
237,97,27474,1,8,0:0:0:0:
237,97,27661,1,12,0:0:0:0:
237,97,28036,1,0,0:0:0:0:
237,97,28224,1,4,0:0:0:0:
256,192,28599,12,0,29349,0:0:0:0:
263,157,30099,5,12,0:0:0:0:
256,139,30286,1,0,0:0:0:0:
256,139,30380,1,0,0:0:0:0:
242,100,30474,1,8,0:0:0:0:
256,139,30661,1,8,0:0:0:0:
333,117,30849,1,0,0:0:0:0:
333,117,30942,1,0,0:0:0:0:
333,117,31036,1,8,0:0:0:0:
333,117,31130,1,0,0:0:0:0:
316,85,31224,1,8,0:0:0:0:
316,85,31411,1,0,0:0:0:0:
316,85,31599,1,12,0:0:0:0:
315,107,31974,1,8,0:0:0:0:
315,107,32161,1,8,0:0:0:0:
315,107,32536,1,0,0:0:0:0:
316,108,32724,1,8,0:0:0:0:
315,107,32911,1,0,0:0:0:0:
315,107,33005,1,0,0:0:0:0:
315,107,33099,1,12,0:0:0:0:
246,119,33286,1,8,0:0:0:0:
246,119,33474,1,0,0:0:0:0:
246,119,33661,1,8,0:0:0:0:
246,119,33849,1,8,0:0:0:0:
246,119,33942,1,8,0:0:0:0:
246,119,34036,1,0,0:0:0:0:
246,119,34130,1,0,0:0:0:0:
246,119,34224,1,8,0:0:0:0:
246,119,34411,1,0,0:0:0:0:
246,119,34599,1,12,0:0:0:0:
346,58,34974,1,8,0:0:0:0:
346,58,35161,1,8,0:0:0:0:
336,99,35536,1,0,0:0:0:0:
336,99,35724,1,8,0:0:0:0:
336,99,35911,1,0,0:0:0:0:
292,119,36005,1,0,0:0:0:0:
244,72,36099,1,12,0:0:0:0:
292,119,36474,1,0,0:0:0:0:
244,72,36661,1,8,0:0:0:0:
258,112,37036,1,0,0:0:0:0:
258,112,37224,1,8,0:0:0:0:
257,112,37411,1,8,0:0:0:0:
320,140,37505,1,8,0:0:0:0:
258,112,37599,1,4,0:0:0:0:
234,147,37786,1,0,0:0:0:0:
234,147,37974,1,8,0:0:0:0:
234,147,38161,1,0,0:0:0:0:
305,127,38349,1,8,0:0:0:0:
305,127,38536,1,8,0:0:0:0:
277,94,38630,1,8,0:0:0:0:
305,127,38724,1,0,0:0:0:0:
277,94,38817,1,0,0:0:0:0:
277,94,38911,1,8,0:0:0:0:
232,98,39099,1,4,0:0:0:0:
232,98,39286,1,0,0:0:0:0:
232,98,39474,1,8,0:0:0:0:
232,98,39661,1,0,0:0:0:0:
232,98,39849,1,8,0:0:0:0:
238,71,40036,1,0,0:0:0:0:
245,78,40130,1,0,0:0:0:0:
272,113,40224,1,0,0:0:0:0:
272,113,40411,1,8,0:0:0:0:
217,94,40786,1,0,0:0:0:0:
217,94,40974,1,8,0:0:0:0:
217,94,41067,1,0,0:0:0:0:
217,94,41161,1,8,0:0:0:0:
217,94,41349,1,0,0:0:0:0:
217,94,41536,1,8,0:0:0:0:
217,94,41630,1,0,0:0:0:0:
217,94,41724,1,8,0:0:0:0:
217,94,41817,1,8,0:0:0:0:
217,94,41911,1,0,0:0:0:0:
217,94,42099,1,12,0:0:0:0:
262,137,42286,1,0,0:0:0:0:
262,137,42380,1,0,0:0:0:0:
262,137,42474,1,8,0:0:0:0:
262,137,42661,1,0,0:0:0:0:
262,137,42849,1,8,0:0:0:0:
262,137,42942,1,8,0:0:0:0:
262,137,43036,1,0,0:0:0:0:
262,137,43130,1,0,0:0:0:0:
262,137,43224,1,8,0:0:0:0:
262,137,43411,1,0,0:0:0:0:
262,137,43599,1,12,0:0:0:0:
273,107,43974,1,8,0:0:0:0:
273,107,44161,1,8,0:0:0:0:
273,107,44536,1,0,0:0:0:0:
273,107,44724,1,8,0:0:0:0:
287,95,44911,1,0,0:0:0:0:
286,95,45005,1,0,0:0:0:0:
286,95,45099,1,12,0:0:0:0:
231,64,45286,1,8,0:0:0:0:
216,102,45474,1,0,0:0:0:0:
270,77,45661,1,8,0:0:0:0:
270,77,45849,1,0,0:0:0:0:
323,92,45942,1,0,0:0:0:0:
270,77,46036,1,8,0:0:0:0:
204,64,46130,1,0,0:0:0:0:
204,64,46224,1,8,0:0:0:0:
204,64,46411,1,0,0:0:0:0:
204,64,46599,1,12,0:0:0:0:
304,161,46786,1,0,0:0:0:0:
271,96,46974,1,8,0:0:0:0:
271,96,47161,1,8,0:0:0:0:
271,96,47536,1,0,0:0:0:0:
271,96,47724,1,8,0:0:0:0:
271,96,47911,1,0,0:0:0:0:
271,96,48005,1,0,0:0:0:0:
271,96,48099,1,12,0:0:0:0:
291,137,48286,1,0,0:0:0:0:
291,137,48474,1,0,0:0:0:0:
291,137,48661,1,8,0:0:0:0:
358,99,49036,1,0,0:0:0:0:
358,99,49224,1,8,0:0:0:0:
260,171,49411,1,8,0:0:0:0:
365,122,49505,1,8,0:0:0:0:
260,171,49599,1,4,0:0:0:0:
260,171,49786,1,0,0:0:0:0:
260,171,49974,1,8,0:0:0:0:
260,171,50161,1,0,0:0:0:0:
255,127,50536,1,0,0:0:0:0:
255,127,50630,1,0,0:0:0:0:
255,127,50724,1,8,0:0:0:0:
255,127,50911,1,0,0:0:0:0:
292,120,51099,1,12,0:0:0:0:
292,120,51286,1,0,0:0:0:0:
281,113,51380,1,0,0:0:0:0:
292,120,51474,1,8,0:0:0:0:
221,143,51567,1,8,0:0:0:0:
292,120,51661,1,0,0:0:0:0:
292,120,51849,1,8,0:0:0:0:
281,113,51942,1,0,0:0:0:0:
292,120,52036,1,8,0:0:0:0:
292,120,52224,1,0,0:0:0:0:
292,120,52411,1,8,0:0:0:0:
230,95,52786,1,0,0:0:0:0:
230,95,52974,1,8,0:0:0:0:
230,95,53161,1,0,0:0:0:0:
281,84,53255,1,0,0:0:0:0:
230,95,53349,1,8,0:0:0:0:
235,74,53536,1,0,0:0:0:0:
235,74,53724,1,8,0:0:0:0:
273,142,53817,1,8,0:0:0:0:
285,94,53911,1,0,0:0:0:0:
235,74,54099,1,12,0:0:0:0:
235,74,54474,1,0,0:0:0:0:
235,74,54661,1,12,0:0:0:0:
235,74,55036,1,0,0:0:0:0:
235,74,55224,1,12,0:0:0:0:
235,74,55599,1,0,0:0:0:0:
235,74,55786,1,12,0:0:0:0:
309,168,56161,1,8,0:0:0:0:
294,168,56349,1,4,0:0:0:0:
294,168,56724,1,4,0:0:0:0:
