osu file format v14

[General]
AudioFilename: audio.mp3
AudioLeadIn: 0
PreviewTime: 17911
Countdown: 0
SampleSet: Normal
StackLeniency: 0.7
Mode: 1
LetterboxInBreaks: 0
WidescreenStoryboard: 1

[Editor]
DistanceSpacing: 2
BeatDivisor: 4
GridSize: 32
TimelineZoom: 1.9

[Metadata]
Title:WONDERFUL WONDER (TV Size)
TitleUnicode:WONDERFUL WONDER (TV Size)
Artist:EDOGA-SULLIVAN
ArtistUnicode:エドガー・サリヴァン
Creator:Een Persoon
Version:Muzukashii
Source:みだらな青ちゃんは勉強ができない
Tags:Midara na Ao-chan wa Benkyou ga Dekinai Can't Study! Opening Japanese Anime 佐々木萌 Moe Sasaki 坂本遥 Haruka Sakamoto jpop pop j-pop
BeatmapID:2756932
BeatmapSetID:1330627

[Difficulty]
HPDrainRate:7
CircleSize:2
OverallDifficulty:4
ApproachRate:10
SliderMultiplier:1.4
SliderTickRate:1

[Events]
//Background and Video events
0,0,"stolen from Kuki1537.jpg",0,90
//Break Periods
//Storyboard Layer 0 (Background)
//Storyboard Layer 1 (Fail)
//Storyboard Layer 2 (Pass)
//Storyboard Layer 3 (Foreground)
//Storyboard Layer 4 (Overlay)
//Storyboard Sound Samples

[TimingPoints]
99,375,4,1,0,52,1,0
99,-125,4,1,0,52,0,0
5536,-121.212121212121,4,1,0,52,0,0
5724,-117.647058823529,4,1,0,52,0,0
5911,-114.285714285714,4,1,0,52,0,0
6099,-111.111111111111,4,1,0,62,0,0
17536,-108.695652173913,4,1,0,62,0,0
17630,-106.382978723404,4,1,0,62,0,0
17724,-104.166666666667,4,1,0,62,0,0
17911,-102.040816326531,4,1,0,62,0,0
18099,-100,4,1,0,72,0,0
30099,-90.9090909090909,4,1,0,82,0,1
54474,-93.0232558139535,4,1,0,82,0,1
55036,-95.2380952380952,4,1,0,82,0,1
55599,-97.5609756097561,4,1,0,82,0,1
56349,-100,4,1,0,82,0,1
56724,-100,4,1,0,82,0,0

[HitObjects]
260,185,99,5,4,0:0:0:0:
260,185,474,1,8,0:0:0:0:
260,185,661,1,8,0:0:0:0:
260,185,1224,1,8,0:0:0:0:
260,185,1599,1,0,0:0:0:0:
260,185,1974,1,8,0:0:0:0:
260,185,2161,1,8,0:0:0:0:
260,185,2724,1,8,0:0:0:0:
260,185,2911,1,0,0:0:0:0:
260,185,3099,1,4,0:0:0:0:
272,135,3474,1,8,0:0:0:0:
272,135,3661,1,8,0:0:0:0:
272,135,4224,1,8,0:0:0:0:
251,138,4599,1,0,0:0:0:0:
251,138,4974,1,8,0:0:0:0:
251,138,5161,1,8,0:0:0:0:
251,138,5536,1,0,0:0:0:0:
251,138,5724,1,8,0:0:0:0:
274,108,5911,1,8,0:0:0:0:
251,138,6099,1,4,0:0:0:0:
238,133,6474,1,0,0:0:0:0:
238,133,6661,1,8,0:0:0:0:
238,133,6849,1,8,0:0:0:0:
238,133,7224,1,8,0:0:0:0:
238,133,7411,1,0,0:0:0:0:
238,133,7786,1,0,0:0:0:0:
238,133,7974,1,8,0:0:0:0:
238,133,8161,1,8,0:0:0:0:
289,90,8724,1,8,0:0:0:0:
289,90,9099,1,4,0:0:0:0:
203,106,9474,1,8,0:0:0:0:
203,106,9661,1,8,0:0:0:0:
203,106,9849,1,0,0:0:0:0:
279,81,10036,1,0,0:0:0:0:
203,106,10224,1,8,0:0:0:0:
219,84,10599,1,0,0:0:0:0:
220,84,10974,1,8,0:0:0:0:
275,71,11536,1,0,0:0:0:0:
275,71,11724,1,8,0:0:0:0:
275,71,11911,1,8,0:0:0:0:
275,71,12099,1,4,0:0:0:0:
216,93,12474,1,8,0:0:0:0:
216,93,12849,1,8,0:0:0:0:
216,93,13036,1,0,0:0:0:0:
216,93,13224,1,8,0:0:0:0:
280,111,13599,1,0,0:0:0:0:
280,111,13974,1,8,0:0:0:0:
280,111,14536,1,0,0:0:0:0:
280,111,14724,1,8,0:0:0:0:
280,111,14911,1,8,0:0:0:0:
280,111,15099,1,4,0:0:0:0:
280,111,15474,1,8,0:0:0:0:
280,111,15661,1,0,0:0:0:0:
280,111,15849,1,8,0:0:0:0:
280,111,16224,1,0,0:0:0:0:
255,93,16599,1,0,0:0:0:0:
310,89,16974,1,8,0:0:0:0:
310,89,17536,1,8,0:0:0:0:
294,119,17630,1,8,0:0:0:0:
310,89,17724,1,8,0:0:0:0:
310,89,18099,1,4,0:0:0:0:
236,152,18661,1,8,0:0:0:0:
236,152,19036,1,0,0:0:0:0:
236,152,19224,1,8,0:0:0:0:
236,152,19411,1,8,0:0:0:0:
236,152,19599,1,0,0:0:0:0:
236,152,19974,1,8,0:0:0:0:
236,152,20349,1,0,0:0:0:0:
236,152,20536,1,0,0:0:0:0:
236,152,20724,1,8,0:0:0:0:
298,108,21099,1,0,0:0:0:0:
298,108,21661,1,8,0:0:0:0:
277,78,22036,1,0,0:0:0:0:
277,79,22224,1,8,0:0:0:0:
277,79,22411,1,0,0:0:0:0:
277,79,22599,1,8,0:0:0:0:
277,78,22974,1,8,0:0:0:0:
277,79,23349,1,0,0:0:0:0:
223,83,23724,1,8,0:0:0:0:
223,83,23911,1,0,0:0:0:0:
223,83,24099,1,0,0:0:0:0:
223,83,24661,1,8,0:0:0:0:
248,83,25036,1,0,0:0:0:0:
256,79,25224,1,8,0:0:0:0:
256,79,25411,1,8,0:0:0:0:
256,79,25599,1,0,0:0:0:0:
296,58,25974,1,8,0:0:0:0:
296,58,26349,1,0,0:0:0:0:
296,58,26536,1,0,0:0:0:0:
296,58,26724,1,8,0:0:0:0:
215,102,26911,1,0,0:0:0:0:
215,102,27099,1,12,0:0:0:0:
227,103,27474,1,8,0:0:0:0:
227,103,27661,1,12,0:0:0:0:
227,103,28224,1,4,0:0:0:0:
256,192,28599,12,0,29349,0:0:0:0:
266,177,30099,5,12,0:0:0:0:
266,177,30286,1,0,0:0:0:0:
266,177,30474,1,8,0:0:0:0:
311,140,30661,1,8,0:0:0:0:
311,140,30849,1,0,0:0:0:0:
311,140,30942,1,0,0:0:0:0:
311,140,31036,1,0,0:0:0:0:
311,140,31224,1,8,0:0:0:0:
311,140,31411,1,0,0:0:0:0:
311,140,31599,1,12,0:0:0:0:
251,112,31974,1,8,0:0:0:0:
251,112,32161,1,8,0:0:0:0:
251,112,32536,1,0,0:0:0:0:
251,112,32724,1,8,0:0:0:0:
289,118,33099,1,12,0:0:0:0:
289,118,33286,1,0,0:0:0:0:
289,118,33474,1,0,0:0:0:0:
289,118,33661,1,8,0:0:0:0:
289,118,33849,1,8,0:0:0:0:
289,118,34036,1,0,0:0:0:0:
331,108,34130,1,0,0:0:0:0:
289,118,34224,1,0,0:0:0:0:
289,118,34411,1,0,0:0:0:0:
289,118,34599,1,12,0:0:0:0:
256,117,34974,1,8,0:0:0:0:
256,117,35161,1,8,0:0:0:0:
256,117,35536,1,0,0:0:0:0:
329,104,36099,1,12,0:0:0:0:
240,102,36474,1,0,0:0:0:0:
233,63,36661,1,8,0:0:0:0:
247,82,37036,1,0,0:0:0:0:
233,63,37224,1,8,0:0:0:0:
233,63,37411,1,8,0:0:0:0:
240,99,37599,1,4,0:0:0:0:
240,99,37974,1,8,0:0:0:0:
314,115,38161,1,8,0:0:0:0:
240,99,38536,1,0,0:0:0:0:
240,99,38724,1,8,0:0:0:0:
264,72,38817,1,8,0:0:0:0:
264,72,38911,1,8,0:0:0:0:
264,72,39099,1,4,0:0:0:0:
264,72,39474,1,8,0:0:0:0:
264,72,39661,1,0,0:0:0:0:
264,72,39849,1,8,0:0:0:0:
264,72,40036,1,0,0:0:0:0:
293,98,40130,1,0,0:0:0:0:
264,72,40224,1,0,0:0:0:0:
293,98,40411,1,8,0:0:0:0:
267,134,40786,1,0,0:0:0:0:
267,134,40974,1,8,0:0:0:0:
267,134,41161,1,8,0:0:0:0:
266,124,41349,1,0,0:0:0:0:
266,112,42099,1,12,0:0:0:0:
266,109,42286,1,0,0:0:0:0:
266,109,42474,1,8,0:0:0:0:
266,109,42661,1,8,0:0:0:0:
266,109,42849,1,0,0:0:0:0:
308,102,42942,1,0,0:0:0:0:
308,102,43036,1,0,0:0:0:0:
308,102,43224,1,8,0:0:0:0:
308,102,43411,1,0,0:0:0:0:
308,102,43599,1,12,0:0:0:0:
352,152,43974,1,8,0:0:0:0:
352,152,44161,1,8,0:0:0:0:
352,152,44536,1,0,0:0:0:0:
352,152,44724,1,8,0:0:0:0:
352,152,45099,1,12,0:0:0:0:
361,112,45286,1,0,0:0:0:0:
361,112,45474,1,0,0:0:0:0:
361,112,45661,1,8,0:0:0:0:
295,83,45755,1,8,0:0:0:0:
361,112,45849,1,8,0:0:0:0:
295,83,46036,1,0,0:0:0:0:
295,83,46224,1,8,0:0:0:0:
357,125,46411,1,0,0:0:0:0:
361,112,46599,1,12,0:0:0:0:
361,112,46974,1,8,0:0:0:0:
361,112,47161,1,8,0:0:0:0:
361,112,47536,1,0,0:0:0:0:
306,104,48099,1,12,0:0:0:0:
306,104,48286,1,0,0:0:0:0:
306,104,48474,1,0,0:0:0:0:
306,104,48661,1,8,0:0:0:0:
306,104,49036,1,0,0:0:0:0:
306,104,49224,1,8,0:0:0:0:
306,104,49411,1,8,0:0:0:0:
306,104,49599,1,4,0:0:0:0:
218,113,49974,1,8,0:0:0:0:
208,8,50536,1,0,0:0:0:0:
245,42,50724,1,8,0:0:0:0:
245,42,50911,1,8,0:0:0:0:
270,129,51099,1,4,0:0:0:0:
270,129,51286,1,8,0:0:0:0:
270,129,51380,1,8,0:0:0:0:
270,129,51474,1,8,0:0:0:0:
270,129,51661,1,0,0:0:0:0:
270,129,51849,1,8,0:0:0:0:
270,129,52036,1,8,0:0:0:0:
270,129,52224,1,0,0:0:0:0:
270,129,52411,1,8,0:0:0:0:
317,135,52786,1,0,0:0:0:0:
267,113,52974,1,8,0:0:0:0:
267,113,53161,1,8,0:0:0:0:
267,113,53255,1,8,0:0:0:0:
267,113,53349,1,8,0:0:0:0:
264,93,53536,1,0,0:0:0:0:
264,93,53724,1,8,0:0:0:0:
264,93,53911,1,0,0:0:0:0:
264,93,54099,1,12,0:0:0:0:
311,135,54474,1,0,0:0:0:0:
326,96,54661,1,12,0:0:0:0:
326,96,55036,1,0,0:0:0:0:
326,96,55224,1,12,0:0:0:0:
297,73,55599,1,0,0:0:0:0:
297,73,55786,1,12,0:0:0:0:
207,107,56349,1,4,0:0:0:0:
207,107,56724,1,4,0:0:0:0:
