osu file format v14

[General]
AudioFilename: audio.mp3
AudioLeadIn: 0
PreviewTime: 17911
Countdown: 0
SampleSet: Normal
StackLeniency: 0.7
Mode: 1
LetterboxInBreaks: 0
WidescreenStoryboard: 1

[Editor]
DistanceSpacing: 2
BeatDivisor: 4
GridSize: 32
TimelineZoom: 1.9

[Metadata]
Title:WONDERFUL WONDER (TV Size)
TitleUnicode:WONDERFUL WONDER (TV Size)
Artist:EDOGA-SULLIVAN
ArtistUnicode:エドガー・サリヴァン
Creator:Een Persoon
Version:Futsuu
Source:みだらな青ちゃんは勉強ができない
Tags:Midara na Ao-chan wa Benkyou ga Dekinai Can't Study! Opening Japanese Anime 佐々木萌 Moe Sasaki 坂本遥 Haruka Sakamoto jpop pop j-pop
BeatmapID:2757029
BeatmapSetID:1330627

[Difficulty]
HPDrainRate:8
CircleSize:2
OverallDifficulty:3
ApproachRate:10
SliderMultiplier:1.4
SliderTickRate:1

[Events]
//Background and Video events
0,0,"stolen from Kuki1537.jpg",0,90
//Break Periods
//Storyboard Layer 0 (Background)
//Storyboard Layer 1 (Fail)
//Storyboard Layer 2 (Pass)
//Storyboard Layer 3 (Foreground)
//Storyboard Layer 4 (Overlay)
//Storyboard Sound Samples

[TimingPoints]
99,375,4,1,0,52,1,0
99,-111.111111111111,4,1,0,52,0,0
5536,-110.091743119266,4,1,0,52,0,0
5724,-109.090909090909,4,1,0,52,0,0
6099,-108.108108108108,4,1,0,62,0,0
17536,-105.960264900662,4,1,0,62,0,0
17724,-103.896103896104,4,1,0,62,0,0
17911,-101.910828025478,4,1,0,62,0,0
18099,-100,4,1,0,72,0,0
30099,-95.2380952380952,4,1,0,82,0,1
54661,-96.3855421686747,4,1,0,82,0,1
55224,-97.5609756097561,4,1,0,82,0,1
55786,-98.7654320987654,4,1,0,82,0,1
56349,-100,4,1,0,82,0,1
56724,-100,4,1,0,82,0,0

[HitObjects]
285,150,99,5,4,0:0:0:0:
263,93,474,1,8,0:0:0:0:
263,93,1224,1,8,0:0:0:0:
263,93,1599,1,0,0:0:0:0:
263,93,1974,1,8,0:0:0:0:
263,93,2536,1,0,0:0:0:0:
263,93,2724,1,8,0:0:0:0:
263,93,3099,1,4,0:0:0:0:
377,93,3474,1,8,0:0:0:0:
377,93,4224,1,8,0:0:0:0:
301,99,4599,1,0,0:0:0:0:
301,99,4974,1,8,0:0:0:0:
312,71,5536,1,0,0:0:0:0:
312,71,5724,1,8,0:0:0:0:
248,98,6099,1,4,0:0:0:0:
351,113,6661,1,8,0:0:0:0:
293,93,6849,1,8,0:0:0:0:
293,93,7224,1,8,0:0:0:0:
293,93,7411,1,0,0:0:0:0:
293,93,7786,1,0,0:0:0:0:
293,93,7974,1,8,0:0:0:0:
318,88,8724,1,8,0:0:0:0:
318,88,9099,1,4,0:0:0:0:
303,104,9474,1,8,0:0:0:0:
303,104,9849,1,0,0:0:0:0:
276,88,10036,1,0,0:0:0:0:
303,104,10224,1,8,0:0:0:0:
303,104,10599,1,0,0:0:0:0:
230,59,10974,1,8,0:0:0:0:
306,113,11724,1,8,0:0:0:0:
306,113,12099,1,4,0:0:0:0:
241,92,12474,1,8,0:0:0:0:
237,74,12849,1,8,0:0:0:0:
237,74,13036,1,0,0:0:0:0:
237,74,13224,1,8,0:0:0:0:
237,74,13599,1,0,0:0:0:0:
285,84,14536,1,0,0:0:0:0:
237,74,14724,1,8,0:0:0:0:
259,98,15099,1,4,0:0:0:0:
259,98,15474,1,8,0:0:0:0:
259,98,15661,1,8,0:0:0:0:
259,98,15849,1,0,0:0:0:0:
259,98,16224,1,8,0:0:0:0:
259,98,16599,1,0,0:0:0:0:
289,81,17536,1,0,0:0:0:0:
289,81,17724,1,8,0:0:0:0:
289,81,18099,1,4,0:0:0:0:
232,100,18661,1,8,0:0:0:0:
232,100,19036,1,0,0:0:0:0:
232,100,19224,1,8,0:0:0:0:
232,100,19599,1,0,0:0:0:0:
232,100,19974,1,8,0:0:0:0:
232,100,20349,1,0,0:0:0:0:
232,100,20536,1,0,0:0:0:0:
232,100,20724,1,8,0:0:0:0:
258,90,21099,1,0,0:0:0:0:
258,90,21661,1,8,0:0:0:0:
179,72,22036,1,0,0:0:0:0:
179,72,22224,1,8,0:0:0:0:
179,72,22599,1,8,0:0:0:0:
179,72,22974,1,8,0:0:0:0:
179,72,23349,1,0,0:0:0:0:
271,87,23724,1,8,0:0:0:0:
271,87,23911,1,8,0:0:0:0:
271,87,24099,1,0,0:0:0:0:
271,87,24661,1,8,0:0:0:0:
234,98,25036,1,0,0:0:0:0:
234,98,25224,1,8,0:0:0:0:
234,98,25599,1,0,0:0:0:0:
234,98,25974,1,8,0:0:0:0:
234,98,26349,1,0,0:0:0:0:
234,98,26536,1,0,0:0:0:0:
234,98,26724,1,8,0:0:0:0:
265,103,26911,1,0,0:0:0:0:
265,103,27099,1,12,0:0:0:0:
265,103,27661,1,12,0:0:0:0:
265,103,28224,1,4,0:0:0:0:
256,192,28599,12,0,29349,0:0:0:0:
165,148,30099,5,12,0:0:0:0:
251,123,30286,1,0,0:0:0:0:
165,148,30474,1,8,0:0:0:0:
165,148,30661,1,8,0:0:0:0:
165,148,30849,1,0,0:0:0:0:
165,148,31224,1,8,0:0:0:0:
165,148,31411,1,0,0:0:0:0:
165,148,31599,1,12,0:0:0:0:
221,96,31974,1,8,0:0:0:0:
252,73,32161,1,8,0:0:0:0:
190,116,32536,1,0,0:0:0:0:
246,118,32911,1,0,0:0:0:0:
246,118,33099,1,12,0:0:0:0:
246,118,33474,1,0,0:0:0:0:
246,118,33661,1,0,0:0:0:0:
246,118,33849,1,8,0:0:0:0:
246,118,34036,1,0,0:0:0:0:
246,118,34224,1,8,0:0:0:0:
249,62,34599,1,12,0:0:0:0:
255,91,34974,1,8,0:0:0:0:
287,86,35161,1,8,0:0:0:0:
255,91,35536,1,0,0:0:0:0:
317,76,36099,1,12,0:0:0:0:
304,58,36474,1,0,0:0:0:0:
317,76,36661,1,8,0:0:0:0:
234,158,37036,1,0,0:0:0:0:
317,76,37224,1,8,0:0:0:0:
317,76,37411,1,8,0:0:0:0:
217,93,37599,1,4,0:0:0:0:
395,147,37974,1,8,0:0:0:0:
256,72,38536,1,0,0:0:0:0:
256,72,38724,1,8,0:0:0:0:
256,72,38911,1,8,0:0:0:0:
256,72,39099,1,4,0:0:0:0:
256,72,39474,1,8,0:0:0:0:
256,72,39849,1,8,0:0:0:0:
256,72,40224,1,0,0:0:0:0:
256,72,40411,1,8,0:0:0:0:
256,72,40786,1,0,0:0:0:0:
256,72,40974,1,8,0:0:0:0:
256,72,41161,1,8,0:0:0:0:
256,72,41349,1,0,0:0:0:0:
274,60,42099,1,12,0:0:0:0:
326,102,42286,1,0,0:0:0:0:
276,196,42474,1,8,0:0:0:0:
276,196,42661,1,8,0:0:0:0:
276,196,42849,1,0,0:0:0:0:
297,162,43224,1,8,0:0:0:0:
297,162,43411,1,0,0:0:0:0:
297,162,43599,1,12,0:0:0:0:
297,162,43974,1,8,0:0:0:0:
297,162,44161,1,8,0:0:0:0:
297,162,44536,1,0,0:0:0:0:
226,90,44911,1,0,0:0:0:0:
316,145,45099,1,12,0:0:0:0:
284,73,45474,1,0,0:0:0:0:
284,73,45661,1,0,0:0:0:0:
284,73,45849,1,8,0:0:0:0:
325,120,46036,1,0,0:0:0:0:
325,120,46224,1,8,0:0:0:0:
325,120,46599,1,12,0:0:0:0:
325,120,46974,1,8,0:0:0:0:
325,120,47161,1,0,0:0:0:0:
325,120,47536,1,0,0:0:0:0:
261,135,48099,1,12,0:0:0:0:
261,135,48474,1,0,0:0:0:0:
261,135,48661,1,8,0:0:0:0:
269,111,49036,1,0,0:0:0:0:
261,135,49224,1,8,0:0:0:0:
261,135,49411,1,8,0:0:0:0:
238,105,49599,1,4,0:0:0:0:
276,98,50536,1,8,0:0:0:0:
276,98,50724,1,0,0:0:0:0:
276,98,50911,1,0,0:0:0:0:
264,87,51099,1,12,0:0:0:0:
296,117,51286,1,0,0:0:0:0:
296,117,51474,1,8,0:0:0:0:
296,117,51849,1,8,0:0:0:0:
296,117,52036,1,0,0:0:0:0:
296,117,52224,1,8,0:0:0:0:
296,117,52411,1,8,0:0:0:0:
237,141,52786,1,0,0:0:0:0:
237,141,52974,1,8,0:0:0:0:
237,141,53161,1,8,0:0:0:0:
237,141,53349,1,0,0:0:0:0:
237,141,53724,1,0,0:0:0:0:
288,125,54099,1,12,0:0:0:0:
288,125,54661,1,12,0:0:0:0:
288,125,55224,1,12,0:0:0:0:
288,125,55786,1,12,0:0:0:0:
288,125,56349,1,4,0:0:0:0:
288,125,56724,1,4,0:0:0:0:
