osu file format v14

[General]
AudioFilename: audio.mp3
AudioLeadIn: 0
PreviewTime: 29252
Countdown: 0
SampleSet: Soft
StackLeniency: 0.7
Mode: 2
LetterboxInBreaks: 0
WidescreenStoryboard: 1

[Editor]
Bookmarks: 3049,6049,9049,12049,15049,18049,21049,24049,27049,30049,33049,36049,39049,42049,45049,48049,51049,54049,56674
DistanceSpacing: 1
BeatDivisor: 4
GridSize: 8
TimelineZoom: 1.5

[Metadata]
Title:WONDERFUL WONDER (TV Size)
TitleUnicode:WONDERFUL WONDER (TV Size)
Artist:EDOGA-SULLIVAN
ArtistUnicode:エドガー・サリヴァン
Creator:Bastian
Version:Salad
Source:みだらな青ちゃんは勉強ができない
Tags:淫らな青ちゃんは勉強ができない Ao-chan Can't Study! Midara na wa Benkyou ga Dekinai Opening japanese anime OP jorkseljund 佐々木萌 Moe Sasaki 坂本 遥 Haruka Sakamoto
BeatmapID:2412397
BeatmapSetID:1155991

[Difficulty]
HPDrainRate:4
CircleSize:3
OverallDifficulty:7
ApproachRate:7
SliderMultiplier:1.4
SliderTickRate:1

[Events]
//Background and Video events
0,0,"thanksforthebggreaper.png",0,0
//Break Periods
//Storyboard Layer 0 (Background)
//Storyboard Layer 1 (Fail)
//Storyboard Layer 2 (Pass)
//Storyboard Layer 3 (Foreground)
//Storyboard Layer 4 (Overlay)
//Storyboard Sound Samples

[TimingPoints]
49,375,4,2,1,40,1,0
6049,-100,4,2,1,50,0,0
18049,-100,4,2,1,55,0,0
30049,-100,4,2,1,70,0,1
54049,-100,4,2,1,70,0,0

[Colours]
Combo1 : 0,128,255
Combo2 : 97,97,190
Combo3 : 255,100,100
Combo4 : 113,184,255
Combo5 : 255,185,220

[HitObjects]
310,333,49,6,0,P|346:285|300:217,1,140,6|8,0:0|0:0,0:0:0:0:
227,221,611,1,0,0:0:0:0:
395,221,986,2,0,L|395:148,1,70,2|8,0:0|0:0,0:0:0:0:
198,151,1549,6,0,L|57:151,1,140,2|8,0:0|0:0,0:0:0:0:
141,151,2111,1,0,0:0:0:0:
309,151,2486,2,0,L|391:151,2,70,2|10|2,0:0|0:0|0:0,0:0:0:0:
133,151,3049,6,0,P|92:210|146:256,1,140,6|8,0:0|0:0,0:0:0:0:
213,253,3611,1,0,0:0:0:0:
45,253,3986,2,0,L|45:173,1,70,2|8,0:0|0:0,0:0:0:0:
241,183,4549,6,0,L|385:183,1,140,2|8,0:0|0:0,0:0:0:0:
297,183,5111,1,0,0:0:0:0:
128,183,5486,2,0,L|31:183,2,70,2|10|2,0:0|0:0|0:0,0:0:0:0:
303,183,6049,6,0,P|342:238|295:302,1,140,6|8,0:0|0:0,0:0:0:0:
226,295,6611,1,2,0:0:0:0:
141,295,6799,1,0,0:0:0:0:
309,295,7174,1,8,0:0:0:0:
113,295,7549,5,2,0:0:0:0:
281,295,7924,1,8,0:0:0:0:
350,295,8111,2,0,P|422:283|440:218,1,140,0|2,0:0|0:0,0:0:0:0:
371,226,8674,1,10,0:0:0:0:
91,226,9049,6,0,P|56:180|105:108,1,140,6|8,0:0|0:0,0:0:0:0:
173,113,9611,1,2,0:0:0:0:
257,113,9799,1,0,0:0:0:0:
89,113,10174,1,8,0:0:0:0:
285,113,10549,6,0,L|136:113,1,140,2|8,0:0|0:0,0:0:0:0:
228,113,11111,1,0,0:0:0:0:
396,41,11486,2,0,L|396:117,1,70,2|10,0:0|0:0,0:0:0:0:
115,111,12049,6,0,L|17:111,2,70,6|0|8,0:0|0:0|0:0,0:0:0:0:
283,111,12799,2,0,L|283:193,1,70,0|2,0:0|0:0,0:0:0:0:
198,181,13174,2,0,L|119:181,1,70,8|0,0:0|0:0,0:0:0:0:
296,181,13549,6,0,P|330:224|276:301,1,140,2|8,0:0|0:0,0:0:0:0:
210,297,14111,2,0,P|180:237|216:180,1,140,0|2,0:0|0:0,0:0:0:0:
300,180,14674,1,10,0:0:0:0:
19,180,15049,6,0,L|19:277,1,70,6|0,0:0|0:0,0:0:0:0:
103,250,15424,1,8,0:0:0:0:
271,250,15799,2,0,L|357:250,1,70,0|2,0:0|0:0,0:0:0:0:
425,250,16174,1,8,0:0:0:0:
341,250,16361,1,0,0:0:0:0:
179,250,16549,6,0,P|144:203|185:134,1,140,2|8,0:0|0:0,0:0:0:0:
261,137,17111,1,0,0:0:0:0:
93,137,17486,2,0,L|5:137,2,70,2|10|2,0:0|0:0|0:0,0:0:0:0:
268,137,18049,6,0,P|326:137|376:208,1,140,6|8,0:0|0:0,0:0:0:0:
289,137,18611,1,0,0:0:0:0:
120,137,18986,2,0,L|26:137,2,70,2|8|0,0:0|0:0|0:0,0:0:0:0:
289,137,19549,6,0,P|355:149|395:216,1,140,2|8,0:0|0:0,0:0:0:0:
217,206,20299,2,0,L|56:206,1,140,0|10,0:0|0:0,0:0:0:0:
160,206,20861,1,2,0:0:0:0:
335,206,21049,6,0,P|362:268|315:326,1,140,6|8,0:0|0:0,0:0:0:0:
239,322,21611,1,0,0:0:0:0:
402,322,21986,2,0,L|496:322,2,70,2|8|0,0:0|0:0|0:0,0:0:0:0:
233,322,22549,6,0,L|65:322,1,140,2|8,0:0|0:0,0:0:0:0:
289,322,23299,1,0,0:0:0:0:
358,322,23486,2,0,L|358:243,1,70,2|10,0:0|0:0,0:0:0:0:
77,252,24049,6,0,P|57:200|122:143,1,140,6|8,0:0|0:0,0:0:0:0:
193,137,24611,1,0,0:0:0:0:
25,17,24986,1,2,0:0:0:0:
110,17,25174,1,8,0:0:0:0:
193,17,25361,1,0,0:0:0:0:
361,17,25549,6,0,P|394:61|344:138,1,140,2|8,0:0|0:0,0:0:0:0:
163,135,26299,2,0,L|72:135,1,70,0|2,0:0|0:0,0:0:0:0:
191,135,26674,2,0,L|261:135,1,70,10|2,0:0|0:0,0:0:0:0:
85,135,27049,6,0,P|50:181|82:258,1,140,6|8,0:0|0:0,0:0:0:0:
250,253,27611,2,0,L|394:253,1,140,6|0,0:0|0:0,0:0:0:0:
214,253,28174,5,14,0:0:0:0:
256,192,28549,12,0,29674,0:0:0:0:
76,343,30049,6,0,P|38:289|83:220,1,140,6|8,0:0|0:0,0:0:0:0:
157,227,30611,1,0,0:0:0:0:
325,227,30799,1,2,0:0:0:0:
380,190,30986,1,2,0:0:0:0:
379,123,31174,1,10,0:0:0:0:
321,89,31361,1,2,0:0:0:0:
145,89,31549,6,0,P|85:106|60:182,1,140,6|8,0:0|0:0,0:0:0:0:
142,173,32111,1,2,0:0:0:0:
310,173,32486,2,0,P|360:175|391:272,1,140,2|2,0:0|0:0,0:0:0:0:
213,328,33049,5,6,0:0:0:0:
203,259,33236,1,0,0:0:0:0:
237,199,33424,1,8,0:0:0:0:
299,170,33611,1,2,0:0:0:0:
380,243,33799,2,0,L|389:171,1,70,0|2,0:0|0:0,0:0:0:0:
220,173,34174,2,0,L|216:92,1,70,10|2,0:0|0:0,0:0:0:0:
413,328,34549,6,0,L|425:170,1,140,6|8,0:0|0:0,0:0:0:0:
339,188,35111,1,2,0:0:0:0:
171,188,35486,2,0,P|156:142|183:52,1,140,2|2,0:0|0:0,0:0:0:0:
361,58,36049,6,0,P|410:66|453:205,1,210,6|2,0:0|0:0,0:0:0:0:
247,187,37174,2,0,L|247:260,1,70,10|2,0:0|0:0,0:0:0:0:
423,257,37549,6,0,P|456:217|421:141,1,140,6|8,0:0|0:0,0:0:0:0:
341,143,38111,1,2,0:0:0:0:
173,25,38486,1,2,0:0:0:0:
257,25,38674,1,10,0:0:0:0:
340,25,38861,1,2,0:0:0:0:
157,25,39049,6,0,P|135:74|168:161,1,140,6|8,0:0|0:0,0:0:0:0:
342,153,39799,2,0,L|488:153,1,140,2|10,0:0|0:0,0:0:0:0:
308,153,40361,6,0,P|275:208|313:271,1,140,6|2,0:0|0:0,0:0:0:0:
394,268,40924,2,0,L|394:343,1,70,8|2,0:0|0:0,0:0:0:0:
226,338,41299,2,0,L|125:338,1,70,0|2,0:0|0:0,0:0:0:0:
241,338,41674,1,10,0:0:0:0:
276,338,41767,1,10,0:0:0:0:
311,338,41861,1,2,0:0:0:0:
128,338,42049,6,0,L|33:338,2,70,6|2|8,0:0|0:0|0:0,0:0:0:0:
212,338,42611,1,0,0:0:0:0:
381,338,42799,2,0,L|381:250,1,70,2|2,0:0|0:0,0:0:0:0:
451,268,43174,2,0,L|451:180,1,70,10|2,0:0|0:0,0:0:0:0:
275,338,43549,6,0,P|205:338|161:274,1,140,6|8,0:0|0:0,0:0:0:0:
247,287,44111,1,2,0:0:0:0:
415,287,44486,2,0,P|429:248|344:190,1,140,2|2,0:0|0:0,0:0:0:0:
178,54,45049,6,0,L|95:54,2,70,6|0|8,0:0|0:0|0:0,0:0:0:0:
345,54,45611,1,2,0:0:0:0:
422,54,45798,1,0,0:0:0:0:
345,131,45986,1,2,0:0:0:0:
268,131,46173,1,10,0:0:0:0:
190,131,46361,1,2,0:0:0:0:
365,131,46549,6,8,P|402:178|354:239,1,140,6|8,0:0|0:0,0:0:0:0:
279,237,47111,1,2,0:0:0:0:
419,237,47486,2,0,L|262:238,1,140,2|2,0:0|0:0,0:0:0:0:
457,124,48049,6,0,P|487:164|404:274,1,210,6|0,0:0|0:0,0:0:0:0:
233,89,48986,2,0,L|150:89,2,70,2|10|2,0:0|0:0|0:0,0:0:0:0:
409,89,49549,6,0,P|444:140|405:206,1,140,6|8,0:0|0:0,0:0:0:0:
327,204,50111,1,2,0:0:0:0:
160,204,50486,1,2,0:0:0:0:
90,204,50673,1,10,0:0:0:0:
20,204,50861,1,2,0:0:0:0:
202,204,51049,6,0,L|363:204,1,140,6|8,0:0|0:0,0:0:0:0:
175,204,51799,2,0,P|140:167|177:89,1,140,2|10,0:0|0:0,0:0:0:0:
345,93,52361,6,0,P|378:151|340:205,1,140,2|2,0:0|0:0,0:0:0:0:
256,205,52924,1,8,0:0:0:0:
173,205,53111,1,2,0:0:0:0:
342,205,53299,2,0,P|418:200|476:143,1,140,8|8,0:0|0:0,0:0:0:0:
157,161,54049,6,0,P|104:140|77:59,1,140,6|10,0:0|0:0,0:0:0:0:
175,67,54611,2,0,P|234:66|310:117,1,140,6|10,0:0|0:0,0:0:0:0:
127,107,55174,6,0,P|102:147|143:237,1,140,6|10,0:0|0:0,0:0:0:0:
311,229,55736,2,0,P|342:169|299:117,1,140,6|2,0:0|0:0,0:0:0:0:
212,120,56299,1,8,0:0:0:0:
485,210,56674,1,2,0:0:0:0:
