osu file format v14

[General]
AudioFilename: audio.mp3
AudioLeadIn: 0
PreviewTime: 29252
Countdown: 0
SampleSet: Soft
StackLeniency: 0.7
Mode: 2
LetterboxInBreaks: 0
WidescreenStoryboard: 1

[Editor]
Bookmarks: 3049,6049,9049,12049,15049,18049,21049,24049,27049,30049,33049,36049,39049,42049,45049,48049,51049,54049,56674
DistanceSpacing: 2.3
BeatDivisor: 4
GridSize: 8
TimelineZoom: 1.5

[Metadata]
Title:WONDERFUL WONDER (TV Size)
TitleUnicode:WONDERFUL WONDER (TV Size)
Artist:EDOGA-SULLIVAN
ArtistUnicode:エドガー・サリヴァン
Creator:Bastian
Version:Platter
Source:みだらな青ちゃんは勉強ができない
Tags:淫らな青ちゃんは勉強ができない Ao-chan Can't Study! Midara na wa Benkyou ga Dekinai Opening japanese anime OP jorkseljund 佐々木萌 Moe Sasaki 坂本 遥 Haruka Sakamoto
BeatmapID:2412395
BeatmapSetID:1155991

[Difficulty]
HPDrainRate:5
CircleSize:3.5
OverallDifficulty:8
ApproachRate:8
SliderMultiplier:1.6
SliderTickRate:2

[Events]
//Background and Video events
0,0,"thanksforthebggreaper.png",0,0
//Break Periods
//Storyboard Layer 0 (Background)
//Storyboard Layer 1 (Fail)
//Storyboard Layer 2 (Pass)
//Storyboard Layer 3 (Foreground)
//Storyboard Layer 4 (Overlay)
//Storyboard Sound Samples

[TimingPoints]
49,375,4,2,1,40,1,0
6049,-100,4,2,1,50,0,0
18049,-100,4,2,1,55,0,0
30049,-100,4,2,1,70,0,1
54049,-100,4,2,1,70,0,0

[Colours]
Combo1 : 0,128,255
Combo2 : 97,97,190
Combo3 : 255,100,100
Combo4 : 113,184,255
Combo5 : 255,185,220

[HitObjects]
77,352,49,6,0,P|37:279|96:228,1,160,6|8,0:0|0:0,0:0:0:0:
251,230,611,2,0,L|251:150,1,80,0|0,0:0|0:0,0:0:0:0:
171,150,986,1,2,0:0:0:0:
355,150,1174,1,8,0:0:0:0:
203,223,1549,6,0,P|139:187|183:106,1,160,2|8,0:0|0:0,0:0:0:0:
336,112,2111,2,0,P|403:113|477:195,1,160,0|2,0:0|0:0,0:0:0:0:
293,172,2674,2,0,L|187:172,1,80,10|2,0:0|0:0,0:0:0:0:
469,172,3049,6,0,P|515:242|448:286,1,160,6|8,0:0|0:0,0:0:0:0:
286,285,3611,2,0,L|286:202,1,80,0|0,0:0|0:0,0:0:0:0:
366,205,3986,1,2,0:0:0:0:
181,205,4174,1,8,0:0:0:0:
373,205,4549,6,0,L|179:205,1,160,2|8,0:0|0:0,0:0:0:0:
396,205,5111,2,0,P|426:144|350:70,1,160,0|2,0:0|0:0,0:0:0:0:
192,75,5674,2,0,L|146:-4,1,80,10|2,0:0|0:0,0:0:0:0:
408,5,6049,6,0,P|446:41|393:126,1,160,6|8,0:0|0:0,0:0:0:0:
306,124,6611,1,2,0:0:0:0:
402,124,6799,2,0,L|411:212,1,80,0|2,0:0|0:0,0:0:0:0:
225,203,7174,1,8,0:0:0:0:
129,203,7361,6,0,P|56:180|72:81,1,160,0|0,0:0|0:0,0:0:0:0:
233,105,7924,2,0,L|263:214,1,80,8|0,0:0|0:0,0:0:0:0:
160,124,8299,2,0,L|61:124,1,80,0|2,0:0|0:0,0:0:0:0:
264,124,8674,2,0,L|282:35,1,80,10|2,0:0|0:0,0:0:0:0:
23,45,9049,5,6,0:0:0:0:
0,116,9236,1,0,0:0:0:0:
184,116,9424,2,0,L|294:116,1,80,8|2,0:0|0:0,0:0:0:0:
360,116,9799,2,0,L|384:220,1,80,0|2,0:0|0:0,0:0:0:0:
193,193,10174,1,8,0:0:0:0:
452,226,10549,6,0,P|472:162|409:86,1,160,2|8,0:0|0:0,0:0:0:0:
238,90,11111,2,0,L|133:90,1,80,0|0,0:0|0:0,0:0:0:0:
131,182,11486,1,2,0:0:0:0:
293,163,11674,2,0,L|384:163,1,80,10|2,0:0|0:0,0:0:0:0:
116,163,12049,6,0,L|32:163,2,80,6|0|8,0:0|0:0|0:0,0:0:0:0:
308,163,12799,2,0,L|407:163,1,80,0|2,0:0|0:0,0:0:0:0:
291,246,13174,2,0,L|390:246,1,80,8|0,0:0|0:0,0:0:0:0:
186,246,13549,6,0,P|139:211|169:107,1,160,2|8,0:0|0:0,0:0:0:0:
336,119,14111,2,0,L|428:119,2,80,0|0|2,0:0|0:0|0:0,0:0:0:0:
448,119,14674,2,0,L|466:219,1,80,10|2,0:0|0:0,0:0:0:0:
205,197,15049,6,0,L|94:197,1,80,6|0,0:0|0:0,0:0:0:0:
221,197,15424,2,0,L|110:197,1,80,8|2,0:0|0:0,0:0:0:0:
325,197,15799,2,0,P|376:219|428:344,1,160,0|8,0:0|0:0,0:0:0:0:
107,305,16549,6,0,P|67:265|120:179,1,160,2|8,0:0|0:0,0:0:0:0:
289,182,17111,2,0,L|404:182,2,80,0|0|2,0:0|0:0|0:0,0:0:0:0:
112,182,17674,2,0,L|87:260,1,80,10|2,0:0|0:0,0:0:0:0:
344,258,18049,6,0,P|428:233|429:144,1,160,6|8,0:0|0:0,0:0:0:0:
340,193,18611,1,0,0:0:0:0:
436,193,18799,2,0,L|341:193,1,80,0|2,0:0|0:0,0:0:0:0:
171,193,19174,1,8,0:0:0:0:
459,193,19549,6,0,P|470:141|387:68,1,160,2|8,0:0|0:0,0:0:0:0:
209,69,20299,2,0,L|198:166,1,80,0|2,0:0|0:0,0:0:0:0:
360,147,20674,2,0,L|469:147,1,80,10|2,0:0|0:0,0:0:0:0:
183,147,21049,6,0,P|161:203|226:275,1,160,6|8,0:0|0:0,0:0:0:0:
314,274,21611,2,0,L|217:274,2,80,0|0|2,0:0|0:0|0:0,0:0:0:0:
498,274,22174,1,8,0:0:0:0:
210,274,22549,6,0,L|381:274,1,160,2|8,0:0|0:0,0:0:0:0:
274,274,23111,1,0,0:0:0:0:
89,274,23299,2,0,L|62:185,1,80,0|2,0:0|0:0,0:0:0:0:
162,198,23674,2,0,L|57:201,1,80,10|2,0:0|0:0,0:0:0:0:
338,200,24049,6,0,B|465:203|465:203|474:239,1,160,6|8,0:0|0:0,0:0:0:0:
378,284,24611,1,0,0:0:0:0:
193,284,24799,2,0,L|182:187,1,80,0|2,0:0|0:0,0:0:0:0:
368,204,25174,1,8,0:0:0:0:
80,204,25549,6,0,P|76:146|146:71,1,160,2|8,0:0|0:0,0:0:0:0:
460,73,26299,2,0,L|472:162,1,80,0|2,0:0|0:0,0:0:0:0:
286,152,26674,2,0,L|172:152,1,80,10|2,0:0|0:0,0:0:0:0:
462,152,27049,6,0,P|508:224|451:276,1,160,6|8,0:0|0:0,0:0:0:0:
283,272,27611,2,0,L|160:156,1,160,6|0,0:0|0:0,0:0:0:0:
423,162,28174,5,14,0:0:0:0:
256,192,28549,12,0,29674,0:0:0:0:
81,351,30049,5,6,0:0:0:0:
16,302,30236,1,2,0:0:0:0:
28,229,30424,1,8,0:0:0:0:
93,195,30611,1,0,0:0:0:0:
277,195,30799,2,0,L|378:195,1,80,2|2,0:0|0:0,0:0:0:0:
419,259,31174,2,0,L|322:259,1,80,10|2,0:0|0:0,0:0:0:0:
72,224,31549,6,0,P|54:170|139:85,1,160,6|8,0:0|0:0,0:0:0:0:
293,91,32111,2,0,P|354:129|320:230,1,160,2|2,0:0|0:0,0:0:0:0:
161,208,32674,2,0,L|154:309,1,80,10|2,0:0|0:0,0:0:0:0:
434,168,33049,5,6,0:0:0:0:
472,235,33236,1,0,0:0:0:0:
448,309,33424,1,8,0:0:0:0:
378,343,33611,1,2,0:0:0:0:
193,343,33799,2,0,L|94:344,1,80,0|2,0:0|0:0,0:0:0:0:
209,343,34174,2,0,L|110:344,1,80,10|2,0:0|0:0,0:0:0:0:
378,343,34549,6,0,P|402:277|337:211,1,160,6|8,0:0|0:0,0:0:0:0:
164,213,35111,2,0,P|128:163|189:69,1,160,2|2,0:0|0:0,0:0:0:0:
347,79,35674,2,0,L|361:164,1,80,10|2,0:0|0:0,0:0:0:0:
97,218,36049,6,0,P|74:158|156:78,1,160,6|8,0:0|0:0,0:0:0:0:
308,84,36611,1,2,0:0:0:0:
116,84,36986,2,0,L|102:169,1,80,2|10,0:0|0:0,0:0:0:0:
199,162,37361,1,2,0:0:0:0:
455,162,37549,6,0,P|479:233|427:311,1,160,6|8,0:0|0:0,0:0:0:0:
256,303,38111,2,0,P|189:301|128:221,1,160,2|2,0:0|0:0,0:0:0:0:
227,234,38674,2,0,L|129:234,1,80,10|2,0:0|0:0,0:0:0:0:
403,234,39049,6,0,P|441:181|406:92,1,160,6|8,0:0|0:0,0:0:0:0:
220,97,39799,2,0,L|396:97,1,160,2|10,0:0|0:0,0:0:0:0:
196,97,40361,6,0,P|139:121|105:228,1,160,6|2,0:0|0:0,0:0:0:0:
287,207,40924,2,0,L|404:207,1,80,8|2,0:0|0:0,0:0:0:0:
270,207,41299,2,0,L|165:207,1,80,0|2,0:0|0:0,0:0:0:0:
351,285,41674,2,0,L|407:285,2,40,10|10|2,0:0|0:0|0:0,0:0:0:0:
78,285,42049,5,6,0:0:0:0:
27,226,42236,1,2,0:0:0:0:
49,153,42424,1,8,0:0:0:0:
123,131,42611,1,0,0:0:0:0:
307,131,42799,2,0,L|409:131,1,80,2|2,0:0|0:0,0:0:0:0:
290,131,43174,2,0,L|210:131,1,80,10|2,0:0|0:0,0:0:0:0:
466,131,43549,6,0,P|482:187|421:265,1,160,6|8,0:0|0:0,0:0:0:0:
240,263,44111,2,0,P|183:255|150:153,1,160,2|2,0:0|0:0,0:0:0:0:
329,168,44674,2,0,L|379:256,1,80,10|2,0:0|0:0,0:0:0:0:
99,129,45049,6,0,L|82:216,1,80,6|0,0:0|0:0,0:0:0:0:
179,207,45424,2,0,L|83:207,1,80,8|2,0:0|0:0,0:0:0:0:
283,207,45799,2,0,L|390:207,1,80,0|2,0:0|0:0,0:0:0:0:
178,207,46174,2,0,L|75:207,1,80,10|2,0:0|0:0,0:0:0:0:
370,207,46549,6,0,P|389:258|309:332,1,160,6|8,0:0|0:0,0:0:0:0:
166,331,47111,2,0,P|137:291|197:198,1,160,2|2,0:0|0:0,0:0:0:0:
366,201,47674,2,0,L|397:292,1,80,10|2,0:0|0:0,0:0:0:0:
69,251,48049,6,0,P|36:195|92:108,1,160,6|8,0:0|0:0,0:0:0:0:
260,115,48611,1,0,0:0:0:0:
68,115,48986,2,0,L|49:201,1,80,2|10,0:0|0:0,0:0:0:0:
147,193,49361,1,2,0:0:0:0:
419,193,49549,6,0,P|448:251|382:321,1,160,6|8,0:0|0:0,0:0:0:0:
211,318,50111,2,0,L|32:318,1,160,2|2,0:0|0:0,0:0:0:0:
148,318,50674,2,0,L|61:304,1,80,10|2,0:0|0:0,0:0:0:0:
389,305,51049,6,0,L|500:305,2,80,6|0|8,0:0|0:0|0:0,0:0:0:0:
210,161,51799,2,0,L|388:161,1,160,2|10,0:0|0:0,0:0:0:0:
187,161,52361,2,0,P|157:215|200:315,1,160,2|2,0:0|0:0,0:0:0:0:
371,303,52924,2,0,L|379:213,1,80,8|2,0:0|0:0,0:0:0:0:
194,223,53299,2,0,L|17:223,1,160,8|8,0:0|0:0,0:0:0:0:
494,219,54049,6,0,P|502:176|422:79,1,160,6|10,0:0|0:0,0:0:0:0:
256,85,54611,2,0,L|428:85,1,160,6|10,0:0|0:0,0:0:0:0:
160,85,55174,6,0,P|122:125|166:220,1,160,6|10,0:0|0:0,0:0:0:0:
339,214,55736,2,0,P|382:276|346:343,1,160,6|2,0:0|0:0,0:0:0:0:
161,343,56299,1,8,0:0:0:0:
470,346,56674,1,2,0:0:0:0:
