osu file format v14

[General]
AudioFilename: audio.mp3
AudioLeadIn: 0
PreviewTime: 29252
Countdown: 0
SampleSet: Soft
StackLeniency: 0.7
Mode: 2
LetterboxInBreaks: 0
WidescreenStoryboard: 0

[Editor]
Bookmarks: 3049,6049,9049,12049,15049,18049,21049,24049,27049,30049,33049,36049,39049,42049,45049,48049,51049,54049,56674
DistanceSpacing: 1.5
BeatDivisor: 4
GridSize: 8
TimelineZoom: 1.5

[Metadata]
Title:WONDERFUL WONDER (TV Size)
TitleUnicode:WONDERFUL WONDER (TV Size)
Artist:EDOGA-SULLIVAN
ArtistUnicode:エドガー・サリヴァン
Creator:Bastian
Version:Cup
Source:みだらな青ちゃんは勉強ができない
Tags:淫らな青ちゃんは勉強ができない Ao-chan Can't Study! Midara na wa Benkyou ga Dekinai Opening japanese anime OP jorkseljund 佐々木萌 Moe Sasaki 坂本 遥 Haruka Sakamoto
BeatmapID:2412394
BeatmapSetID:1155991

[Difficulty]
HPDrainRate:3
CircleSize:2.5
OverallDifficulty:6
ApproachRate:6
SliderMultiplier:1.2
SliderTickRate:1

[Events]
//Background and Video events
0,0,"thanksforthebggreaper.png",0,0
//Break Periods
//Storyboard Layer 0 (Background)
//Storyboard Layer 1 (Fail)
//Storyboard Layer 2 (Pass)
//Storyboard Layer 3 (Foreground)
//Storyboard Layer 4 (Overlay)
//Storyboard Sound Samples

[TimingPoints]
49,375,4,2,1,40,1,0
6049,-100,4,2,1,50,0,0
18049,-100,4,2,1,55,0,0
30049,-100,4,2,1,70,0,1
54049,-100,4,2,1,70,0,0

[Colours]
Combo1 : 0,128,255
Combo2 : 97,97,190
Combo3 : 255,100,100
Combo4 : 113,184,255
Combo5 : 255,185,220

[HitObjects]
382,330,49,6,0,P|408:274|373:223,1,120,6|8,0:0|0:0,0:0:0:0:
309,227,611,1,0,0:0:0:0:
165,227,986,2,0,L|82:227,1,60,2|8,0:0|0:0,0:0:0:0:
261,227,1549,6,0,L|396:227,1,120,2|8,0:0|0:0,0:0:0:0:
309,227,2111,1,0,0:0:0:0:
165,227,2486,2,0,L|84:227,2,60,2|10|2,0:0|0:0|0:0,0:0:0:0:
249,227,3049,6,0,P|280:180|248:134,1,120,6|8,0:0|0:0,0:0:0:0:
175,133,3611,1,0,0:0:0:0:
319,133,3986,2,0,L|395:133,1,60,2|8,0:0|0:0,0:0:0:0:
222,133,4549,6,0,L|82:133,1,120,2|8,0:0|0:0,0:0:0:0:
173,133,5111,1,0,0:0:0:0:
317,133,5486,2,0,L|400:133,2,60,2|10|2,0:0|0:0|0:0,0:0:0:0:
226,133,6049,6,0,P|198:189|256:219,1,120,6|8,0:0|0:0,0:0:0:0:
306,229,6611,1,2,0:0:0:0:
378,229,6799,1,0,0:0:0:0:
234,229,7174,1,8,0:0:0:0:
390,229,7549,6,0,P|419:178|383:122,1,120,2|8,0:0|0:0,0:0:0:0:
320,127,8111,1,0,0:0:0:0:
247,127,8299,1,0,0:0:0:0:
391,127,8674,1,10,0:0:0:0:
223,127,9049,6,0,L|81:127,1,120,6|8,0:0|0:0,0:0:0:0:
174,127,9611,1,2,0:0:0:0:
246,127,9799,1,0,0:0:0:0:
101,127,10174,1,8,0:0:0:0:
257,127,10549,5,2,0:0:0:0:
113,127,10924,2,0,L|112:196,1,60,8|0,0:0|0:0,0:0:0:0:
184,186,11299,1,0,0:0:0:0:
328,186,11674,1,10,0:0:0:0:
160,186,12049,6,0,L|89:186,2,60,6|0|8,0:0|0:0|0:0,0:0:0:0:
304,186,12799,1,0,0:0:0:0:
160,186,13174,1,8,0:0:0:0:
316,186,13549,6,0,L|426:121,2,120,2|8|0,0:0|0:0|0:0,0:0:0:0:
244,186,14486,1,2,0:0:0:0:
244,113,14674,1,10,0:0:0:0:
424,113,15049,6,0,L|292:113,1,120,6|8,0:0|0:0,0:0:0:0:
363,113,15611,1,2,0:0:0:0:
435,113,15799,1,0,0:0:0:0:
246,85,16174,1,8,0:0:0:0:
402,85,16549,6,0,P|434:134|403:197,1,120,2|8,0:0|0:0,0:0:0:0:
270,187,17299,1,0,0:0:0:0:
198,187,17486,2,0,L|199:100,1,60,2|10,0:0|0:0,0:0:0:0:
367,127,18049,6,0,P|413:125|471:241,1,180,6|0,0:0|0:0,0:0:0:0:
331,227,18986,1,2,0:0:0:0:
258,227,19174,1,8,0:0:0:0:
186,227,19361,1,0,0:0:0:0:
107,227,19549,6,0,L|252:227,1,120,2|8,0:0|0:0,0:0:0:0:
105,187,20299,2,0,L|105:264,1,60,0|2,0:0|0:0,0:0:0:0:
177,247,20674,1,10,0:0:0:0:
345,247,21049,6,0,L|155:247,1,180,6|0,0:0|0:0,0:0:0:0:
285,247,21986,1,2,0:0:0:0:
345,247,22174,1,8,0:0:0:0:
416,247,22361,1,0,0:0:0:0:
494,247,22549,5,2,0:0:0:0:
350,247,22924,1,8,0:0:0:0:
494,247,23299,2,0,L|494:160,1,60,0|2,0:0|0:0,0:0:0:0:
421,187,23674,1,10,0:0:0:0:
253,187,24049,6,0,L|440:187,1,180,6|0,0:0|0:0,0:0:0:0:
313,187,24986,1,2,0:0:0:0:
252,187,25174,1,8,0:0:0:0:
175,187,25361,1,0,0:0:0:0:
96,187,25549,6,0,P|71:129|120:83,1,120,2|8,0:0|0:0,0:0:0:0:
245,82,26299,2,0,L|97:82,1,120,0|10,0:0|0:0,0:0:0:0:
293,82,27049,5,6,0:0:0:0:
59,82,27611,1,6,0:0:0:0:
311,82,28174,5,14,0:0:0:0:
256,192,28549,12,0,29674,0:0:0:0:
306,332,30049,6,0,L|446:332,1,120,6|8,0:0|0:0,0:0:0:0:
270,332,30799,1,2,0:0:0:0:
210,332,30986,1,2,0:0:0:0:
150,332,31174,1,10,0:0:0:0:
318,332,31549,6,0,P|410:226|304:143,1,300,6|2,0:0|0:0,0:0:0:0:
167,142,32861,1,2,0:0:0:0:
76,142,33049,6,0,P|42:184|81:240,1,120,6|8,0:0|0:0,0:0:0:0:
142,235,33611,2,0,L|265:235,1,120,2|2,0:0|0:0,0:0:0:0:
340,235,34174,1,10,0:0:0:0:
172,235,34549,6,0,P|76:150|196:52,1,300,6|2,0:0|0:0,0:0:0:0:
442,48,36049,6,0,L|239:48,2,180,6|2|10,0:0|0:0|0:0,0:0:0:0:
274,48,37549,6,0,L|134:48,1,120,6|8,0:0|0:0,0:0:0:0:
231,48,38111,2,0,L|365:48,1,120,2|2,0:0|0:0,0:0:0:0:
272,48,38674,1,10,0:0:0:0:
452,48,39049,6,0,L|452:181,1,120,6|8,0:0|0:0,0:0:0:0:
296,168,39799,2,0,L|151:168,1,120,2|10,0:0|0:0,0:0:0:0:
259,168,40361,6,0,L|396:168,1,120,6|2,0:0|0:0,0:0:0:0:
290,168,40924,1,8,0:0:0:0:
134,168,41299,1,0,0:0:0:0:
290,168,41674,1,10,0:0:0:0:
367,168,41861,1,2,0:0:0:0:
457,168,42049,6,0,P|483:223|448:291,1,120,6|8,0:0|0:0,0:0:0:0:
308,276,42799,2,0,L|368:276,2,60,2|2|10,0:0|0:0|0:0,0:0:0:0:
139,276,43549,6,0,P|59:192|179:74,1,300,6|2,0:0|0:0,0:0:0:0:
315,72,44861,1,2,0:0:0:0:
406,72,45049,6,0,P|440:117|411:166,1,120,6|8,0:0|0:0,0:0:0:0:
340,165,45611,2,0,L|220:165,1,120,2|2,0:0|0:0,0:0:0:0:
142,165,46174,1,10,0:0:0:0:
310,165,46549,6,0,P|344:185|373:282,1,120,6|8,0:0|0:0,0:0:0:0:
298,256,47111,1,2,0:0:0:0:
142,256,47486,2,0,L|62:256,1,60,2|10,0:0|0:0,0:0:0:0:
262,256,48049,6,0,L|454:256,2,180,6|0|10,0:0|0:0|0:0,0:0:0:0:
93,256,49549,6,0,P|64:207|101:155,1,120,6|8,0:0|0:0,0:0:0:0:
172,158,50111,1,2,0:0:0:0:
328,158,50486,2,0,L|412:158,2,60,2|10|2,0:0|0:0|0:0,0:0:0:0:
237,158,51049,6,0,L|100:158,1,120,6|8,0:0|0:0,0:0:0:0:
268,158,51799,2,0,L|388:158,1,120,2|10,0:0|0:0,0:0:0:0:
304,158,52361,6,0,P|275:193|302:263,1,120,2|2,0:0|0:0,0:0:0:0:
374,258,52924,1,8,0:0:0:0:
218,258,53299,1,8,0:0:0:0:
386,258,53674,1,8,0:0:0:0:
206,258,54049,6,0,L|71:258,1,120,6|10,0:0|0:0,0:0:0:0:
169,258,54611,2,0,L|297:258,1,120,6|10,0:0|0:0,0:0:0:0:
204,258,55174,2,0,P|178:207|215:144,1,120,6|10,0:0|0:0,0:0:0:0:
297,152,55736,6,0,P|329:106|288:49,1,120,6|2,0:0|0:0,0:0:0:0:
210,54,56299,1,8,0:0:0:0:
390,54,56674,1,2,0:0:0:0:
