osu file format v14

[General]
AudioFilename: audio.mp3
AudioLeadIn: 0
PreviewTime: 331598
Countdown: 0
SampleSet: None
StackLeniency: 0.4
Mode: 0
LetterboxInBreaks: 0
WidescreenStoryboard: 0

[Editor]
Bookmarks: 71168,176390,188501,332501,352279,378723
DistanceSpacing: 0.2
BeatDivisor: 12
GridSize: 16
TimelineZoom: 1.8

[Metadata]
Title:icarus
TitleUnicode:icarus
Artist:EDEN
ArtistUnicode:EDEN
Creator:KKipalt
Version:fall
Source:
Tags:vertigo Jonathon Ng The Project Alternative Indie MCMXCV world tour marathon
BeatmapID:1611243
BeatmapSetID:766441

[Difficulty]
HPDrainRate:5.5
CircleSize:4
OverallDifficulty:7.7
ApproachRate:8.8
SliderMultiplier:1.4
SliderTickRate:1

[Events]
//Background and Video events
0,0,"yea.jpg",0,0
//Break Periods
2,136042,141376
2,190265,195598
2,301894,313820
//Storyboard Layer 0 (Background)
//Storyboard Layer 1 (Fail)
//Storyboard Layer 2 (Pass)
//Storyboard Layer 3 (Foreground)
//Storyboard Sound Samples

[TimingPoints]
43,444.444444444444,4,2,2,30,1,0
7154,-133.333333333333,4,2,2,30,0,0
39154,-133.333333333333,4,2,2,40,0,0
53931,-133.333333333333,4,2,2,5,0,0
54042,-133.333333333333,4,2,2,40,0,0
69376,-133.333333333333,4,2,2,24,0,0
71154,-100,4,2,2,30,0,0
88709,-100,4,2,2,30,0,0
88931,-100,4,2,2,30,0,0
98709,-83.3333333333333,4,2,2,50,0,0
131598,-100,4,2,2,30,0,0
132487,-133.333333333333,4,2,2,30,0,0
142265,-66.6666666666667,4,3,1,65,0,0
145820,-66.6666666666667,4,3,1,80,0,1
146709,-125,4,3,1,80,0,1
147598,-66.6666666666667,4,3,1,80,0,1
148487,-41.6666666666667,4,3,1,80,0,1
149376,-66.6666666666667,4,3,1,80,0,1
150265,-125,4,3,1,80,0,1
151376,-66.6666666666667,4,3,1,80,0,1
153820,-125,4,3,1,80,0,1
154709,-66.6666666666667,4,3,1,80,0,1
155598,-41.6666666666667,4,3,1,80,0,1
156042,-66.6666666666667,4,3,1,80,0,1
157376,-125,4,3,1,80,0,1
158042,-66.6666666666667,4,3,1,80,0,1
160931,-125,4,3,1,80,0,1
161820,-66.6666666666667,4,3,1,80,0,1
162709,-41.6666666666667,4,3,1,80,0,1
163598,-66.6666666666667,4,3,1,80,0,1
164487,-125,4,3,1,80,0,1
165376,-66.6666666666667,4,3,1,80,0,1
166265,-66.6666666666667,4,3,1,80,0,0
166709,-41.6666666666667,4,2,2,40,0,0
167154,-60.6060606060606,4,3,1,80,0,1
168042,-100,4,3,1,80,0,1
168931,-60.6060606060606,4,3,1,80,0,1
169820,-40,4,3,1,80,0,1
170709,-60.6060606060606,4,3,1,80,0,1
171598,-100,4,3,1,80,0,1
172487,-60.6060606060606,4,3,1,80,0,1
175154,-100,4,3,1,80,0,1
176042,-60.6060606060606,4,3,1,80,0,1
176931,-40,4,3,1,80,0,1
177820,-60.6060606060606,4,3,1,80,0,1
178709,-100,4,3,1,80,0,1
179598,-60.6060606060606,4,3,1,80,0,1
181376,-66.6666666666667,4,3,1,70,0,1
182265,-125,4,3,1,70,0,1
183154,-125,4,3,1,30,0,1
188487,-125,4,3,1,5,0,0
188598,-125,4,3,1,30,0,0
190265,-125,4,2,2,30,0,0
197376,-153.846153846154,4,2,2,30,0,0
228931,-76.9230769230769,4,2,2,5,0,0
229042,-76.9230769230769,4,2,2,40,0,0
229376,-125,4,2,2,40,0,0
257820,-166.666666666667,4,2,2,40,0,0
273820,-125,4,2,2,40,0,0
275598,-166.666666666667,4,2,2,40,0,0
277820,-125,4,2,2,40,0,0
279154,-166.666666666667,4,2,2,40,0,0
292709,-111.111111111111,4,2,2,40,0,0
293376,-142.857142857143,4,2,2,50,0,0
295154,-100,4,2,2,50,0,0
296931,-125,4,2,2,50,0,0
318265,-71.4285714285714,4,3,1,65,0,0
336042,-62.5,4,3,1,80,0,1
336931,-125,4,3,1,80,0,1
337820,-62.5,4,3,1,80,0,1
338709,-40,4,3,1,80,0,1
339154,-62.5,4,3,1,80,0,1
340487,-125,4,3,1,80,0,1
341376,-62.5,4,3,1,80,0,1
344042,-125,4,3,1,80,0,1
344931,-62.5,4,3,1,80,0,1
345820,-40,4,3,1,80,0,1
346709,-62.5,4,3,1,80,0,1
347598,-125,4,3,1,80,0,1
348709,-62.5,4,3,1,80,0,1
350265,-62.5,4,3,1,80,0,1
351154,-125,4,3,1,80,0,1
352042,-62.5,4,3,1,80,0,1
352931,-40,4,3,1,80,0,1
353820,-62.5,4,3,1,80,0,1
354709,-125,4,3,1,80,0,1
355598,-62.5,4,3,1,80,0,1
356487,-62.5,4,3,1,80,0,0
357376,-66.6666666666667,4,3,1,80,0,1
358265,-125,4,3,1,80,0,1
359154,-66.6666666666667,4,3,1,80,0,1
360042,-41.6666666666667,4,3,1,80,0,1
360931,-66.6666666666667,4,3,1,80,0,1
361820,-125,4,3,1,80,0,1
362931,-66.6666666666667,4,3,1,80,0,1
364487,-71.4285714285714,4,3,1,80,0,1
365376,-142.857142857143,4,3,1,80,0,1
366265,-71.4285714285714,4,3,1,80,0,1
367154,-55.5555555555556,4,3,1,80,0,1
368042,-71.4285714285714,4,3,1,80,0,1
368931,-142.857142857143,4,3,1,80,0,1
369820,-71.4285714285714,4,3,1,80,0,1
371598,-83.3333333333333,4,3,1,60,0,1
372487,-166.666666666667,4,3,1,60,0,1
373376,-83.3333333333333,4,3,1,40,0,1
374265,-62.5,4,3,1,40,0,1
375154,-83.3333333333333,4,3,1,30,0,1
376042,-90.9090909090909,4,3,1,30,0,1
376931,-90.9090909090909,4,3,1,30,0,1
377820,-90.9090909090909,4,3,1,30,0,1
378709,-181.818181818182,4,2,2,40,0,0

[Colours]
Combo1 : 191,191,202
Combo2 : 60,150,150
Combo3 : 208,208,208
Combo4 : 150,150,150
SliderBorder : 240,240,240
SliderTrackOverride : 50,50,50

[HitObjects]
157,97,6265,6,0,P|207:90|268:102,1,105,10|0,0:3|0:0,0:0:0:0:
289,117,6709,2,0,L|364:102,1,70,2|0,0:0|0:0,0:0:0:0:
401,39,7154,6,0,P|436:99|384:176,1,157.500006008148,4|4,0:0|0:0,0:0:0:0:
481,255,8042,1,8,0:3:0:0:
480,255,8450,2,0,L|393:246,1,87.5000033378602
365,269,8931,6,0,B|289:284|289:284|195:268,1,157.500006008148,4|4,0:0|0:0,0:0:0:0:
160,208,9820,1,8,0:3:0:0:
159,196,10709,5,4,0:0:0:0:
249,151,11376,1,4,0:0:0:0:
158,184,11598,1,8,0:3:0:0:
157,172,12487,1,4,0:0:0:0:
249,151,13154,1,4,0:0:0:0:
156,160,13376,6,0,L|80:166,1,52.5000020027161,10|0,0:3|0:0,0:0:0:0:
32,80,13820,2,0,L|107:86,1,52.5000020027161,2|0,0:0|0:0,0:0:0:0:
107,67,14265,6,0,B|175:50|224:48|224:48|281:69,1,157.500006008148,4|4,0:0|0:0,0:0:0:0:
299,166,15154,1,8,0:3:0:0:
299,166,15598,2,0,P|311:119|335:92,1,78.7500030040742,0|0,0:0|0:0,0:0:0:0:
352,80,16042,6,0,L|466:91,1,105.000004005432,4|0,0:0|0:0,0:0:0:0:
512,176,16709,1,4,0:0:0:0:
512,176,16931,2,0,L|448:181,1,52.5000020027161,8|0,0:3|0:0,0:0:0:0:
432,192,17265,2,0,P|400:256|416:304,1,105.000004005432,2|0,0:0|0:0,0:0:0:0:
424,312,17820,6,0,L|256:320,1,157.500006008148,4|4,0:0|0:0,0:0:0:0:
159,323,18709,1,8,0:3:0:0:
158,311,19598,5,4,0:0:0:0:
220,236,20265,1,4,0:0:0:0:
157,299,20487,2,0,P|96:304|80:208,1,157.500006008148,8|0,0:3|0:0,0:0:0:0:
12,153,21376,6,0,B|59:138|59:138|188:152,1,157.500006008148,4|4,0:0|0:0,0:0:0:0:
265,62,22265,2,0,L|195:72,1,52.5000020027161,8|0,0:3|0:0,0:0:0:0:
192,75,22598,2,0,P|244:118|244:175,1,105.000004005432,2|0,0:0|0:0,0:0:0:0:
236,189,23154,6,0,L|417:175,1,157.500006008148,4|4,0:0|0:0,0:0:0:0:
489,121,24042,1,8,0:3:0:0:
489,121,24487,2,0,P|472:177|482:238,1,105.000004005432,0|4,0:0|0:0,0:0:0:0:
509,307,25376,6,0,L|445:301,1,52.5000020027161,0|4,0:0|0:0,0:0:0:0:
384,336,25820,2,0,L|320:330,3,52.5000020027161,8|0|0|0,0:3|0:0|0:0|0:0,0:0:0:0:
288,252,26709,6,0,B|262:287|262:287|135:300,1,157.500006008148,4|4,0:0|0:0,0:0:0:0:
81,331,27598,1,8,0:3:0:0:
81,331,28042,2,0,P|70:294|82:257,1,78.7500030040742,2|0,0:0|0:0,0:0:0:0:
98,244,28487,6,0,P|123:219|91:107,1,157.500006008148,4|4,0:0|0:0,0:0:0:0:
43,52,29376,1,8,0:3:0:0:
43,52,29783,2,0,P|72:36|129:32,1,87.5000033378602,2|0,0:0|0:0,0:0:0:0:
141,48,30265,6,0,L|302:56,1,157.500006008148,4|4,0:0|0:0,0:0:0:0:
394,22,31154,1,8,0:3:0:0:
394,22,31561,2,0,P|376:58|384:110,1,87.5000033378602,2|0,0:0|0:0,0:0:0:0:
393,121,32042,6,0,B|404:227|404:227|384:288,1,157.500006008148,4|4,0:0|0:0,0:0:0:0:
318,225,32931,1,8,0:3:0:0:
497,345,33820,5,4,0:0:0:0:
497,345,34487,1,4,0:0:0:0:
454,232,34709,1,8,0:3:0:0:
288,304,35598,5,4,0:0:0:0:
288,304,36265,1,4,0:0:0:0:
322,213,36487,1,8,0:3:0:0:
156,135,37376,5,4,0:0:0:0:
281,124,38265,6,0,P|331:117|377:124,1,78.7500030040742,10|0,0:3|0:0,0:0:0:0:
380,146,38709,2,0,L|431:135,1,52.5000020027161,2|0,0:0|0:0,0:0:0:0:
458,62,39154,6,0,P|507:110|477:198,1,157.500006008148,4|4,0:0|0:0,0:0:0:0:
416,304,40042,1,8,0:3:0:0:
416,304,40487,2,0,L|421:240,1,52.5000020027161,0|0,0:0|0:0,0:0:0:0:
323,195,40931,6,0,L|336:354,1,157.500006008148,4|4,0:0|0:0,0:0:0:0:
252,320,41820,1,8,0:3:0:0:
251,308,42709,5,4,0:0:0:0:
331,266,43376,1,4,0:0:0:0:
250,296,43598,1,8,0:3:0:0:
249,284,44487,1,4,0:0:0:0:
331,266,45154,1,4,0:0:0:0:
248,272,45376,6,0,L|172:278,1,52.5000020027161,10|0,0:3|0:0,0:0:0:0:
141,336,45820,2,0,L|65:330,1,52.5000020027161,2|0,0:0|0:0,0:0:0:0:
32,272,46265,2,0,B|25:204|33:165|33:165|80:112,1,157.500006008148,4|4,0:0|0:0,0:0:0:0:
16,48,47154,6,0,L|95:54,1,78.7500030040742,8|0,0:3|0:0,0:0:0:0:
122,59,47598,2,0,P|166:120|242:117,1,157.500006008148
300,51,48487,2,0,L|364:56,1,52.5000020027161,0|4,0:0|0:0,0:0:0:0:
469,27,48931,2,0,P|435:63|437:123,1,105.000004005432,8|0,0:3|0:0,0:0:0:0:
496,192,49598,1,0,0:0:0:0:
496,192,49820,6,0,L|320:207,1,157.500006008148,4|4,0:0|0:0,0:0:0:0:
304,288,50709,1,8,0:3:0:0:
64,352,51598,6,0,L|73:240,1,105.000004005432,4|0,0:0|0:0,0:0:0:0:
73,247,52265,1,4,0:0:0:0:
16,189,52487,2,0,B|57:151|116:172|116:172|177:198|221:153,1,210.000008010865,8|4,0:3|0:0,0:0:0:0:
189,155,53487,6,0,P|158:132|214:70,1,131.25000500679,2|4,0:0|0:0,0:0:0:0:
281,115,54265,1,8,0:3:0:0:
281,115,54709,6,0,B|337:114|337:114|388:97,1,105.000004005432,0|4,0:0|0:0,0:0:0:0:
481,174,55598,2,0,L|417:168,1,52.5000020027161
351,194,56042,1,8,0:3:0:0:
351,194,56487,2,0,L|348:262,1,52.5000020027161,0|0,0:0|0:0,0:0:0:0:
406,302,56931,2,0,P|337:326|275:273,1,157.500006008148,4|4,0:0|0:0,0:0:0:0:
223,367,57820,1,8,0:3:0:0:
223,367,58265,2,0,L|156:374,1,52.5000020027161,0|0,0:0|0:0,0:0:0:0:
160,265,58709,6,0,P|112:313|32:265,1,157.500006008148,4|4,0:0|0:0,0:0:0:0:
32,384,59598,1,8,0:3:0:0:
41,187,60487,6,0,B|64:150|64:150|73:25,1,157.500006008148,4|4,0:0|0:0,0:0:0:0:
120,223,61377,1,8,0:3:0:0:
120,223,62265,6,0,P|187:256|251:216,1,157.500006008148,4|4,0:0|0:0,0:0:0:0:
187,179,63154,1,8,0:3:0:0:
187,179,63598,2,0,L|180:119,1,52.5000020027161
115,77,64042,6,0,L|291:61,1,157.500006008148,4|4,0:0|0:0,0:0:0:0:
377,110,64931,2,0,L|440:115,2,52.5000020027161,8|0|0,0:3|0:0|0:0,0:0:0:0:
290,171,65820,6,0,B|281:275|281:275|306:346,1,157.500006008148,4|4,0:0|0:0,0:0:0:0:
377,373,66709,2,0,L|440:378,2,52.5000020027161,8|0|0,0:3|0:0|0:0,0:0:0:0:
364,267,67598,6,0,L|188:251,1,157.500006008148,4|4,0:0|0:0,0:0:0:0:
119,326,68487,2,0,L|55:331,2,52.5000020027161,8|0|0,0:3|0:0|0:0,0:0:0:0:
106,213,69376,6,0,P|92:152|104:102,1,105.000004005432,4|0,0:0|0:0,0:0:0:0:
32,50,70042,1,4,0:0:0:0:
180,66,70265,2,0,L|292:71,1,105.000004005432,8|0,0:3|0:0,0:0:0:0:
431,22,71154,6,0,P|399:86|415:150,1,140,4|0,0:0|0:0,0:0:0:0:
490,213,71820,1,4,0:0:0:0:
335,262,72042,2,0,L|343:166,1,70,8|0,0:3|0:0,0:0:0:0:
250,133,72487,2,0,L|258:228,1,70,0|0,0:0|0:0,0:0:0:0:
246,294,72931,6,0,P|180:327|114:299,1,140,4|0,0:0|0:0,0:0:0:0:
36,364,73598,1,4,0:0:0:0:
36,364,73820,2,0,L|44:268,1,70,8|0,0:3|0:0,0:0:0:0:
90,228,74265,2,0,L|85:180,1,35,2|0,0:0|0:0,0:0:0:0:
155,96,74487,2,0,L|150:143,1,35,2|0,0:0|0:0,0:0:0:0:
78,225,74709,6,0,L|65:81,1,140,4|0,0:0|0:0,0:0:0:0:
0,16,75376,1,4,0:0:0:0:
155,96,75598,2,0,P|196:84|256:87,2,70,8|0|0,0:3|0:0|0:0,0:0:0:0:
305,127,76265,1,0,0:0:0:0:
305,127,76487,6,0,L|401:111,1,70,4|0,0:0|0:0,0:0:0:0:
492,55,76931,2,0,L|396:39,1,70,0|4,0:0|0:0,0:0:0:0:
412,199,77376,1,8,0:3:0:0:
412,199,77709,2,0,L|405:276,1,70,2|0,0:0|0:0,0:0:0:0:
320,272,78042,2,0,L|327:333,1,35,2|0,0:0|0:0,0:0:0:0:
384,368,78265,6,0,P|288:352|224:352,1,140,4|0,0:0|0:0,0:0:0:0:
142,382,78931,1,4,0:0:0:0:
165,198,79154,2,0,L|173:293,1,70,8|0,0:3|0:0,0:0:0:0:
76,320,79598,2,0,L|84:224,1,70,0|0,0:0|0:0,0:0:0:0:
23,123,80042,6,0,P|87:139|167:107,1,140,4|0,0:0|0:0,0:0:0:0:
194,24,80709,1,4,0:0:0:0:
298,151,80931,2,0,L|228:144,1,70,8|0,0:3|0:0,0:0:0:0:
400,32,81376,2,0,L|395:79,1,35,2|0,0:0|0:0,0:0:0:0:
462,167,81598,2,0,L|457:119,1,35,2|0,0:0|0:0,0:0:0:0:
393,23,81820,6,0,L|380:166,1,140,4|0,0:0|0:0,0:0:0:0:
416,240,82487,1,0,0:0:0:0:
378,323,82709,1,8,0:3:0:0:
296,330,82931,1,0,0:0:0:0:
296,330,83154,2,0,P|301:295|312:262,1,70,0|0,0:0|0:0,0:0:0:0:
203,148,83598,6,0,P|226:193|220:268,1,105,4|0,0:0|0:0,0:0:0:0:
266,325,84042,2,0,P|232:333|197:328,1,70,0|4,0:0|0:0,0:0:0:0:
91,374,84487,2,0,B|103:332|103:332|107:214,1,140,8|0,0:3|0:0,0:0:0:0:
16,48,85376,6,0,P|16:112|48:192,1,140,4|0,0:0|0:0,0:0:0:0:
106,235,86042,1,4,0:0:0:0:
224,167,86265,2,0,L|128:158,1,70,8|0,0:3|0:0,0:0:0:0:
107,87,86709,2,0,L|202:78,1,70,0|0,0:0|0:0,0:0:0:0:
291,119,87154,5,4,0:0:0:0:
291,119,87376,2,0,P|308:167|242:252,1,140,0|4,0:0|0:0,0:0:0:0:
374,341,88042,2,0,L|367:271,1,70,8|0,0:3|0:0,0:0:0:0:
480,288,88487,2,0,L|485:224,1,35,2|0,0:0|0:0,0:0:0:0:
379,263,88709,2,0,L|373:199,1,35,2|0,0:0|0:0,0:0:0:0:
474,89,88931,6,0,P|417:145|338:134,1,140,4|0,0:0|0:0,0:0:0:0:
292,78,89598,1,4,0:0:0:0:
226,207,89820,2,0,L|305:200,1,70,8|0,0:3|0:0,0:0:0:0:
149,239,90265,2,0,P|145:180|155:159,1,70,0|0,0:0|0:0,0:0:0:0:
216,294,90709,6,0,P|182:286|78:302,1,140,4|0,0:0|0:0,0:0:0:0:
16,368,91376,1,4,0:0:0:0:
40,218,91598,1,8,0:3:0:0:
40,218,92042,2,0,L|32:112,1,105,0|0,0:0|0:0,0:0:0:0:
6,22,92487,6,0,P|37:80|104:89,1,140,4|0,0:0|0:0,0:0:0:0:
176,37,93154,1,4,0:0:0:0:
268,155,93376,2,0,L|172:146,1,70,8|0,0:3|0:0,0:0:0:0:
346,55,93820,2,0,L|357:182,1,105,0|0,0:0|0:0,0:0:0:0:
310,232,94265,6,0,B|385:208|447:216|447:216|487:238|512:272,1,210,4|4,0:0|0:0,0:0:0:0:
512,344,95154,2,0,L|416:335,1,70,8|0,0:3|0:3,0:3:0:0:
352,352,95598,2,0,L|233:341,1,105,0|0,0:0|0:0,0:0:0:0:
160,352,96042,6,0,P|135:290|64:256,1,140,4|0,0:0|0:0,0:0:0:0:
153,198,96709,1,4,0:0:0:0:
20,82,96931,2,0,L|29:168,2,70,8|0|0,0:3|0:0|0:0,0:0:0:0:
116,27,97598,1,0,0:0:0:0:
288,48,97820,6,0,L|192:39,1,70,4|0,0:0|0:0,0:0:0:0:
128,208,98265,2,0,L|227:199,1,70,0|4,0:0|0:0,0:0:0:0:
312,127,98709,2,0,P|280:191|320:288,1,167.999994873047,8|0,0:3|0:0,0:0:0:0:
228,328,99376,1,0,0:0:0:0:
228,328,99598,6,0,L|412:314,1,167.999994873047,4|0,0:0|0:0,0:0:0:0:
464,368,100265,1,4,0:0:0:0:
384,304,100487,2,0,P|376:241|400:192,1,83.9999974365235,8|0,0:3|0:0,0:0:0:0:
512,112,100931,2,0,P|519:153|510:193,1,83.9999974365235,0|0,0:0|0:0,0:0:0:0:
243,130,101376,6,0,B|324:124|440:149|440:149|386:121|384:112,1,251.999992309571,4|4,0:0|0:0,0:0:0:0:
201,62,102265,2,0,P|169:94|210:204,1,167.999994873047,8|0,0:3|0:0,0:0:0:0:
128,256,102931,1,0,0:0:0:0:
288,256,103154,6,0,L|272:352,1,83.9999974365235,4|0,0:0|0:0,0:0:0:0:
387,384,103598,2,0,L|373:301,1,83.9999974365235,0|4,0:0|0:0,0:0:0:0:
389,285,103931,1,0,0:0:0:0:
405,269,104042,2,0,P|405:189|389:157,1,83.9999974365235,8|0,0:3|0:0,0:0:0:0:
467,38,104487,2,0,P|459:79|466:120,1,83.9999974365235,0|0,0:0|0:0,0:0:0:0:
343,110,104931,6,0,P|261:94|179:107,1,167.999994873047,4|0,0:0|0:0,0:0:0:0:
133,181,105598,1,4,0:0:0:0:
191,321,105820,2,0,L|198:237,1,83.9999974365235,8|0,0:3|0:0,0:0:0:0:
174,262,106154,2,0,P|127:274|50:216,1,125.999996154785,2|0,0:0|0:0,0:0:0:0:
103,361,106709,6,0,L|270:375,1,167.999994873047,4|0,0:0|0:0,0:0:0:0:
304,272,107376,1,4,0:0:0:0:
459,339,107598,2,0,L|376:347,1,83.9999974365235,8|0,0:3|0:0,0:0:0:0:
352,176,108042,2,0,L|435:183,1,83.9999974365235,0|0,0:0|0:0,0:0:0:0:
512,64,108487,6,0,P|434:93|351:83,1,167.999994873047,4|0,0:0|0:0,0:0:0:0:
304,0,109154,1,4,0:0:0:0:
217,107,109376,2,0,B|214:191|214:191|233:235,2,125.999996154785,8|0|0,0:3|0:0|0:0,0:0:0:0:
48,224,110265,6,0,P|128:240|160:320,1,167.999994873047,4|0,0:0|0:0,0:0:0:0:
96,384,110931,1,4,0:0:0:0:
244,357,111154,2,0,L|339:365,1,83.9999974365235,8|0,0:3|0:0,0:0:0:0:
512,277,111598,2,0,L|352:293,1,125.999996154785
290,255,112042,6,0,P|274:216|273:174,1,83.9999974365235,4|0,0:0|0:0,0:0:0:0:
432,32,112487,2,0,P|431:73|415:112,1,83.9999974365235,0|4,0:0|0:0,0:0:0:0:
280,88,112931,1,8,0:3:0:0:
280,88,113154,2,0,P|202:90|145:10,1,167.999994873047
144,160,113820,6,0,L|130:344,1,167.999994873047,4|0,0:0|0:0,0:0:0:0:
40,348,114487,1,4,0:0:0:0:
213,361,114709,1,8,0:3:0:0:
213,361,114931,2,0,P|275:352|317:316,1,83.9999974365235,0|0,0:0|0:0,0:0:0:0:
384,272,115376,5,0,0:0:0:0:
384,272,115598,2,0,B|383:280|411:226|411:226|386:342|408:375,1,167.999994873047,4|0,0:0|0:0,0:0:0:0:
496,192,116265,1,4,0:0:0:0:
314,194,116487,2,0,P|290:66|298:2,1,167.999994873047,8|0,0:3|0:0,0:0:0:0:
292,29,117153,1,0,0:0:0:0:
163,158,117376,6,0,L|80:144,1,83.9999974365235,4|0,0:0|0:0,0:0:0:0:
0,272,117820,2,0,L|83:258,1,83.9999974365235,0|4,0:0|0:0,0:0:0:0:
99,274,118153,1,0,0:0:0:0:
115,290,118264,2,0,P|195:290|227:274,1,83.9999974365235,8|0,0:3|0:0,0:0:0:0:
368,352,118709,2,0,P|327:344|286:351,1,83.9999974365235,0|0,0:0|0:0,0:0:0:0:
307,244,119153,6,0,P|323:162|310:80,1,167.999994873047,4|0,0:0|0:0,0:0:0:0:
240,32,119820,1,4,0:0:0:0:
71,85,120042,2,0,L|155:92,1,83.9999974365235,8|0,0:3|0:0,0:0:0:0:
182,99,120376,2,0,P|135:111|82:175,1,125.999996154785,2|0,0:0|0:0,0:0:0:0:
0,256,120931,6,0,L|167:270,1,167.999994873047,4|0,0:0|0:0,0:0:0:0:
160,352,121598,1,4,0:0:0:0:
230,218,121820,2,0,P|245:299|185:350,1,167.999994873047,8|0,0:3|0:0,0:0:0:0:
480,384,122709,6,0,P|420:330|437:252,1,167.999994873047,4|0,0:0|0:0,0:0:0:0:
512,192,123376,1,4,0:0:0:0:
336,112,123598,2,0,B|333:196|333:196|352:240,2,125.999996154785,8|0|0,0:3|0:0|0:0,0:0:0:0:
270,271,124487,6,0,P|195:242|128:288,1,167.999994873047,4|0,0:0|0:0,0:0:0:0:
91,370,125153,1,4,0:0:0:0:
67,220,125376,2,0,L|74:136,1,83.9999974365235,8|0,0:3|0:0,0:0:0:0:
160,16,125820,2,0,L|167:99,1,83.9999974365235,0|0,0:0|0:0,0:0:0:0:
179,204,126265,5,4,0:0:0:0:
179,204,126487,1,0,0:0:0:0:
341,162,126709,2,0,P|307:147|229:152,1,83.9999974365235,0|4,0:0|0:0,0:0:0:0:
137,285,127154,2,0,P|187:287|248:274,1,83.9999974365235,8|0,0:3|0:0,0:0:0:0:
237,269,127487,2,0,P|273:282|334:288,1,83.9999974365235,2|0,0:0|0:0,0:0:0:0:
396,295,127820,2,0,P|396:274|390:253,1,41.9999987182618,10|0,0:0|0:0,0:0:0:0:
379,238,128042,6,0,P|487:265|514:317,1,167.999994873047,4|0,0:0|0:0,0:0:0:0:
412,331,128709,1,4,0:0:0:0:
304,208,128931,2,0,L|192:192,1,83.9999974365235,8|0,0:3|0:0,0:0:0:0:
227,292,129376,2,0,L|144:304,1,83.9999974365235,0|0,0:0|0:0,0:0:0:0:
0,176,129820,5,4,0:0:0:0:
0,176,130042,2,0,P|80:208|144:144,1,167.999994873047,0|4,0:0|0:0,0:0:0:0:
303,133,130709,2,0,P|256:115|191:117,1,83.9999974365235,8|0,0:3|0:0,0:0:0:0:
153,44,131154,2,0,P|194:39|233:23,1,83.9999974365235,0|0,0:0|0:0,0:0:0:0:
377,97,131598,6,0,B|400:141|365:192|365:192|327:241|363:299,1,210,4|4,0:0|0:0,0:0:0:0:
423,340,132487,2,0,P|358:294|290:320,1,157.500006008148,8|0,0:3|0:0,0:0:0:0:
256,192,133376,12,4,135154,0:0:0:0:
70,152,142265,6,0,L|177:162,1,105.000004005432,4|0,0:0|0:0,0:0:0:0:
244,61,142709,2,0,P|236:97|244:141,1,52.5000020027161,0|0,0:0|0:0,0:0:0:0:
288,176,142931,1,4,0:0:0:0:
322,348,143154,2,0,B|320:272|320:272|338:220,1,105.000004005432,0|0,0:0|0:0,0:0:0:0:
288,176,143487,2,0,P|345:164|392:190,1,105.000004005432,2|0,0:3|0:0,0:0:0:0:
450,281,143820,2,0,L|370:287,1,52.5000020027161,10|0,0:3|0:0,0:0:0:0:
243,343,144042,6,0,L|99:330,1,105.000004005432,4|0,0:0|0:0,0:0:0:0:
73,383,144376,2,0,P|55:334|73:286,1,105.000004005432,2|0,0:3|0:0,0:0:0:0:
177,258,144709,2,0,P|193:194|191:185,1,52.5000020027161,4|0,0:0|0:0,0:0:0:0:
8,200,144931,2,0,L|112:209,1,105.000004005432,10|0,0:3|0:0,0:0:0:0:
72,77,145376,1,2,0:0:0:0:
76,108,145487,1,2,0:0:0:0:
152,139,145598,1,2,0:0:0:0:
157,108,145709,1,2,0:0:0:0:
208,48,145820,6,0,P|272:32|336:48,1,105.000004005432,4|0,0:0|0:0,0:0:0:0:
344,165,146265,2,0,P|336:129|344:85,1,52.5000020027161,0|0,0:0|0:0,0:0:0:0:
388,50,146487,1,4,0:0:0:0:
496,192,146709,6,0,L|490:255,1,56,10|0,0:3|0:0,0:0:0:0:
296,232,147042,2,0,L|301:295,1,56,2|0,0:3|0:0,0:0:0:0:
508,115,147376,1,10,0:3:0:0:
510,322,147598,6,0,P|438:303|419:261,1,105.000004005432,4|0,0:0|0:0,0:0:0:0:
363,339,147931,2,0,P|291:358|272:400,1,105.000004005432,2|0,0:3|0:0,0:0:0:0:
218,322,148265,2,0,P|192:309|154:316,1,52.5000020027161,4|0,0:0|0:0,0:0:0:0:
105,378,148487,6,0,B|86:332|86:332|106:186|106:186|80:112,1,251.999992309571,10|0,0:3|0:0,0:0:0:0:
23,85,148931,1,2,0:0:0:0:
19,54,149042,1,2,0:0:0:0:
105,25,149153,1,2,0:0:0:0:
100,56,149264,1,2,0:0:0:0:
166,105,149376,6,0,P|220:110|288:96,1,105.000004005432,4|0,0:0|0:0,0:0:0:0:
400,128,149820,2,0,P|364:120|320:128,1,52.5000020027161,0|0,0:0|0:0,0:0:0:0:
290,176,150042,1,4,0:0:0:0:
449,252,150265,6,0,L|443:189,1,56,10|0,0:3|0:0,0:0:0:0:
277,308,150598,2,0,L|282:245,1,56,2|0,0:3|0:0,0:0:0:0:
463,334,150932,1,10,0:3:0:0:
356,224,151154,5,4,0:0:0:0:
454,352,151376,2,0,L|390:357,1,52.5000020027161,10|2,0:1|0:3,0:0:0:0:
310,360,151598,1,0,0:0:0:0:
323,343,151709,2,0,L|259:348,1,52.5000020027161,10|4,0:1|0:0,0:0:0:0:
198,318,151931,2,0,L|150:313,2,26.2500010013581,2|0|10,0:3|0:0|0:3,0:0:0:0:
17,196,152265,2,0,P|43:195|69:199,1,52.5000020027161,0|2,0:0|0:0,0:0:0:0:
145,236,152487,1,8,0:0:0:0:
143,218,152598,1,2,0:0:0:0:
142,199,152709,1,10,0:0:0:0:
141,180,152820,1,2,0:0:0:0:
181,109,152931,6,0,P|119:118|71:102,1,105.000004005432,4|0,0:0|0:0,0:0:0:0:
250,7,153376,2,0,P|242:43|250:87,1,52.5000020027161
312,98,153598,1,4,0:0:0:0:
449,84,153820,6,0,L|369:90,1,56,10|0,0:3|0:0,0:0:0:0:
278,210,154154,2,0,L|333:214,1,56,2|0,0:3|0:0,0:0:0:0:
449,84,154487,1,10,0:3:0:0:
452,331,154709,6,0,P|380:312|361:270,1,105.000004005432,4|0,0:0|0:0,0:0:0:0:
293,322,155042,2,0,P|221:341|202:383,1,105.000004005432,2|0,0:3|0:0,0:0:0:0:
142,307,155376,2,0,P|116:294|78:301,1,52.5000020027161,4|0,0:0|0:0,0:0:0:0:
24,353,155598,6,0,B|5:307|5:307|24:158|24:158|64:112,1,251.999992309571,10|0,0:3|0:0,0:0:0:0:
5,64,156042,1,2,0:0:0:0:
1,33,156153,1,2,0:0:0:0:
86,15,156264,1,2,0:0:0:0:
81,46,156375,1,2,0:0:0:0:
134,102,156487,6,0,P|188:107|240:80,1,105.000004005432,4|0,0:0|0:0,0:0:0:0:
326,175,156931,2,0,P|303:145|292:102,1,52.5000020027161,0|0,0:0|0:0,0:0:0:0:
308,56,157153,1,4,0:0:0:0:
460,190,157376,6,0,L|397:184,1,56,10|0,0:3|0:0,0:0:0:0:
348,327,157709,2,0,L|285:332,1,56,2|0,0:3|0:0,0:0:0:0:
326,175,158043,1,10,0:3:0:0:
427,322,158265,5,4,0:0:0:0:
308,184,158487,2,0,L|303:248,1,52.5000020027161,10|2,0:1|0:3,0:0:0:0:
211,339,158709,1,0,0:0:0:0:
192,330,158820,2,0,L|187:266,1,52.5000020027161,10|4,0:1|0:0,0:0:0:0:
181,198,159042,2,0,L|229:193,2,26.2500010013581,2|0|10,0:3|0:0|0:3,0:0:0:0:
124,373,159376,5,2,0:0:0:0:
44,267,159598,1,8,0:0:0:0:
69,268,159709,1,2,0:0:0:0:
94,263,159820,1,10,0:0:0:0:
117,249,159931,1,2,0:0:0:0:
106,175,160042,6,0,P|80:127|96:63,1,105.000004005432,4|0,0:0|0:0,0:0:0:0:
212,106,160487,2,0,P|176:114|132:106,1,52.5000020027161,0|0,0:0|0:0,0:0:0:0:
156,35,160709,1,4,0:0:0:0:
321,95,160931,6,0,L|315:158,1,56,10|0,0:3|0:0,0:0:0:0:
464,64,161265,2,0,L|469:127,1,56,2|0,0:3|0:0,0:0:0:0:
327,20,161598,1,10,0:3:0:0:
483,196,161820,6,0,P|432:192|397:154,1,105.000004005432,4|0,0:0|0:0,0:0:0:0:
349,228,162153,2,0,P|277:247|258:289,1,105.000004005432,2|0,0:3|0:0,0:0:0:0:
348,355,162487,2,0,P|347:328|335:306,1,52.5000020027161,4|0,0:0|0:0,0:0:0:0:
211,332,162709,6,0,B|160:346|160:346|192:200|192:200|176:122,1,251.999992309571,10|0,0:3|0:0,0:0:0:0:
207,77,163154,1,2,0:0:0:0:
212,46,163265,1,2,0:0:0:0:
127,64,163375,1,2,0:0:0:0:
131,95,163486,1,2,0:0:0:0:
110,167,163598,6,0,P|56:158|5:190,1,105.000004005432,4|0,0:0|0:0,0:0:0:0:
79,285,164042,2,0,P|80:258|70:234,1,52.5000020027161,0|0,0:0|0:0,0:0:0:0:
4,271,164265,1,4,0:0:0:0:
156,279,164487,6,0,L|219:273,1,56,10|0,0:3|0:0,0:0:0:0:
321,206,164821,2,0,L|326:269,1,56,2|0,0:3|0:0,0:0:0:0:
314,127,165154,1,10,0:3:0:0:
457,273,165376,6,0,L|354:264,1,52.5000020027161,4|0,0:0|0:0,0:0:0:0:
316,258,165598,2,0,L|320:205,1,52.5000020027161,10|2,0:1|0:3,0:0:0:0:
314,127,165820,1,0,0:0:0:0:
328,112,165931,2,0,L|332:59,1,52.5000020027161,10|4,0:1|0:0,0:0:0:0:
219,23,166154,1,2,0:3:0:0:
226,96,166265,5,10,0:3:0:0:
226,96,166709,6,2,P|155:87|96:110,1,125.999996154785,2|0,0:0|0:0,0:0:0:0:
38,68,166931,6,2,P|26:108|40:147,1,83.9999974365235,2|0,0:0|0:0,0:0:0:0:
123,239,167154,6,0,P|75:178|18:231,1,173.250001652241,4|0,0:0|0:0,0:0:0:0:
115,335,167598,2,0,P|163:319|195:319,1,57.7500005507469,0|0,0:0|0:0,0:0:0:0:
252,339,167820,1,4,0:0:0:0:
320,208,168042,6,0,L|313:287,1,70,10|0,0:3|0:0,0:0:0:0:
469,351,168376,2,0,B|419:341|419:341|365:344,1,105,2|10,0:3|0:3,0:0:0:0:
254,164,168931,6,0,P|297:133|368:146,1,115.500001101494,4|0,0:0|0:0,0:0:0:0:
496,48,169265,2,0,P|453:79|382:66,1,115.500001101494,2|0,0:3|0:0,0:0:0:0:
371,228,169598,2,0,P|342:224|319:207,1,57.7500005507469,4|0,0:0|0:0,0:0:0:0:
215,87,169820,6,0,B|167:39|167:39|183:247,1,262.5,10|0,0:3|0:0,0:0:0:0:
190,318,170265,1,2,0:0:0:0:
168,316,170376,1,2,0:0:0:0:
120,311,170487,1,2,0:0:0:0:
98,309,170598,1,2,0:0:0:0:
46,307,170709,6,0,P|99:253|90:201,1,115.500001101494,4|0,0:0|0:0,0:0:0:0:
74,84,171154,2,0,P|96:129|119:151,1,57.7500005507469,0|0,0:0|0:0,0:0:0:0:
173,178,171376,1,4,0:0:0:0:
285,65,171598,6,0,L|204:57,1,70,10|0,0:3|0:0,0:0:0:0:
416,148,171931,2,0,L|346:154,1,70,2|0,0:3|0:0,0:0:0:0:
173,178,172265,1,10,0:3:0:0:
363,76,172487,5,4,0:0:0:0:
278,230,172709,2,0,L|272:172,1,57.7500005507469,10|2,0:1|0:3,0:0:0:0:
428,228,172931,1,0,0:0:0:0:
408,238,173042,2,0,L|402:295,1,57.7500005507469,10|4,0:1|0:0,0:0:0:0:
411,371,173265,2,0,L|442:369,2,28.8750002753735,2|0|10,0:3|0:0|0:3,0:0:0:0:
279,384,173598,2,0,P|272:358|257:327,1,57.7500005507469,0|2,0:0|0:0,0:0:0:0:
183,313,173820,1,8,0:0:0:0:
185,295,173931,1,2,0:0:0:0:
186,276,174042,1,10,0:0:0:0:
187,257,174153,1,2,0:0:0:0:
243,205,174265,6,0,B|207:226|162:204|162:204|113:181|58:215,1,173.250001652241,4|0,0:0|0:0,0:0:0:0:
204,133,174709,2,0,P|199:105|188:79,1,57.7500005507469,0|0,0:0|0:0,0:0:0:0:
110,51,174931,1,4,0:0:0:0:
341,66,175154,6,0,L|272:73,1,70,10|0,0:3|0:0,0:0:0:0:
437,189,175487,2,0,L|358:182,1,70,2|0,0:3|0:0,0:0:0:0:
204,133,175820,1,10,0:3:0:0:
249,278,176043,6,0,P|280:235|267:164,1,115.500001101494,4|0,0:0|0:0,0:0:0:0:
99,237,176377,2,0,P|142:206|213:219,1,115.500001101494,2|0,0:3|0:0,0:0:0:0:
192,334,176710,2,0,P|215:351|244:355,1,57.7500005507469,4|0,0:0|0:0,0:0:0:0:
395,311,176932,6,0,B|443:263|443:263|235:279,1,262.5,10|0,0:3|0:0,0:0:0:0:
192,334,177376,1,2,0:0:0:0:
170,336,177487,1,2,0:0:0:0:
122,341,177598,1,2,0:0:0:0:
100,343,177709,1,2,0:0:0:0:
50,350,177821,6,0,P|28:291|48:240,1,115.500001101494,4|0,0:0|0:0,0:0:0:0:
10,114,178266,2,0,P|32:159|55:181,1,57.7500005507469,0|0,0:0|0:0,0:0:0:0:
110,193,178488,1,4,0:0:0:0:
204,73,178710,6,0,L|285:81,1,70,10|0,0:3|0:0,0:0:0:0:
109,193,179043,2,0,L|179:187,1,70,2|0,0:3|0:0,0:0:0:0:
360,169,179377,1,10,0:3:0:0:
348,40,179599,5,4,0:0:0:0:
360,169,179821,2,0,L|418:163,1,57.7500005507469,10|2,0:1|0:3,0:0:0:0:
492,73,180043,1,0,0:0:0:0:
482,53,180154,2,0,L|425:47,1,57.7500005507469,10|4,0:1|0:0,0:0:0:0:
348,40,180376,2,0,L|350:71,2,28.8750002753735,2|0|0,0:3|0:0|0:0,0:0:0:0:
500,156,180709,5,0,0:0:0:0:
360,169,180931,1,8,0:0:0:0:
331,170,181042,1,2,0:0:0:0:
301,173,181153,1,10,0:0:0:0:
273,174,181264,1,2,0:0:0:0:
215,121,181376,6,0,P|195:167|257:251,1,157.500006008148,4|0,0:0|0:0,0:0:0:0:
291,340,181820,2,0,P|242:328|179:340,1,105.000004005432,0|4,0:0|0:0,0:0:0:0:
89,277,182265,6,0,L|152:271,1,56,10|0,0:3|0:0,0:0:0:0:
105,113,182598,2,0,L|96:208,1,84,2|10,0:3|0:3,0:0:0:0:
48,48,183154,5,4,0:0:0:0:
48,48,183820,1,4,0:0:0:0:
188,81,184042,1,10,0:3:0:0:
256,192,184098,12,0,188487,2:0:0:0:
32,90,197376,6,0,L|48:281,1,181.999991668702,4|8,0:0|0:3,0:0:0:0:
181,305,198709,2,0,P|133:337|85:337,2,90.9999958343508,0|4|0,0:0|0:0|0:0,0:0:0:0:
193,225,199820,1,4,0:0:0:0:
193,225,200042,2,0,L|288:240,1,90.9999958343508,8|0,0:3|0:0,0:0:0:0:
383,138,200931,6,0,P|355:201|383:266,1,136.499993751526,4|4,0:0|0:0,0:0:0:0:
427,328,201820,2,0,L|315:337,1,90.9999958343508,8|0,0:3|0:0,0:0:0:0:
189,229,202709,2,0,L|300:238,1,90.9999958343508,4|0,0:0|0:0,0:0:0:0:
333,146,203376,1,4,0:0:0:0:
333,146,203598,2,0,L|288:151,1,45.4999979171754,10|0,0:3|0:0,0:0:0:0:
496,48,204376,1,2,0:0:0:0:
485,59,204487,6,0,B|396:73|396:73|293:59,1,181.999991668702,4|8,0:0|0:3,0:0:0:0:
164,111,205820,2,0,P|218:129|265:117,2,90.9999958343508,0|4|0,0:0|0:0|0:0,0:0:0:0:
98,46,206931,1,4,0:0:0:0:
98,46,207154,2,0,L|88:157,1,90.9999958343508,8|0,0:3|0:0,0:0:0:0:
4,243,208042,6,0,P|67:215|132:243,1,136.499993751526,4|4,0:0|0:0,0:0:0:0:
170,310,208931,2,0,L|281:319,1,90.9999958343508,8|0,0:3|0:0,0:0:0:0:
358,237,209820,2,0,L|342:333,1,90.9999958343508,4|0,0:0|0:0,0:0:0:0:
249,233,210487,1,4,0:0:0:0:
249,233,210709,2,0,L|244:165,2,68.2499968757631,8|0|0,0:3|0:0|0:0,0:0:0:0:
316,129,211598,6,0,L|379:134,1,45.4999979171754,4|0,0:0|0:0,0:0:0:0:
190,78,212042,2,0,L|253:83,1,45.4999979171754,0|4,0:0|0:0,0:0:0:0:
310,118,212487,2,0,L|411:110,1,90.9999958343508,8|0,0:3|0:0,0:0:0:0:
476,14,213376,2,0,L|483:115,1,90.9999958343508,4|0,0:0|0:0,0:0:0:0:
450,182,214042,1,4,0:0:0:0:
450,182,214265,2,0,L|442:283,1,90.9999958343508,8|0,0:3|0:0,0:0:0:0:
384,336,215154,6,0,P|311:318|240:336,1,136.499993751526,4|4,0:0|0:0,0:0:0:0:
219,245,216042,2,0,B|147:250|147:250|116:268|116:268|43:272,1,181.999991668702,8|4,0:3|0:0,0:0:0:0:
219,245,217598,2,0,L|223:200,1,45.4999979171754,4|8,0:0|0:3,0:0:0:0:
43,272,218709,6,0,B|116:268|116:268|147:250|147:250|232:245,1,181.999991668702,4|8,0:0|0:3,0:0:0:0:
91,96,220042,2,0,L|82:191,2,90.9999958343508,0|4|0,0:0|0:0|0:0,0:0:0:0:
223,38,221376,2,0,P|184:32|143:44,2,68.2499968757631,8|0|0,0:3|0:0|0:0,0:0:0:0:
282,99,222265,6,0,L|425:84,1,136.499993751526,4|4,0:0|0:0,0:0:0:0:
417,84,223154,1,8,0:3:0:0:
465,196,223598,1,0,0:0:0:0:
465,196,224042,2,0,L|318:185,1,136.499993751526,4|4,0:0|0:0,0:0:0:0:
328,185,224931,1,8,0:3:0:0:
234,256,225376,2,0,L|297:250,1,45.4999979171754
338,306,225820,6,0,P|360:243|328:185,1,136.499993751526,4|4,0:0|0:0,0:0:0:0:
328,185,226709,1,8,0:3:0:0:
8,230,227598,2,0,B|36:274|94:291|154:253|154:253|218:207|282:254,1,295.74998646164,4|2,0:0|0:0,0:0:0:0:
64,16,229376,6,0,P|160:64|240:48,1,168,4|4,0:0|0:0,0:0:0:0:
300,24,230265,1,8,0:3:0:0:
300,24,230709,2,0,L|294:87,1,56,0|0,0:0|0:0,0:0:0:0:
287,164,231154,2,0,B|453:139,1,168,4|4,0:0|0:0,0:0:0:0:
512,245,232042,2,0,L|400:235,1,112,8|0,0:3|0:0,0:0:0:0:
272,331,232931,6,0,L|287:155,1,168,4|4,0:0|0:0,0:0:0:0:
194,129,233820,2,0,L|200:208,3,56,8|0|0|0,0:3|0:0|0:0|0:0,0:0:0:0:
171,264,234709,2,0,P|139:280|59:280,1,112,4|0,0:0|0:0,0:0:0:0:
10,215,235376,1,4,0:0:0:0:
10,215,235598,2,0,L|19:103,1,112,8|0,0:3|0:0,0:0:0:0:
32,18,236265,1,0,0:0:0:0:
32,18,236487,6,0,B|77:46|77:46|208:34,1,168,4|4,0:0|0:0,0:0:0:0:
257,109,237376,1,8,0:3:0:0:
257,109,237709,2,0,L|320:114,1,56,2|0,0:0|0:0,0:0:0:0:
352,32,238042,2,0,L|383:29,1,28,2|0,0:0|0:0,0:0:0:0:
465,25,238265,2,0,B|443:82|441:133|441:133|464:192,1,168,4|4,0:0|0:0,0:0:0:0:
380,214,239154,2,0,L|374:277,2,56,8|0|0,0:3|0:0|0:0,0:0:0:0:
470,340,240042,6,0,P|395:316|294:340,1,168,4|4,0:0|0:0,0:0:0:0:
234,360,240931,2,0,L|170:354,3,56,8|0|0|0,0:3|0:0|0:0|0:0,0:0:0:0:
98,345,241820,2,0,P|114:297|98:217,1,112,4|0,0:0|0:0,0:0:0:0:
32,192,242487,1,4,0:0:0:0:
32,192,242709,2,0,L|37:128,3,56,8|0|0|0,0:3|0:0|0:0|0:0,0:0:0:0:
75,62,243598,6,0,B|159:54|159:54|256:86,1,168,4|4,0:0|0:0,0:0:0:0:
280,158,244487,1,8,0:3:0:0:
280,158,244931,2,0,L|343:152,1,56,0|0,0:0|0:0,0:0:0:0:
429,91,245376,2,0,B|421:154|412:201|412:201|420:259,1,168,4|4,0:0|0:0,0:0:0:0:
493,309,246265,2,0,L|487:372,2,56,8|0|0,0:3|0:0|0:0,0:0:0:0:
350,326,247154,6,0,B|290:310|239:309|239:309|176:320,1,168,4|4,0:0|0:0,0:0:0:0:
107,358,248042,2,0,L|100:282,1,56,8|0,0:3|0:0,0:0:0:0:
37,251,248487,2,0,L|43:175,1,56,0|0,0:0|0:0,0:0:0:0:
96,128,248931,2,0,B|153:147|204:141|204:141|269:105,1,168,4|4,0:0|0:0,0:0:0:0:
315,179,249820,2,0,L|378:173,2,56,8|0|0,0:3|0:0|0:0,0:0:0:0:
476,111,250709,6,0,P|444:191|456:228,1,112,4|0,0:0|0:0,0:0:0:0:
448,212,251376,1,4,0:0:0:0:
467,313,251598,2,0,P|466:340|458:367,1,56,8|0,0:3|0:0,0:0:0:0:
375,273,252042,2,0,P|386:298|388:326,1,56,0|0,0:0|0:0,0:0:0:0:
250,215,252487,2,0,P|277:215|304:223,1,56,4|0,0:0|0:0,0:0:0:0:
210,307,252931,2,0,P|235:295|263:293,1,56,0|4,0:0|0:0,0:0:0:0:
128,368,253376,2,0,L|122:292,2,56,8|0|0,0:3|0:0|0:0,0:0:0:0:
9,191,254265,6,0,P|89:223|126:211,1,112,4|0,0:0|0:0,0:0:0:0:
110,219,254932,1,4,0:0:0:0:
160,148,255154,2,0,P|160:120|168:93,1,56,8|0,0:3|0:0,0:0:0:0:
252,188,255598,2,0,P|240:162|238:134,1,56,0|0,0:0|0:0,0:0:0:0:
377,246,256043,2,0,P|349:245|322:237,1,56,4|0,0:0|0:0,0:0:0:0:
417,154,256487,2,0,P|391:165|363:167,1,56,0|4,0:0|0:0,0:0:0:0:
484,106,256931,2,0,B|514:157|477:208|477:208|438:260|464:308,1,196,8|0,0:3|0:0,0:0:0:0:
480,320,257820,6,2,B|438:269|348:291|348:291|318:320|318:320|254:346|208:320,1,293.999991027832,2|0,0:0|0:0,0:0:0:0:
186,236,259598,2,2,P|252:277|112:336,1,314.999990386963,2|0,0:0|0:0,0:0:0:0:
40,365,261376,6,2,B|54:284|54:284|40:198|40:198|58:116|58:116|40:35|40:35|94:164|171:153|216:137|215:88|195:44|137:61,1,629.999980773926,2|0,0:0|0:0,0:0:0:0:
120,208,264931,6,2,B|189:215|223:187|223:187|275:215|275:215|332:178|414:206,1,293.999991027832,2|0,0:0|0:0,0:0:0:0:
447,262,266709,2,2,B|469:302|468:338|468:338|507:264|489:209|489:209|456:160|480:96,1,314.999990386963,2|0,0:0|0:0,0:0:0:0:
448,30,268487,6,2,B|422:71|358:92|303:53|303:53|209:-18|82:31|58:142|95:215|95:215|74:143|129:47|249:44|344:138|310:233|240:277,1,965.99997052002,2|0,0:0|0:0,0:0:0:0:
176,327,273820,6,2,P|264:299|355:312,1,168,2|0,0:0|0:0,0:0:0:0:
360,384,274598,2,2,P|414:326|334:226,1,224,2|0,0:0|0:0,0:0:0:0:
272,198,275598,6,2,B|213:122|272:45|272:45|169:123|69:55,1,377.999988464356,2|0,0:0|0:0,0:0:0:0:
14,15,277820,2,2,P|-2:79|57:136,1,140,2|0,0:0|0:0,0:0:0:0:
111,172,278487,2,2,P|127:236|100:284,1,112,2|0,0:0|0:0,0:0:0:0:
49,337,279154,6,2,B|114:377|171:333|171:333|231:320|300:345|300:345|279:316,1,293.999991027832,2|0,0:0|0:0,0:0:0:0:
357,294,280931,2,2,B|387:322|375:370|375:370|463:373|462:220|365:210,1,314.999990386963,2|0,0:0|0:0,0:0:0:0:
300,166,282709,2,2,B|329:126|387:131|387:131|328:48|164:104|127:192|142:311|142:311|137:192|86:90|-28:44|-28:44|57:83|136:80,1,1007.99996923828,2|0,0:0|0:0,0:0:0:0:
221,31,288154,6,2,P|376:26|484:119,1,293.999991027832,2|0,0:0|0:0,0:0:0:0:
481,191,289820,6,2,B|453:257|482:356|482:356|449:287|369:223|273:239|257:319|296:383|365:346,1,503.999984619141,2|0,0:0|0:0,0:0:0:0:
217,300,292709,2,2,B|179:294|179:294|92:309,1,125.999996154785,2|0,0:0|0:0,0:0:0:0:
20,349,293376,6,2,B|-1:287|49:236|49:236|100:182|106:114|65:70|-2:67,1,342.999989532471,2|0,0:0|0:0,0:0:0:0:
9,150,295154,2,2,B|51:159|51:159|153:150,1,140,2|0,0:0|0:0,0:0:0:0:
192,80,295820,2,2,B|255:44|356:34|412:53|412:53|412:103|448:144,1,315,2|0,0:0|0:0,0:0:0:0:
512,184,296931,6,2,P|421:164|432:336,1,308,2|0,0:0|0:0,0:0:0:0:
451,248,298265,1,2,0:0:0:0:
256,192,298376,12,0,300561,0:0:0:0:
256,192,314746,12,0,317783,0:0:0:0:
80,272,318265,6,0,L|207:283,1,97.9999970092774,4|0,0:0|0:0,0:0:0:0:
273,341,318709,2,0,L|266:261,1,48.9999985046387,0|0,0:0|0:0,0:0:0:0:
235,210,318931,2,0,L|243:112,1,97.9999970092774,4|10,0:0|0:3,0:0:0:0:
255,123,319265,1,0,0:0:0:0:
255,123,319376,1,0,0:0:0:0:
255,123,319487,2,0,P|340:98|410:146,1,146.999995513916,2|10,0:3|0:3,0:0:0:0:
448,288,320042,6,0,L|438:190,1,97.9999970092774,4|0,0:0|0:0,0:0:0:0:
472,115,320487,1,0,0:0:0:0:
354,202,320709,1,4,0:0:0:0:
423,49,320931,2,0,L|419:5,2,32.6666656697591,10|0|0,0:3|0:0|0:0,0:0:0:0:
472,115,321154,2,0,L|516:119,2,32.6666656697591,2|0|0,0:0|0:0|0:0,0:0:0:0:
363,104,321376,2,0,L|213:93,1,146.999995513916,2|2,0:0|0:0,0:0:0:0:
137,112,321820,5,4,0:0:0:0:
160,32,322042,1,0,0:0:0:0:
192,176,322265,2,0,L|189:280,1,97.9999970092774,0|0,0:0|0:0,0:0:0:0:
30,357,322709,2,0,P|78:361|121:340,1,97.9999970092774,10|0,0:3|0:0,0:0:0:0:
189,273,323042,2,0,P|237:268|280:289,1,97.9999970092774,2|0,0:3|0:0,0:0:0:0:
350,336,323376,2,0,L|354:384,1,48.9999985046387,10|0,0:3|0:0,0:0:0:0:
360,258,323598,6,0,P|376:211|370:142,1,97.9999970092774,4|0,0:0|0:0,0:0:0:0:
440,41,324042,2,0,P|439:89|455:135,1,97.9999970092774,0|4,0:0|0:0,0:0:0:0:
302,118,324487,2,0,L|194:129,1,97.9999970092774,10|0,0:3|0:0,0:0:0:0:
148,188,324820,1,0,0:0:0:0:
148,188,324931,2,0,L|40:177,1,97.9999970092774,2|2,0:0|0:0,0:0:0:0:
106,11,325376,6,0,L|131:123,1,97.9999970092774,4|0,0:0|0:0,0:0:0:0:
230,204,325820,2,0,L|205:316,1,97.9999970092774,0|4,0:0|0:0,0:0:0:0:
44,366,326265,2,0,P|97:341|155:348,1,97.9999970092774,10|0,0:3|0:0,0:0:0:0:
208,299,326598,2,0,P|261:324|319:317,1,97.9999970092774,2|0,0:3|0:0,0:0:0:0:
385,282,326931,2,0,L|389:345,1,48.9999985046387,10|0,0:3|0:0,0:0:0:0:
304,240,327154,6,0,P|296:187|304:134,1,97.9999970092774,4|0,0:0|0:0,0:0:0:0:
440,35,327598,2,0,P|445:83|437:131,1,97.9999970092774,0|4,0:0|0:0,0:0:0:0:
301,143,328042,2,0,L|202:152,1,97.9999970092774,10|2,0:3|0:0,0:0:0:0:
135,94,328376,1,2,0:0:0:0:
135,94,328487,2,0,L|36:84,1,97.9999970092774,2|2,0:0|0:0,0:0:0:0:
126,178,328931,5,4,0:0:0:0:
219,72,329154,1,0,0:0:0:0:
230,231,329376,2,0,L|237:328,1,97.9999970092774
432,342,329820,2,0,L|323:334,1,97.9999970092774,10|0,0:3|0:0,0:0:0:0:
237,328,330154,2,0,L|346:320,1,97.9999970092774,2|0,0:3|0:0,0:0:0:0:
390,262,330487,2,0,P|392:229|390:195,1,48.9999985046387,10|0,0:3|0:0,0:0:0:0:
341,145,330709,5,4,0:0:0:0:
468,175,330932,1,0,0:0:0:0:
468,175,331042,1,2,0:3:0:0:
468,175,331154,2,0,L|476:66,1,97.9999970092774,0|0,0:0|0:0,0:0:0:0:
341,145,331598,2,0,L|232:137,1,97.9999970092774,10|0,0:3|0:0,0:0:0:0:
185,63,331932,2,0,B|163:95|163:95|159:171|159:171|192:224,1,146.999995513916,0|2,0:0|0:0,0:0:0:0:
243,137,332487,5,0,0:0:0:0:
16,212,335598,5,2,0:0:0:0:
12,181,335709,1,2,0:0:0:0:
95,222,335820,1,2,0:0:0:0:
90,253,335931,1,2,0:0:0:0:
29,318,336042,6,0,P|107:298|192:320,1,168,4|0,0:0|0:0,0:0:0:0:
263,373,336487,2,0,L|334:366,1,56,0|0,0:0|0:0,0:0:0:0:
469,346,336709,1,4,0:0:0:0:
329,289,336931,6,0,L|335:233,1,56,10|0,0:3|0:0,0:0:0:0:
201,174,337265,2,0,L|216:227,1,56,2|0,0:3|0:0,0:0:0:0:
329,289,337598,1,10,0:3:0:0:
376,156,337820,6,0,P|444:149|496:193,1,112,4|0,0:0|0:0,0:0:0:0:
512,40,338154,2,0,P|462:64|408:54,1,112,2|0,0:3|0:0,0:0:0:0:
295,96,338487,2,0,L|231:90,1,56,4|0,0:0|0:0,0:0:0:0:
131,79,338709,6,0,B|99:62|99:62|334:89,1,262.5,10|0,0:3|0:0,0:0:0:0:
376,156,339154,1,2,0:0:0:0:
372,187,339265,1,2,0:0:0:0:
320,251,339376,1,2,0:0:0:0:
325,282,339487,1,2,0:0:0:0:
370,352,339598,6,0,B|296:359|296:359|231:324|231:324|146:334,1,224,4|0,0:0|0:0,0:0:0:0:
38,375,340265,1,4,0:0:0:0:
169,196,340487,6,0,L|163:252,1,56,10|0,0:3|0:0,0:0:0:0:
38,375,340820,2,0,L|25:321,1,56,2|0,0:3|0:0,0:0:0:0:
169,196,341154,1,10,0:3:0:0:
155,332,341376,5,4,0:0:0:0:
97,159,341598,2,0,P|96:122|102:95,1,56,10|2,0:1|0:3,0:0:0:0:
214,50,341820,1,0,0:0:0:0:
227,67,341931,2,0,L|163:62,1,56,10|4,0:1|0:0,0:0:0:0:
46,44,342153,2,0,L|-2:39,2,28,2|0|10,0:3|0:0|0:3,0:0:0:0:
184,197,342487,6,0,L|179:141,1,56,2|2,0:0|0:0,0:0:0:0:
309,76,342709,1,8,0:0:0:0:
307,94,342820,1,2,0:0:0:0:
306,113,342931,1,10,0:0:0:0:
305,132,343042,1,2,0:0:0:0:
269,196,343154,6,0,P|346:165|429:172,1,168,4|0,0:0|0:0,0:0:0:0:
492,229,343599,2,0,L|487:284,1,56,0|0,0:0|0:0,0:0:0:0:
479,382,343821,1,0,0:0:0:0:
408,271,344042,6,0,L|352:265,1,56,10|0,0:3|0:0,0:0:0:0:
240,363,344376,2,0,L|296:357,1,56,2|0,0:3|0:0,0:0:0:0:
408,271,344709,1,10,0:3:0:0:
231,279,344932,6,0,P|159:260|140:218,1,112,4|0,0:0|0:0,0:0:0:0:
23,132,345265,2,0,P|59:174|58:230,1,112,2|0,0:3|0:0,0:0:0:0:
64,355,345599,2,0,P|65:325|90:296,1,56,0|0,0:0|0:0,0:0:0:0:
155,227,345821,6,0,B|142:31|142:31|115:92,1,262.5,10|0,0:3|0:0,0:0:0:0:
222,7,346265,1,2,0:0:0:0:
218,37,346376,1,2,0:0:0:0:
292,115,346487,1,2,0:0:0:0:
287,84,346598,1,2,0:0:0:0:
298,7,346709,6,0,B|372:0|372:0|437:35|437:35|522:25,1,224,4|0,0:0|0:0,0:0:0:0:
485,191,347376,1,4,0:0:0:0:
342,86,347598,6,0,L|336:142,1,56,10|0,0:3|0:0,0:0:0:0:
485,191,347931,2,0,L|472:137,1,56,2|0,0:3|0:0,0:0:0:0:
327,220,348265,1,10,0:3:0:0:
342,86,348487,5,4,0:0:0:0:
407,213,348709,2,0,P|405:241|395:267,1,56,10|2,0:1|0:3,0:0:0:0:
281,281,348931,1,0,0:0:0:0:
265,292,349042,2,0,L|329:297,1,56,10|4,0:1|0:0,0:0:0:0:
455,315,349264,2,0,L|503:320,2,28,2|0|10,0:3|0:0|0:3,0:0:0:0:
273,368,349598,6,0,L|215:370,1,56,2|2,0:0|0:0,0:0:0:0:
157,266,349820,1,8,0:0:0:0:
138,267,349931,1,2,0:0:0:0:
119,268,350042,1,10,0:0:0:0:
101,270,350153,1,2,0:0:0:0:
44,337,350265,6,0,P|54:254|0:189,1,168,4|0,0:0|0:0,0:0:0:0:
84,154,350709,2,0,B|93:125|93:125|89:99,1,56,0|0,0:0|0:0,0:0:0:0:
35,18,350931,1,4,0:0:0:0:
226,146,351154,6,0,L|170:152,1,56,10|0,0:3|0:0,0:0:0:0:
35,18,351486,2,0,L|91:24,1,56,2|0,0:3|0:0,0:0:0:0:
226,146,351819,1,10,0:3:0:0:
218,14,352042,6,0,P|203:67|229:116,1,112,4|0,0:0|0:0,0:0:0:0:
311,241,352376,2,0,P|297:189|323:141,1,112,2|0,0:3|0:0,0:0:0:0:
402,69,352709,2,0,P|402:98|414:121,1,56,4|0,0:0|0:0,0:0:0:0:
512,239,352931,6,0,B|316:226|316:226|377:199,1,262.5,10|0,0:3|0:0,0:0:0:0:
264,325,353375,1,2,0:0:0:0:
233,321,353486,1,2,0:0:0:0:
176,252,353597,1,2,0:0:0:0:
145,257,353708,1,2,0:0:0:0:
67,317,353820,6,0,B|60:244|60:244|95:178|95:178|85:94,1,224,4|0,0:0|0:0,0:0:0:0:
0,9,354486,1,4,0:0:0:0:
223,81,354709,6,0,L|163:84,1,56,10|0,0:3|0:0,0:0:0:0:
0,9,355042,2,0,L|54:22,1,56,2|0,0:3|0:0,0:0:0:0:
223,81,355375,1,10,0:3:0:0:
12,163,355597,5,4,0:0:0:0:
216,222,355819,2,0,P|219:195|218:167,1,56,10|2,0:1|0:3,0:0:0:0:
109,266,356041,1,0,0:0:0:0:
96,283,356154,2,0,L|172:278,1,56,10|0,0:1|0:0,0:0:0:0:
296,271,356376,1,2,0:3:0:0:
296,271,356487,6,0,P|276:304|268:329,1,56,10|0,0:3|0:0,0:0:0:0:
386,374,356709,2,0,P|375:349|360:325,1,56,2|0,0:0|0:0,0:0:0:0:
372,247,356930,1,8,0:0:0:0:
390,249,357042,1,0,0:0:0:0:
409,250,357154,1,0,0:0:0:0:
428,251,357265,1,0,0:0:0:0:
491,295,357376,6,0,B|454:252|454:252|444:158|476:87,1,210.000008010865,4|0,0:0|0:0,0:0:0:0:
361,30,358042,1,4,0:0:0:0:
480,78,358265,6,0,P|432:86|405:83,1,56,10|0,0:3|0:0,0:0:0:0:
306,143,358598,2,0,P|353:151|380:148,1,56,2|0,0:3|0:0,0:0:0:0:
480,78,358931,1,10,0:3:0:0:
262,37,359154,6,0,B|245:16|245:16|237:121,1,105.000004005432,4|0,0:0|0:0,0:0:0:0:
146,231,359487,2,0,P|139:167|168:117,1,105.000004005432,2|0,0:3|0:0,0:0:0:0:
273,273,359820,2,0,L|208:279,1,52.5000020027161,4|0,0:0|0:0,0:0:0:0:
94,295,360042,6,0,B|64:313|64:313|292:287,1,251.999992309571,10|0,0:3|0:0,0:0:0:0:
368,278,360487,1,2,0:0:0:0:
370,257,360598,1,2,0:0:0:0:
401,192,360709,1,2,0:0:0:0:
403,170,360820,1,2,0:0:0:0:
424,103,360931,6,0,B|395:137|395:137|319:166|206:129,1,210.000008010865,4|2,0:0|0:0,0:0:0:0:
175,72,361598,1,6,0:0:0:0:
290,9,361820,6,0,P|292:30|284:73,1,56,10|0,0:3|0:0,0:0:0:0:
230,192,362154,2,0,P|234:165|232:137,1,56,2|0,0:3|0:0,0:0:0:0:
175,72,362487,1,10,0:3:0:0:
230,192,362709,5,4,0:0:0:0:
163,324,362931,2,0,L|221:318,1,52.5000020027161,10|2,0:1|0:3,0:0:0:0:
360,301,363154,1,0,0:0:0:0:
370,281,363265,2,0,L|427:275,2,52.5000020027161,10|4|4,0:1|0:0|0:0,0:0:0:0:
292,360,363598,6,0,B|276:312|276:312|282:254,1,105.000004005432,10|2,0:3|0:0,0:0:0:0:
376,142,364042,1,8,0:0:0:0:
388,145,364153,1,2,0:0:0:0:
401,147,364264,1,10,0:0:0:0:
414,149,364375,1,2,0:0:0:0:
480,183,364487,6,0,B|460:160|460:160|451:113|460:88,1,97.9999970092774,4|2,0:0|0:0,0:0:0:0:
511,34,364820,1,2,0:0:0:0:
512,18,364931,1,2,0:0:0:0:
357,61,365154,1,6,0:0:0:0:
357,61,365265,1,2,0:0:0:0:
357,61,365376,6,0,L|309:66,1,48.9999985046387,10|0,0:3|0:0,0:0:0:0:
244,119,365709,1,2,0:3:0:0:
243,135,365820,1,0,0:0:0:0:
214,18,366042,2,0,L|189:22,1,24.4999992523194,10|0,0:3|0:0,0:0:0:0:
92,39,366265,6,0,B|108:74|108:74|95:160,1,97.9999970092774,4|0,0:0|0:0,0:0:0:0:
15,268,366598,2,0,P|11:201|40:157,1,97.9999970092774,2|0,0:3|0:0,0:0:0:0:
173,178,366931,2,0,L|177:227,1,48.9999985046387,4|0,0:0|0:0,0:0:0:0:
79,319,367154,5,10,0:3:0:0:
256,265,367376,1,2,0:0:0:0:
256,265,367487,1,2,0:0:0:0:
256,265,367598,2,0,B|339:249|400:258|400:258|448:281,1,188.999994232178,2|2,0:0|0:0,0:0:0:0:
461,349,368042,6,0,P|507:319|512:257,1,97.9999970092774,4|2,0:0|0:0,0:0:0:0:
475,160,368376,1,2,0:0:0:0:
475,160,368487,2,0,L|484:230,2,48.9999985046387,2|0|0,0:0|0:0|0:0,0:0:0:0:
497,30,368931,6,0,L|491:80,1,48.9999985046387,10|0,0:3|0:0,0:0:0:0:
392,141,369265,1,2,0:3:0:0:
392,141,369376,2,0,L|386:101,1,24.4999992523194,0|0,0:0|0:0,0:0:0:0:
311,212,369598,2,0,L|316:172,1,24.4999992523194,10|0,0:3|0:0,0:0:0:0:
345,37,369820,6,0,B|310:53|310:53|224:40,1,97.9999970092774,4|2,0:0|0:0,0:0:0:0:
170,98,370154,1,2,0:0:0:0:
149,99,370265,1,2,0:0:0:0:
128,100,370376,1,2,0:0:0:0:
108,101,370487,1,6,0:0:0:0:
24,20,370709,5,10,0:3:0:0:
12,180,370931,1,2,0:0:0:0:
12,180,371042,1,2,0:0:0:0:
12,180,371153,2,0,L|95:164,3,48.9999985046387,2|2|2|2,0:0|0:0|0:0|0:0,0:0:0:0:
135,217,371597,6,0,P|168:184|216:181,1,97.9999970092774,4|0,0:0|0:0,0:0:0:0:
264,293,372042,2,0,L|268:252,1,41.9999987182618,2|2,0:0|0:0,0:0:0:0:
331,152,372265,1,6,0:0:0:0:
331,152,372376,1,2,0:0:0:0:
331,152,372487,6,0,L|335:194,1,41.9999987182618,10|0,0:3|0:0,0:0:0:0:
356,305,372931,1,2,0:0:0:0:
356,305,373042,1,2,0:0:0:0:
356,305,373154,2,0,L|351:275,1,20.9999993591309,6|0,0:0|0:0,0:0:0:0:
331,152,373376,5,4,0:0:0:0:
441,260,373598,1,2,0:0:0:0:
441,260,373709,1,2,0:0:0:0:
441,260,373820,2,0,L|420:217,3,41.9999987182618,2|2|6|2,0:0|0:0|0:0|0:0,0:0:0:0:
431,120,374265,6,0,P|385:151|319:147,1,112,8|2,0:3|0:0,0:0:0:0:
289,83,374598,1,2,0:0:0:0:
268,82,374709,1,2,0:0:0:0:
247,81,374820,1,2,0:0:0:0:
227,80,374931,2,0,L|147:87,1,56,2|0,0:0|0:0,0:0:0:0:
32,36,375154,6,0,P|76:22|122:30,1,83.9999974365235,4|2,0:0|0:0,0:0:0:0:
121,147,375487,1,2,0:0:0:0:
122,168,375598,1,2,0:0:0:0:
123,189,375709,1,2,0:0:0:0:
124,209,375820,1,6,0:0:0:0:
45,302,376042,5,10,0:3:0:0:
125,234,376265,2,0,L|172:230,1,38.5000011749268,2|2,0:0|0:0,0:0:0:0:
251,265,376487,1,2,0:0:0:0:
262,281,376598,1,2,0:0:0:0:
269,299,376709,1,2,0:0:0:0:
270,318,376820,1,2,0:0:0:0:
267,337,376931,6,0,L|314:333,1,38.5000011749268,2|0,0:0|0:0,0:0:0:0:
458,280,377154,1,2,0:0:0:0:
434,278,377265,1,2,0:0:0:0:
410,276,377376,1,2,0:0:0:0:
386,275,377487,1,2,0:0:0:0:
362,273,377598,1,2,0:0:0:0:
306,134,377820,5,2,0:0:0:0:
374,187,378042,1,2,0:0:0:0:
374,187,378154,1,2,0:0:0:0:
374,187,378265,2,0,L|412:184,2,38.5000011749268,2|2|2,0:0|0:0|0:0,0:0:0:0:
494,91,378709,6,0,P|464:96|419:83,1,77.0000023498536,0|2,0:0|0:0,0:0:0:0:
