osu file format v14

[General]
AudioFilename: audio.mp3
AudioLeadIn: 0
PreviewTime: 50
Countdown: 0
SampleSet: Soft
StackLeniency: 0.7
Mode: 0
LetterboxInBreaks: 0
WidescreenStoryboard: 0

[Editor]
Bookmarks: 33800,63800,93800,123800,131300,138800,146300,153800,183800,191300,198800,206300,213800,243800,273800,288800
DistanceSpacing: 2
BeatDivisor: 16
GridSize: 32
TimelineZoom: 3.299999

[Metadata]
Title:falling in reverse
TitleUnicode:falling in reverse
Artist:EDEN
ArtistUnicode:EDEN
Creator:Vulkin
Version:vertigo
Source:
Tags:the vertigo project jonathon ng english pop 2018 astralwerks indie
BeatmapID:2410829
BeatmapSetID:1155217

[Difficulty]
HPDrainRate:6.4
CircleSize:4.6
OverallDifficulty:6.8
ApproachRate:8.4
SliderMultiplier:2
SliderTickRate:1

[Events]
//Background and Video events
0,0,"blue.jpg",0,0
//Break Periods
//Storyboard Layer 0 (Background)
//Storyboard Layer 1 (Fail)
//Storyboard Layer 2 (Pass)
//Storyboard Layer 3 (Foreground)
//Storyboard Layer 4 (Overlay)
//Storyboard Sound Samples

[TimingPoints]
3795,937.5,4,2,2,10,1,0
26236,-200,4,2,2,50,0,0
33736,-100,4,2,2,60,0,0
33853,-100,4,2,2,5,0,0
35611,-100,4,2,3,60,0,0
35728,-100,4,2,2,5,0,0
37486,-100,4,2,4,60,0,0
37603,-100,4,2,2,5,0,0
41236,-100,4,2,5,60,0,0
41353,-100,4,2,2,5,0,0
43111,-100,4,2,2,60,0,0
43228,-100,4,2,2,5,0,0
44986,-100,4,2,6,60,0,0
45103,-100,4,2,2,5,0,0
46861,-100,4,2,7,60,0,0
46978,-100,4,2,2,5,0,0
48736,-100,4,2,2,60,0,0
48853,-100,4,2,2,5,0,0
50611,-100,4,2,3,60,0,0
50728,-100,4,2,2,5,0,0
52486,-100,4,2,4,60,0,0
52603,-100,4,2,2,5,0,0
56236,-100,4,2,5,60,0,0
56353,-100,4,2,2,5,0,0
58111,-100,4,2,2,60,0,0
58228,-100,4,2,2,5,0,0
59986,-100,4,2,6,60,0,0
60103,-100,4,2,2,5,0,0
61861,-100,4,2,7,60,0,0
61978,-100,4,2,2,5,0,0
63736,-100,4,2,8,60,0,0
63853,-100,4,2,2,5,0,0
67486,-100,4,2,5,60,0,0
67603,-100,4,2,2,5,0,0
71236,-100,4,2,6,60,0,0
71353,-100,4,2,2,5,0,0
73111,-100,4,2,2,60,0,0
73228,-100,4,2,2,5,0,0
74986,-100,4,2,6,60,0,0
75103,-100,4,2,2,5,0,0
76861,-100,4,2,7,60,0,0
76978,-100,4,2,2,5,0,0
78736,-1000,4,2,8,40,0,0
78853,-1000,4,2,2,5,0,0
82486,-1000,4,2,5,40,0,0
82603,-1000,4,2,2,5,0,0
86236,-1000,4,2,5,40,0,0
86353,-1000,4,2,2,5,0,0
88111,-1000,4,2,2,40,0,0
88228,-1000,4,2,2,5,0,0
89986,-1000,4,2,6,40,0,0
90103,-1000,4,2,2,5,0,0
93677,-250,4,2,2,30,0,0
97486,-222.222222222222,4,2,2,30,0,0
101236,-200,4,2,5,50,0,0
101353,-200,4,2,2,5,0,0
103111,-160,4,2,2,55,0,0
103228,-160,4,2,2,5,0,0
104986,-133.333333333333,4,2,6,60,0,0
105103,-133.333333333333,4,2,2,5,0,0
106861,-250,4,2,4,50,0,0
107330,-250,4,2,2,40,0,0
108267,-250,4,2,2,30,0,0
108736,-80,4,2,6,90,0,0
108853,-100,4,2,2,5,0,0
112486,-100,4,2,3,80,0,0
112603,-100,4,2,2,5,0,0
116236,-100,4,2,4,80,0,0
116353,-100,4,2,2,5,0,0
123736,-142.857142857143,4,2,1,60,0,0
124263,-142.857142857143,4,2,22,60,0,0
124732,-142.857142857143,4,2,1,60,0,0
125045,-142.857142857143,4,2,22,60,0,0
125670,-125,4,2,1,60,0,0
126138,-125,4,2,22,60,0,0
126607,-111.111111111111,4,2,1,60,0,0
127076,-100,4,2,22,60,0,0
127388,-100,4,2,1,60,0,0
127545,-142.857142857143,4,2,1,60,0,0
128013,-142.857142857143,4,2,22,60,0,0
128482,-142.857142857143,4,2,1,60,0,0
128795,-142.857142857143,4,2,22,60,0,0
129420,-125,4,2,1,60,0,0
129888,-125,4,2,22,60,0,0
130357,-83.3333333333333,4,2,1,60,0,0
130670,-71.4285714285714,4,2,22,60,0,0
130826,-71.4285714285714,4,2,1,60,0,0
130982,-62.5,4,2,1,60,0,0
131138,-62.5,4,2,1,5,0,0
131295,-55.5555555555556,4,2,9,60,0,0
131763,-55.5555555555556,4,2,22,60,0,0
132232,-55.5555555555556,4,2,9,60,0,0
132545,-55.5555555555556,4,2,22,60,0,0
133091,-45.4545454545455,4,2,2,60,0,0
133326,-55.5555555555556,4,2,9,60,0,0
133638,-55.5555555555556,4,2,22,60,0,0
134107,-55.5555555555556,4,2,9,60,0,0
134420,-55.5555555555556,4,2,22,60,0,0
134576,-55.5555555555556,4,2,9,60,0,0
135513,-55.5555555555556,4,2,22,60,0,0
135982,-55.5555555555556,4,2,9,60,0,0
136295,-55.5555555555556,4,2,22,60,0,0
136841,-45.4545454545455,4,2,2,60,0,0
136998,-55.5555555555556,4,2,2,60,0,0
138716,-45.4545454545455,4,2,10,60,0,0
138951,-50,4,2,9,60,0,0
139263,-50,4,2,22,60,0,0
139732,-50,4,2,9,60,0,0
140045,-50,4,2,22,60,0,0
140591,-45.4545454545455,4,2,2,60,0,0
140748,-50,4,2,9,60,0,0
141138,-50,4,2,22,60,0,0
141607,-50,4,2,9,60,0,0
141998,-33.3333333333333,4,2,22,60,0,0
142388,-33.3333333333333,4,2,1,60,0,0
142466,-50,4,2,11,60,0,0
142701,-50,4,2,9,60,0,0
143013,-50,4,2,22,60,0,0
143482,-50,4,2,9,60,0,0
143795,-50,4,2,22,60,0,0
144341,-45.4545454545455,4,2,2,60,0,0
144888,-45.4545454545455,4,2,22,60,0,0
145201,-45.4545454545455,4,2,2,60,0,0
145279,-43.4782608695652,4,2,9,60,0,0
145591,-41.6666666666667,4,2,22,60,0,0
145826,-41.6666666666667,4,2,9,60,0,0
145904,-40,4,2,9,60,0,0
146216,-50,4,2,12,60,0,0
146451,-50,4,2,9,60,0,0
146763,-50,4,2,22,60,0,0
147232,-50,4,2,9,60,0,0
147545,-50,4,2,22,60,0,0
148091,-45.4545454545455,4,2,2,60,0,0
148248,-50,4,2,9,60,0,0
148638,-50,4,2,22,60,0,0
149029,-45.4545454545455,4,2,9,60,0,0
149341,-43.4782608695652,4,2,22,60,0,0
149576,-43.4782608695652,4,2,9,60,0,0
149654,-41.6666666666667,4,2,9,60,0,0
149966,-50,4,2,13,60,0,0
150123,-50,4,2,9,60,0,0
150513,-50,4,2,22,60,0,0
150982,-50,4,2,9,60,0,0
151295,-50,4,2,22,60,0,0
151841,-45.4545454545455,4,2,2,60,0,0
151998,-50,4,2,9,60,0,0
152388,-50,4,2,22,60,0,0
152779,-50,4,2,2,60,0,0
152936,-50,4,2,22,60,0,0
153091,-50,4,2,9,60,0,0
153248,-50,4,2,22,60,0,0
153404,-50,4,2,9,60,0,0
153521,-50,4,2,9,20,0,0
153638,-50,4,2,22,20,0,0
153756,-100,4,2,14,60,0,0
153853,-100,4,2,2,5,0,0
155611,-100,4,2,20,60,0,0
155728,-100,4,2,2,5,0,0
157486,-100,4,2,21,60,0,0
157603,-100,4,2,2,5,0,0
161236,-100,4,2,5,60,0,0
161353,-100,4,2,2,5,0,0
163111,-100,4,2,21,60,0,0
163228,-100,4,2,2,5,0,0
164986,-100,4,2,6,60,0,0
165103,-100,4,2,2,5,0,0
168736,-200,4,2,2,60,0,0
168853,-200,4,2,3,5,0,0
172486,-200,4,2,6,60,0,0
172603,-200,4,2,2,5,0,0
176236,-200,4,2,5,60,0,0
176353,-200,4,2,2,5,0,0
179986,-200,4,2,8,60,0,0
180103,-200,4,2,2,5,0,0
183736,-400,4,2,5,60,0,0
183795,-400,4,2,5,60,0,1
183853,-400,4,2,2,5,0,1
191177,-400,4,2,30,60,0,0
191295,-400,4,2,30,60,0,1
191353,-400,4,2,2,5,0,1
198677,-400,4,2,5,5,0,0
198795,-400,4,2,5,60,0,1
198853,-400,4,2,2,5,0,1
206177,-400,4,2,30,60,0,0
206295,-400,4,2,30,60,0,1
206353,-400,4,2,2,5,0,1
213736,-133.333333333333,4,2,2,80,0,1
213795,-133.333333333333,4,2,2,80,0,0
213853,-133.333333333333,4,2,2,5,0,0
215611,-133.333333333333,4,2,3,80,0,0
215728,-133.333333333333,4,2,2,5,0,0
217486,-133.333333333333,4,2,4,80,0,0
217603,-133.333333333333,4,2,2,5,0,0
221236,-121.212121212121,4,2,5,80,0,0
221353,-121.212121212121,4,2,2,5,0,0
223111,-121.212121212121,4,2,2,80,0,0
223228,-121.212121212121,4,2,2,5,0,0
224986,-121.212121212121,4,2,6,80,0,0
225103,-121.212121212121,4,2,2,5,0,0
226861,-121.212121212121,4,2,7,80,0,0
226978,-121.212121212121,4,2,2,5,0,0
228736,-100,4,2,2,80,0,0
228853,-100,4,2,2,5,0,0
230611,-100,4,2,3,80,0,0
230728,-100,4,2,2,5,0,0
232486,-100,4,2,4,80,0,0
232603,-100,4,2,2,5,0,0
236177,-100,4,2,6,40,0,0
236236,-100,4,2,8,40,0,0
236295,-100,4,2,5,80,0,0
236353,-100,4,2,2,5,0,0
238111,-100,4,2,2,80,0,0
238228,-100,4,2,2,5,0,0
239986,-100,4,2,6,80,0,0
240103,-100,4,2,2,5,0,0
241861,-100,4,2,7,80,0,0
241978,-100,4,2,2,5,0,0
243736,-100,4,2,2,70,0,0
243853,-100,4,2,2,5,0,0
245611,-100,4,2,3,70,0,0
245728,-100,4,2,2,5,0,0
247486,-100,4,2,4,70,0,0
247603,-100,4,2,2,5,0,0
251236,-100,4,2,5,65,0,0
251353,-100,4,2,2,5,0,0
253111,-100,4,2,2,65,0,0
253228,-100,4,2,2,5,0,0
254986,-100,4,2,6,65,0,0
255103,-100,4,2,2,5,0,0
256861,-100,4,2,7,65,0,0
256978,-100,4,2,2,5,0,0
258736,-133.333333333333,4,2,2,60,0,0
258853,-133.333333333333,4,2,2,5,0,0
260611,-133.333333333333,4,2,3,60,0,0
260728,-133.333333333333,4,2,2,5,0,0
262486,-133.333333333333,4,2,4,60,0,0
262603,-133.333333333333,4,2,2,5,0,0
266236,-133.333333333333,4,2,5,55,0,0
266353,-133.333333333333,4,2,2,5,0,0
268111,-133.333333333333,4,2,2,55,0,0
268228,-133.333333333333,4,2,2,5,0,0
269986,-133.333333333333,4,2,6,55,0,0
270103,-133.333333333333,4,2,2,5,0,0
271861,-133.333333333333,4,2,7,55,0,0
271978,-133.333333333333,4,2,2,5,0,0
273736,-200,4,2,2,50,0,0
273853,-200,4,2,2,5,0,0
275611,-200,4,2,3,50,0,0
275728,-200,4,2,2,5,0,0
277486,-200,4,2,4,50,0,0
277603,-200,4,2,2,5,0,0
281236,-200,4,2,5,45,0,0
281353,-200,4,2,2,5,0,0
283111,-200,4,2,2,45,0,0
283228,-200,4,2,2,5,0,0
284986,-200,4,2,6,45,0,0
285103,-200,4,2,2,5,0,0
286861,-1000,4,2,7,45,0,0
286978,-1000,4,2,2,5,0,0

[Colours]
Combo1 : 222,213,218
Combo2 : 99,134,162
Combo3 : 149,172,191
Combo4 : 202,203,207

[HitObjects]
256,192,15045,12,0,25826,0:0:0:0:
47,202,26295,38,0,P|25:246|39:292,3,100
156,96,30045,6,0,P|178:51|164:5,3,100
93,138,33795,6,0,B|112:177|176:189|217:153|273:141|273:141|315:131|348:162|351:197|337:235|303:242|270:221,1,375,2|0,0:0|0:0,0:0:0:0:
194,260,35670,2,0,B|223:310|208:356|208:356|242:314|293:308|293:308|386:351|387:296|470:312,1,375,2|0,0:0|0:0,0:0:0:0:
430,228,37545,2,0,B|368:262|365:308|376:346|398:375|398:375|357:351|328:302|350:172|371:139|434:96|434:96|428:147|394:175|343:182|268:190|220:179|200:160,1,775,2|0,0:0|0:0,0:0:0:0:
265,102,41295,6,0,P|203:248|123:119,1,375,2|0,0:0|0:0,0:0:0:0:
200,161,43170,2,0,B|176:201|130:230|81:219|50:185|41:160|41:160|72:268|21:226|59:338,1,375,2|0,0:0|0:0,0:0:0:0:
138,298,45045,2,0,B|280:268|257:371|428:327|428:327|402:320|379:302|373:277,1,375,2|0,0:0|0:0,0:0:0:0:
452,236,46920,2,0,B|420:194|382:176|336:188|305:215|293:251|293:251|324:226|336:189|324:144|303:119|272:105,1,375,2|0,0:0|0:0,0:0:0:0:
232,183,48795,6,0,B|207:195|176:206|176:206|141:173|119:119|129:62|162:22|162:22|170:47|157:81|128:92|92:81,1,375,2|0,0:0|0:0,0:0:0:0:
50,161,50670,2,0,B|9:203|-21:252|-24:307|-6:364|50:383|94:380|122:350|130:323|124:287|94:272,1,375,2|0,0:0|0:0,0:0:0:0:
129,191,52545,2,0,B|167:196|192:222|211:262|224:310|204:350|204:350|219:300|240:278|290:263|333:257|357:292|356:334|324:361|279:344|263:302|271:245|305:215|343:208|372:224|399:244|417:267|425:298|425:298|407:207|471:209|458:127,1,775,2|0,0:0|0:0,0:0:0:0:
372,147,56295,6,0,B|330:146|290:155|265:185|265:185|239:116|299:124|272:54|272:54|254:78|225:89|179:93|158:69,1,375,2|0,0:0|0:0,0:0:0:0:
88,26,58170,2,0,B|94:101|84:156|61:234|13:231|13:231|15:187|66:166|90:179|128:198,1,375,2|0,0:0|0:0,0:0:0:0:
197,236,60045,2,0,B|223:259|274:282|313:276|343:248|351:210|335:171|304:154|244:169|239:206|236:277|252:329,1,375,2|0,0:0|0:0,0:0:0:0:
339,335,61920,2,0,B|361:306|388:298|428:308|428:308|400:273|390:231|395:174|417:141|470:135|500:159|506:192|485:225,1,375,2|0,0:0|0:0,0:0:0:0:
427,305,63795,6,0,B|392:249|337:242|290:277|290:277|210:335|122:347|65:329|65:329|18:254|2:162|43:84|117:66|158:123|162:153|149:194,1,775,2|0,0:0|0:0,0:0:0:0:
131,218,67545,2,0,B|175:159|204:148|273:158|292:232|243:305|154:334|66:329|66:329|122:347|209:339|294:295|390:181,1,775,2|0,0:0|0:0,0:0:0:0:
365,96,71295,6,0,B|427:84|471:119|489:165|468:219|468:219|456:248|432:274|410:290|406:324|412:346|430:381,1,375,2|0,0:0|0:0,0:0:0:0:
499,327,73170,2,0,B|466:282|410:266|356:305|342:352|342:352|248:305|247:383|168:319,1,375,2|0,0:0|0:0,0:0:0:0:
116,258,75045,2,0,B|144:280|131:325|107:345|68:345|33:323|15:296|23:253|21:227|45:196|85:182|126:181|146:175|196:196,1,375,2|0,0:0|0:0,0:0:0:0:
265,228,76920,2,0,B|304:244|324:238|365:237|405:223|429:192|427:166|435:123|417:96|382:74|343:74|319:94|306:139|334:161,1,375,2|0,0:0|0:0,0:0:0:0:
390,209,78795,6,0,P|402:245|395:282,1,77.5,2|0,0:0|0:0,0:0:0:0:
384,306,82545,6,0,P|371:342|379:380,1,77.5,2|0,0:0|0:0,0:0:0:0:
369,367,86295,2,0,P|358:350|340:341,2,40,2|2|2,0:0|0:0|0:0,0:0:0:0:
256,192,90279,12,0,93560,0:0:0:0:
135,370,93795,6,0,L|174:373,7,40
275,331,97545,2,0,L|230:334,7,44.999998626709
166,306,101295,6,0,P|204:225|162:145,1,187.5,2|0,0:0|0:0,0:0:0:0:
120,109,103170,2,0,B|204:160|299:120|299:120|270:108|249:111,1,234.375,2|0,0:0|0:0,0:0:0:0:
236,43,105045,2,0,B|419:41|323:137|478:156,1,281.250010728837,2|0,0:0|0:0,0:0:0:0:
444,68,106920,5,2,0:0:0:0:
452,76,107388,2,0,P|410:108|398:131,1,80
415,256,108795,6,0,B|355:291|240:327|166:300|128:206|149:123|167:115|235:76|275:109|278:146|280:179|280:179|285:143|268:117|245:93|204:82|179:90|146:111|125:138|112:164|123:228|81:257|36:259|25:257|25:257|65:240|83:203|66:173,1,968.75,2|0,0:0|0:0,0:0:0:0:
71,96,112545,2,0,B|114:97|165:128|168:174|159:215|144:240|144:240|159:215|203:171|285:117|363:105|417:165|433:208|443:266|428:329|379:355|343:356|343:356|341:320|324:284,1,775,2|0,0:0|0:0,0:0:0:0:
310,260,116295,2,0,B|205:269|165:380|24:353|24:353|115:317|88:209|47:188|5:196|-27:221|-39:267|-27:299|0:315|34:324|79:317|123:277|144:240|144:240|171:198|201:87|114:18|114:18|180:108|269:106|354:93|374:41|374:41|337:52|312:78|301:133|341:155|388:151|408:124|408:124|419:148|443:158|475:153,1,1575,2|0,0:0|0:0,0:0:0:0:
490,147,123795,6,0,L|494:192,1,46.6666652425131,2|0,0:0|0:0,0:0:0:0:
470,280,124263,2,0,L|494:277,2,23.3333326212565
394,265,124732,6,0,P|376:249|354:239,1,46.6666652425131,8|0,0:0|0:0,0:0:0:0:
358,234,125123,1,0,0:0:0:0:
362,228,125201,1,0,0:0:0:0:
280,275,125357,1,0,0:0:0:0:
275,290,125513,1,0,0:0:0:0:
270,305,125670,6,0,P|237:309|201:303,1,66.6666666666667,2|0,0:0|0:0,0:0:0:0:
179,281,126138,1,0,0:0:0:0:
189,344,126295,1,0,0:0:0:0:
139,384,126451,1,0,0:0:0:0:
79,360,126607,6,0,P|72:326|55:298,1,59.9999981689454,8|0,0:0|0:0,0:0:0:0:
13,226,127076,2,2,P|19:193|36:164,1,66.6666666666667,0|0,0:0|0:0,0:0:0:0:
126,83,127545,6,0,L|134:133,1,46.6666652425131,2|0,0:0|0:0,0:0:0:0:
196,194,128013,2,0,L|172:193,2,23.3333326212565
264,159,128482,6,0,P|285:147|308:143,1,46.6666652425131,8|0,0:0|0:0,0:0:0:0:
312,149,128873,1,0,0:0:0:0:
316,155,128952,1,0,0:0:0:0:
370,77,129107,1,0,0:0:0:0:
365,62,129263,1,0,0:0:0:0:
360,47,129420,6,0,P|308:35|292:38,1,66.6666666666667,2|0,0:0|0:0,0:0:0:0:
267,55,129888,1,0,0:0:0:0:
196,113,130045,1,0,0:0:0:0:
291,134,130201,1,0,0:0:0:0:
171,33,130357,6,0,P|153:40|138:54,1,39.9999987792969,8|0,0:0|0:0,0:0:0:0:
57,101,130670,2,2,P|52:123|57:145,1,46.6666652425131,0|0,0:0|0:0,0:0:0:0:
35,234,130982,2,0,P|54:251|79:258,1,53.3333333333333,8|0,0:0|0:0,0:0:0:0:
175,219,131295,6,0,L|184:344,1,119.999996337891,2|0,3:2|0:0,0:0:0:0:
254,283,131763,2,0,P|277:264|306:252,2,59.9999981689454
183,338,132232,6,0,B|169:323|153:313|132:307|132:307|113:317|100:331|90:349,1,119.999996337891,10|0,0:0|0:0,0:0:0:0:
86,337,132623,1,0,0:0:0:0:
81,325,132701,1,0,0:0:0:0:
14,264,132857,1,0,0:0:0:0:
33,175,133013,1,0,0:0:0:0:
119,146,133170,6,0,B|206:142|173:191|260:187,1,146.666671142578,14|0,0:0|0:0,3:0:0:0:
291,77,133638,2,0,P|263:87|243:110,2,59.9999981689454
385,121,134107,6,0,L|375:185,1,59.9999981689454,10|0,0:0|0:0,0:0:0:0:
447,242,134420,2,2,L|386:265,1,59.9999981689454,0|0,0:0|0:0,0:0:0:0:
373,356,134732,1,8,0:0:0:0:
372,355,135045,6,0,P|315:338|256:345,1,119.999996337891,2|0,3:2|0:0,0:0:0:0:
183,295,135513,2,0,P|169:322|167:352,2,59.9999981689454
261,255,135982,6,0,L|275:132,1,119.999996337891,10|0,0:0|0:0,0:0:0:0:
264,128,136373,1,0,0:0:0:0:
253,120,136451,1,0,0:0:0:0:
190,184,136607,1,0,0:0:0:0:
103,161,136763,1,0,0:0:0:0:
79,74,136920,5,14,0:0:0:0:
84,84,137857,5,8,0:0:0:0:
88,93,138795,6,0,B|68:200|68:200|89:234,1,146.666671142578,6|0,3:2|0:0,0:0:0:0:
163,258,139263,2,0,P|166:288|135:335,2,66.6666666666667
147,180,139732,6,0,B|185:173|185:173|230:204|230:204|269:198,1,133.333333333333,10|0,0:0|0:0,0:0:0:0:
279,184,140123,1,0,0:0:0:0:
288,170,140201,1,0,0:0:0:0:
381,118,140357,1,0,0:0:0:0:
472,172,140513,1,0,0:0:0:0:
465,323,140670,6,0,B|396:323|387:366|324:357,1,146.666671142578,14|0,0:0|0:0,3:0:0:0:
252,290,141138,1,0,0:0:0:0:
343,275,141295,1,0,0:0:0:0:
235,371,141451,1,0,0:0:0:0:
94,281,141607,6,0,P|79:253|77:151,1,133.333333333333,10|0,0:0|0:0,0:0:0:0:
139,35,142076,2,2,P|79:115|60:212,1,200.000007629395,0|0,0:0|0:0,0:0:0:0:
97,305,142545,6,0,B|160:325|160:325|225:312,1,133.333333333333,6|0,3:2|0:0,0:0:0:0:
317,293,143013,2,0,P|330:341|326:373,2,66.6666666666667
254,223,143482,6,0,B|326:231|320:188|383:187,1,133.333333333333,10|0,0:0|0:0,0:0:0:0:
390,199,143873,1,0,0:0:0:0:
400,210,143951,1,0,0:0:0:0:
483,144,144107,1,0,0:0:0:0:
468,38,144263,1,0,0:0:0:0:
316,15,144420,6,0,B|324:39|318:65|301:84|301:84|280:96|254:97|231:87,1,146.666671142578,14|0,0:0|0:0,0:0:0:0:
155,59,144888,2,0,B|132:49|106:50|85:62|85:62|68:81|62:107|70:131,1,146.666671142578
115,213,145357,6,0,P|115:256|104:286,1,76.6666681289673,10|0,0:0|0:0,0:0:0:0:
186,178,145670,2,2,P|209:217|215:250,1,79.9999975585938,0|0,0:0|0:0,0:0:0:0:
233,112,145982,2,0,P|274:135|296:161,1,83.3333333333333,8|0,0:0|0:0,0:0:0:0:
352,285,146295,6,0,P|357:213|395:158,1,133.333333333333,6|0,3:2|0:0,0:0:0:0:
469,102,146763,2,0,L|477:35,2,66.6666666666667
377,64,147232,6,0,B|316:38|316:38|242:61,1,133.333333333333,10|0,0:0|0:0,0:0:0:0:
247,74,147623,1,0,0:0:0:0:
242,89,147701,1,0,0:0:0:0:
182,180,147857,1,0,0:0:0:0:
149,86,148013,1,0,0:0:0:0:
274,183,148170,6,0,B|296:255|240:256|271:328,1,146.666671142578,14|0,0:0|0:0,0:0:0:0:
199,256,148638,1,0,0:0:0:0:
102,283,148794,1,0,0:0:0:0:
76,380,148951,1,0,0:0:0:0:
20,223,149107,6,0,P|66:205|96:207,1,73.3333355712891,10|0,0:0|0:0,0:0:0:0:
114,92,149420,2,2,P|150:105|178:132,1,76.6666681289673,0|0,0:0|0:0,0:0:0:0:
273,67,149732,2,0,P|289:102|289:141,1,79.9999975585938,8|0,0:0|0:0,0:0:0:0:
235,229,150045,6,0,L|385:236,1,133.333333333333,6|0,3:2|0:0,0:0:0:0:
467,239,150513,2,0,P|479:270|480:304,2,66.6666666666667
422,151,150982,6,0,B|383:148|383:148|346:107|346:107|307:105,1,133.333333333333,10|0,0:0|0:0,0:0:0:0:
287,103,151373,1,0,0:0:0:0:
267,102,151451,1,0,0:0:0:0:
213,187,151607,1,0,0:0:0:0:
313,192,151763,1,0,0:0:0:0:
167,96,151920,6,0,P|119:151|119:222,1,146.666671142578,14|0,0:0|0:0,0:0:0:0:
111,329,152388,2,0,P|86:350|55:363,2,66.6666666666667
207,283,152857,2,0,L|280:297,1,66.6666666666667,10|0,0:0|0:0,0:0:0:0:
291,144,153170,2,0,L|344:184,1,66.6666666666667,8|0,0:0|0:0,0:0:0:0:
444,76,153482,1,8,0:0:0:0:
448,85,153560,1,8,0:0:0:0:
452,94,153638,1,0,0:0:0:0:
456,103,153716,1,0,0:0:0:0:
460,112,153795,6,0,B|494:181|504:239|513:298|470:346|410:364|346:314|390:237,1,375,6|0,3:2|0:0,0:0:0:0:
311,279,155670,2,0,B|267:313|212:324|145:335|77:336|25:301|25:301|54:314|107:305,1,375,2|0,0:0|0:0,0:0:0:0:
170,255,157545,2,0,B|141:221|105:213|75:217|54:232|54:232|68:213|99:181|107:153|118:110|118:37|59:41|23:49|2:75|3:123|39:155|99:134|99:134|237:116|197:236|388:176,1,775,2|0,0:0|0:0,0:0:0:0:
455,130,161295,6,0,P|385:268|299:139,1,375,2|0,0:0|0:0,0:0:0:0:
359,73,163170,2,0,B|367:55|375:46|395:34|395:34|234:14|252:92|80:70,1,375,2|0,0:0|0:0,0:0:0:0:
7,22,165045,2,0,B|137:131|158:372|53:321|53:321|-15:226|225:204|355:314,1,775,2|0,0:0|0:0,0:0:0:0:
431,362,168795,6,0,B|475:319|508:269|513:212|496:153|439:131|393:132|363:162|353:190|358:228|389:245,1,387.5,2|0,0:0|0:0,0:0:0:0:
344,231,172545,2,0,B|338:203|346:161|369:136|402:127|434:130|455:141|474:159|474:159|446:79|457:18|457:18|474:40|474:57,1,387.5,2|0,0:0|0:0,0:0:0:0:
431,46,176295,6,0,B|286:2|305:126|145:82|145:82|135:44|114:21|88:23,1,387.5,2|0,0:0|0:0,0:0:0:0:
51,46,180045,2,0,B|66:15|93:-1|136:8|155:37|166:74|151:103|134:120|112:126|70:117|40:140|17:180|16:221|16:221|27:210|54:197,1,387.5,2|0,0:0|0:0,0:0:0:0:
72,193,183795,6,0,B|115:185|143:205|181:224|203:262|206:311|185:356|152:370|103:381|48:340|36:296|62:242|118:194|134:171|170:174|331:282|262:357|352:381|469:353|469:353|457:343|445:334|439:322,1,793.75,2|0,0:0|0:0,0:0:0:0:
425,306,198795,6,0,B|388:280|377:219|428:146|480:169|480:169|439:208|367:157|356:95|381:59|381:59|281:34|285:108|190:84|190:84|165:37|128:24|88:20|63:30|63:30|76:28|90:31|105:44,1,793.75,2|0,0:0|0:0,0:0:0:0:
134,64,213795,38,0,B|177:101|216:172|243:257|243:257|228:228|203:214,1,281.250010728837,2|0,0:0|0:0,0:0:0:0:
169,201,215670,2,0,B|94:182|103:230|23:218|23:218|54:247|62:303|48:343,1,281.250010728837,2|0,0:0|0:0,0:0:0:0:
30,373,217545,2,0,B|95:328|244:312|414:315|467:353|467:353|424:358|391:329|373:278,1,581.250022172929,2|0,0:0|0:0,0:0:0:0:
355,239,221295,6,0,B|318:148|373:36|462:53|477:99|480:148|442:168,1,309.37500295043,2|0,0:0|0:0,0:0:0:0:
412,174,223170,2,0,B|294:131|294:225|172:163|172:163|186:149|196:124|192:99,1,309.37500295043,2|0,0:0|0:0,0:0:0:0:
186,69,225045,2,0,P|56:44|68:177,1,309.37500295043,2|0,0:0|0:0,0:0:0:0:
95,203,226920,2,0,B|130:243|128:316|79:348|79:348|119:306|192:317|214:348,1,309.37500295043,2|0,0:0|0:0,0:0:0:0:
226,365,228795,6,0,B|384:376|355:303|517:312|517:312|492:298|473:281|466:251,1,375,2|0,0:0|0:0,0:0:0:0:
460,233,230670,2,0,B|442:193|424:116|450:35|450:35|431:84|388:104|328:98|304:65,1,375,2|0,0:0|0:0,0:0:0:0:
284,58,232545,2,0,B|314:100|359:113|409:102|434:75|434:75|417:106|395:127|341:152|285:191|237:219|237:289|307:336|386:335|437:271|410:195|361:175|306:153|255:138|177:148,1,750,2|0,0:0|0:0,0:0:0:0:
103,173,236177,1,2,0:0:0:0:
100,185,236236,1,2,0:0:0:0:
97,199,236295,6,0,B|86:247|46:282|46:282|79:241|136:243|181:264|209:290|223:332|193:382|140:357,1,375,2|0,0:0|0:0,0:0:0:0:
121,366,238170,2,0,B|165:386|203:380|232:338|212:285|170:260|170:260|245:272|246:351|317:348,1,375,2|0,0:0|0:0,0:0:0:0:
341,346,240045,2,0,B|385:339|445:328|434:283|507:243|507:243|478:239|457:231|420:289|372:278|336:257,1,375,2|0,0:0|0:0,0:0:0:0:
323,240,241920,2,0,P|469:193|351:95,1,375,2|0,0:0|0:0,0:0:0:0:
327,103,243795,6,0,B|252:118|165:125|35:69|35:69|61:66|86:77|94:120,1,375,2|0,0:0|0:0,0:0:0:0:
101,131,245670,2,0,B|132:180|151:234|143:289|113:341|54:348|12:336|-8:300|-10:272|2:238|34:230,1,375,2|0,0:0|0:0,0:0:0:0:
53,212,247545,2,0,B|10:215|-29:245|-37:315|10:355|77:351|126:322|136:269|136:269|159:325|198:343|198:343|342:274|332:401|489:342|489:342|478:311|480:288|487:272,1,775,2|0,0:0|0:0,0:0:0:0:
500,251,251295,6,0,B|465:268|459:307|481:337|481:337|352:381|337:282|215:319,1,375,2|0,0:0|0:0,0:0:0:0:
190,322,253170,2,0,B|141:300|115:267|117:219|136:183|168:163|168:163|151:199|118:219|71:217|42:203|21:176,1,375,2|0,0:0|0:0,0:0:0:0:
9,155,255045,2,0,B|-18:105|0:45|42:13|87:0|132:18|163:37|178:77|178:77|215:56|250:63,1,375,2|0,0:0|0:0,0:0:0:0:
274,70,256920,2,0,B|356:84|344:146|455:141|455:141|411:180|397:214|399:257|420:297,1,375,2|0,0:0|0:0,0:0:0:0:
418,316,258795,6,0,B|390:268|383:236|408:174|408:174|379:234|346:250|308:248,1,281.250010728837,2|0,0:0|0:0,0:0:0:0:
290,245,260670,2,0,B|205:241|202:317|80:311|80:311|91:286|90:256,1,281.250010728837,2|0,0:0|0:0,0:0:0:0:
93,237,262545,2,0,B|91:145|55:166|60:94|60:94|223:159|217:42|346:60|346:60|304:35|255:53|255:114,1,581.250022172929,2|0,0:0|0:0,0:0:0:0:
252,128,266295,6,0,B|246:225|281:351|281:351|283:330|286:314|300:300,1,281.250010728837,2|0,0:0|0:0,0:0:0:0:
310,284,268170,2,0,B|334:250|383:239|425:244|461:271|477:308|483:337|483:337|486:311|479:277,1,281.250010728837,2|0,0:0|0:0,0:0:0:0:
470,266,270045,2,0,B|432:238|412:226|363:226|331:246|331:246|356:226|397:195|415:148,1,281.250010728837,2|0,0:0|0:0,0:0:0:0:
410,133,271920,2,0,B|388:181|350:221|311:243|311:243|270:211|231:206|184:220,1,281.250010728837,2|0,0:0|0:0,0:0:0:0:
180,225,273795,5,2,0:0:0:0:
86,355,275670,1,2,0:0:0:0:
166,363,277545,1,2,0:0:0:0:
241,52,281295,5,2,0:0:0:0:
271,168,283170,1,2,0:0:0:0:
237,244,285045,1,2,0:0:0:0:
174,251,286920,6,0,L|171:288,1,37.5,2|0,0:0|0:0,0:0:0:0:
