osu file format v14

[General]
AudioFilename: audio.mp3
AudioLeadIn: 0
PreviewTime: 80742
Countdown: 0
SampleSet: Soft
StackLeniency: 0.5
Mode: 0
LetterboxInBreaks: 0
WidescreenStoryboard: 1

[Editor]
Bookmarks: 13217,18980,22769,25296,27822,30348,35401,40454,65717,70769,90980,106138,111190,120033
DistanceSpacing: 0.9
BeatDivisor: 4
GridSize: 4
TimelineZoom: 1

[Metadata]
Title:GOODTEK
TitleUnicode:GOODTEK
Artist:EBIMAYO
ArtistUnicode:EBIMAYO
Creator:yf_bmp
Version:karasu's Normal
Source:大血戦 -THE BMS OF FIGHTERS ULTIMATE-
Tags:GOODPUMP pumpcore hardcore GOODMEN BOFU2015 daikessen BMS MUSYNX Muse Dash 同步音律喵賽克 CHUNITHM Arcaea Dance Rail Phigros Groove Coaster EZ2ON REBOOT SOUND VOLTEX EXCEED GEAR SDVX 6 electronic instrumental sorairokarasu TtmnZk Maboyu AliomLoung Doomsday
BeatmapID:3434771
BeatmapSetID:1680421

[Difficulty]
HPDrainRate:3
CircleSize:3.5
OverallDifficulty:5
ApproachRate:6
SliderMultiplier:1
SliderTickRate:0.5

[Events]
//Background and Video events
Video,-100,"o.mp4"
0,0,"bg.jpg",0,0
//Break Periods
//Storyboard Layer 0 (Background)
//Storyboard Layer 1 (Fail)
//Storyboard Layer 2 (Pass)
//Storyboard Layer 3 (Foreground)
//Storyboard Layer 4 (Overlay)
//Storyboard Sound Samples

[TimingPoints]
58,315.789473684211,4,2,2,60,1,0
10163,-111.111111111111,4,2,1,70,0,0
15690,-111.111111111111,4,2,1,40,0,0
16479,-111.111111111111,4,2,1,45,0,0
17110,-111.111111111111,4,2,1,50,0,0
18057,-111.111111111111,4,2,1,55,0,0
18373,-111.111111111111,4,2,1,60,0,0
18689,-111.111111111111,4,2,1,65,0,0
19005,-111.111111111111,4,2,1,70,0,0
22478,-111.111111111111,4,2,1,80,0,0
24295,-111.111111111111,4,2,1,5,0,0
24374,-111.111111111111,4,2,1,70,0,0
38506,-111.111111111111,4,2,1,30,0,0
38583,-111.111111111111,4,2,1,70,0,0
38663,-111.111111111111,4,2,1,30,0,0
38742,-111.111111111111,4,2,1,70,0,0
38821,-111.111111111111,4,2,1,30,0,0
38899,-111.111111111111,4,2,1,70,0,0
39215,-111.111111111111,4,2,1,40,0,0
39531,-111.111111111111,4,2,1,50,0,0
39847,-111.111111111111,4,2,1,60,0,0
40162,-111.111111111111,4,2,1,70,0,0
50584,-111.111111111111,4,2,2,60,0,0
60689,-111.111111111111,4,2,1,70,0,0
61952,-100,4,2,2,70,0,0
63215,-100,4,2,1,70,0,0
64479,-100,4,2,2,70,0,0
65110,-100,4,2,2,50,0,0
65426,-100,4,2,1,70,0,0
67636,-100,4,2,1,80,0,0
70794,-100,4,2,1,70,0,0
75215,-100,4,2,1,50,0,0
75531,-100,4,2,1,70,0,0
79636,-100,4,2,1,25,0,0
79952,-100,4,2,1,35,0,0
80268,-100,4,2,1,50,0,0
80425,-100,4,2,1,60,0,0
80584,-100,4,2,1,70,0,0
89506,-100,4,2,1,60,0,0
90056,-100,4,2,1,65,0,0
90373,-100,4,2,1,70,0,0
90689,-100,4,2,1,75,0,0
91005,-100,4,2,1,75,0,1
109084,-100,4,2,1,30,0,1
109320,-100,4,2,1,75,0,1
109400,-100,4,2,1,25,0,1
109636,-100,4,2,1,75,0,1
110663,-100,4,2,1,55,0,1
110741,-100,4,2,1,75,0,1
110979,-100,4,2,1,65,0,1
111057,-100,4,2,1,75,0,1
111215,-100,4,2,1,70,0,0
112479,-100,4,2,2,70,0,0
113742,-100,4,2,1,70,0,0
115005,-100,4,2,2,70,0,0
115637,-100,4,2,2,50,0,0
115952,-100,4,2,1,70,0,0
120452,-100,4,2,1,5,0,0
120530,-100,4,2,1,70,0,0
120610,-100,4,2,1,5,0,0
120688,-100,4,2,1,70,0,0

[Colours]
Combo1 : 136,224,247
Combo2 : 214,56,107
Combo3 : 15,240,49
Combo4 : 255,179,0

[HitObjects]
210,203,10163,6,0,L|196:107,1,89.9999972534181,0|0,1:0|3:0,2:0:0:0:
272,84,10794,2,0,L|286:186,1,89.9999972534181,0|0,1:0|3:0,2:0:0:0:
275,254,11426,2,0,P|319:252|361:269,1,89.9999972534181,0|0,1:0|3:0,2:0:0:0:
347,351,12058,2,0,P|302:352|260:335,1,89.9999972534181,0|0,1:0|3:0,2:0:0:0:
199,282,12689,22,0,B|155:289|155:289|110:272,1,89.9999972534181,0|0,1:0|3:0,2:0:0:0:
120,192,13321,2,0,B|164:185|164:185|209:202,1,89.9999972534181,0|0,1:0|3:0,2:0:0:0:
284,173,13952,2,0,L|296:83,1,89.9999972534181,0|0,1:0|3:0,2:0:0:0:
371,106,14583,2,0,L|358:195,1,89.9999972534181,0|8,1:0|3:1,2:0:0:0:
300,253,15215,6,0,B|271:259|271:259|203:248,2,89.9999972534181,0|8|0,1:0|2:1|1:0,2:0:0:0:
315,332,16163,1,8,3:1:0:0:
390,303,16479,2,0,B|413:313|413:313|483:292,2,89.9999972534181,0|8|0,1:0|3:1|1:0,2:0:0:0:
378,383,17426,1,8,3:1:0:0:
300,360,17742,2,0,B|280:347|280:347|203:365,2,89.9999972534181,0|8|0,1:0|3:1|3:0,2:0:0:0:
355,301,18689,1,0,3:2:0:0:
329,224,19005,1,2,2:0:0:0:
33,315,20268,37,0,1:0:0:0:
87,255,20584,1,0,3:0:0:0:
146,310,20900,2,0,P|189:322|244:310,1,89.9999972534181,0|0,1:0|3:0,2:0:0:0:
286,253,21531,1,0,1:0:0:0:
336,316,21847,1,0,3:0:0:0:
397,262,22163,2,0,L|402:173,1,89.9999972534181,0|2,1:0|2:0,2:0:0:0:
460,116,22794,37,0,1:0:0:0:
406,56,23110,1,0,3:0:0:0:
347,111,23426,2,0,P|304:123|249:111,1,89.9999972534181,0|0,1:0|3:0,2:0:0:0:
197,64,24058,38,0,B|172:85|172:85|183:186|183:186|191:193|191:193|204:310|204:310|194:322,1,269.999991760254,8|2,2:0|3:2,2:0:0:0:
121,339,25321,21,0,1:0:0:0:
44,313,25637,1,8,3:2:0:0:
66,235,25953,2,0,P|89:194|81:136,1,89.9999972534181,0|8,1:0|3:2,2:0:0:0:
154,107,26584,1,0,1:0:0:0:
131,29,26900,1,8,3:2:0:0:
211,35,27216,2,0,L|302:40,1,89.9999972534181,0|2,1:0|2:0,2:0:0:0:
301,120,27847,5,0,1:0:0:0:
372,81,28163,1,8,3:2:0:0:
370,162,28479,2,0,L|356:267,1,89.9999972534181,0|8,1:0|3:2,2:0:0:0:
345,331,29110,37,8,1:3:0:0:
424,315,29426,1,8,1:3:0:0:
504,303,29742,2,0,L|498:352,1,44.999998626709,8|8,1:3|1:3,2:0:0:0:
449,189,30531,22,0,P|454:146|426:90,1,89.9999972534181,2|2,2:1|2:1,2:0:0:0:
360,79,31163,2,0,P|314:101|292:146,1,89.9999972534181,2|2,2:1|2:1,2:0:0:0:
301,215,31794,2,0,P|344:242|390:243,1,89.9999972534181,2|2,2:1|2:1,2:0:0:0:
424,315,32426,2,0,P|410:322|378:327,1,44.999998626709,2|8,2:1|2:0,2:0:0:0:
263,294,33058,22,0,P|228:263|215:211,1,89.9999972534181,2|2,2:1|2:1,2:0:0:0:
135,238,33689,2,0,P|128:280|87:320,1,89.9999972534181,2|2,2:1|2:1,2:0:0:0:
141,384,34321,2,0,P|190:369|229:375,1,89.9999972534181,2|2,2:1|2:1,2:0:0:0:
263,294,34953,2,0,P|281:306|302:331,1,44.999998626709,2|8,3:1|3:2,2:0:0:0:
376,339,35426,21,0,1:0:0:0:
429,279,35742,2,0,P|413:243|361:198,1,89.9999972534181,0|0,3:0|1:0,2:0:0:0:
396,130,36373,2,0,P|422:141|447:157,2,44.999998626709,0|0|0,3:0|3:0|1:0,2:0:0:0:
316,147,37005,2,0,P|285:202|290:240,1,89.9999972534181,0|0,3:0|1:0,2:0:0:0:
205,227,37636,2,0,P|210:252|213:287,2,44.999998626709,2|0|0,3:1|3:0|1:0,2:0:0:0:
212,146,38268,22,0,P|218:106|201:46,2,89.9999972534181,0|0|0,1:0|1:0|1:0,2:0:0:0:
131,141,39215,1,0,3:0:0:0:
58,176,39531,1,0,3:2:0:0:
42,255,39847,2,0,P|56:271|67:291,2,44.999998626709,0|2|0,3:0|3:2|3:2,2:0:0:0:
126,231,40479,6,0,B|147:244|147:244|281:227|281:227|304:202,1,179.999994506836,4|0,2:0|2:0,2:0:0:0:
260,146,41426,1,2,2:1:0:0:
260,146,41584,2,0,P|253:86|263:42,1,89.9999972534181,2|0,2:1|2:0,2:0:0:0:
292,34,42058,2,0,P|338:30|387:42,1,89.9999972534181,2|2,2:1|2:1,2:0:0:0:
454,83,42689,1,2,2:1:0:0:
454,83,42847,2,0,B|427:114|427:114|441:264,1,179.999994506836,2|0,2:1|2:0,2:0:0:0:
359,259,43794,2,0,L|364:307,2,44.999998626709,2|2|2,2:1|2:1|2:1,2:0:0:0:
351,178,44426,2,0,B|337:168|337:168|331:85,1,89.9999972534181,0|0,2:0|2:0,2:0:0:0:
330,54,44900,1,2,2:1:0:0:
265,202,45531,22,0,B|251:220|251:220|111:230|111:230|95:217,1,179.999994506836,2|0,2:1|2:0,2:0:0:0:
36,166,46478,1,2,2:1:0:0:
30,162,46636,2,0,P|8:197|12:249,1,89.9999972534181,2|0,2:1|2:0,2:0:0:0:
40,272,47110,2,0,P|42:319|20:358,1,89.9999972534181,2|2,2:1|2:1,2:0:0:0:
103,384,47741,1,2,2:1:0:0:
103,384,47899,2,0,B|120:359|120:359|276:370,1,179.999994506836,2|0,2:1|2:0,2:0:0:0:
298,293,48847,2,0,L|345:296,2,44.999998626709,2|2|2,2:1|2:1|2:1,2:0:0:0:
217,285,49479,2,0,B|195:275|195:275|190:193,1,89.9999972534181,0|0,2:0|2:0,2:0:0:0:
198,169,49953,1,2,2:1:0:0:
45,223,50584,22,0,B|35:209|35:209|47:66|47:66|63:54,1,179.999994506836,4|0,2:0|2:0,2:0:0:0:
143,82,51531,1,0,2:0:0:0:
143,82,51689,2,0,P|178:93|229:77,1,89.9999972534181,2|0,2:0|2:0,2:0:0:0:
265,62,52163,2,0,P|306:44|352:51,1,89.9999972534181,2|2,2:0|2:0,2:0:0:0:
321,128,52794,5,2,2:0:0:0:
321,128,52952,2,0,B|341:145|341:145|314:308,1,179.999994506836,2|0,2:0|2:0,2:0:0:0:
391,337,53900,1,2,2:0:0:0:
391,337,54058,2,0,L|399:286,1,44.999998626709,2|2,2:0|2:0,2:0:0:0:
405,252,54373,2,0,B|421:240|421:240|432:157,1,89.9999972534181,0|0,2:0|2:0,2:0:0:0:
405,93,55005,2,0,L|416:32,2,44.999998626709,2|0|0,2:0|2:0|2:0,2:0:0:0:
340,142,55637,38,0,B|317:168|317:168|167:149,1,179.999994506836,2|0,2:0|2:0,2:0:0:0:
99,177,56585,1,0,2:0:0:0:
99,177,56742,1,2,2:0:0:0:
18,169,57058,2,0,P|12:198|15:225,1,44.999998626709,2|0,2:0|2:0,2:0:0:0:
36,246,57373,2,0,P|51:273|50:336,1,89.9999972534181,2|0,0:0|0:0,0:0:0:0:
50,375,57848,5,0,2:0:0:0:
50,375,58006,2,0,B|77:351|77:351|225:365,1,179.999994506836,2|0,2:0|2:0,2:0:0:0:
242,289,58953,1,0,2:0:0:0:
242,289,59111,2,0,L|183:283,1,44.999998626709,0|2,2:0|2:0,2:0:0:0:
168,255,59427,2,0,B|161:232|161:232|75:224,1,89.9999972534181,0|2,2:0|2:0,2:0:0:0:
95,144,60058,2,0,L|40:137,2,44.999998626709,0|0|0,2:0|2:0|2:0,2:0:0:0:
161,82,60689,21,8,1:3:0:0:
288,126,61163,1,8,1:3:0:0:
414,80,61636,1,8,1:3:0:0:
329,47,61952,2,0,B|313:139|313:139|319:150|319:150|306:237|306:237|296:245|296:245|276:355,1,300,0|0,1:0|2:0,2:0:0:0:
189,347,63215,5,8,1:3:0:0:
212,213,63689,1,8,1:3:0:0:
236,80,64162,1,8,1:3:0:0:
298,144,64479,2,0,B|265:176|265:176|185:161|185:161|165:129|165:129|59:108|59:108|28:140,1,300,0|4,1:0|2:3,2:0:0:0:
93,200,65742,37,0,3:0:0:0:
134,280,66058,1,0,3:0:0:0:
114,367,66373,2,0,L|61:359,2,50,0|0|0,3:0|3:0|3:0,2:0:0:0:
202,347,67005,2,0,L|263:354,2,50,0|0|0,3:0|3:0|3:0,2:0:0:0:
226,260,67636,21,0,3:0:0:0:
310,290,67952,2,0,L|370:310,2,50,0|0|0,3:0|3:0|3:0,2:0:0:0:
301,200,68583,1,0,3:0:0:0:
389,216,68900,2,0,L|438:248,2,50,0|0|0,3:0|3:0|3:0,2:0:0:0:
255,30,70794,21,0,1:0:0:0:
251,119,71110,2,0,L|248:186,1,50,0|0,1:0|3:0,2:0:0:0:
212,195,71426,2,0,B|234:225|234:225|229:294,1,100,0|0,1:0|1:0,2:0:0:0:
224,377,72058,1,0,1:0:0:0:
137,352,72373,1,0,1:0:0:0:
47,361,72689,1,0,1:2:0:0:
41,271,73005,2,0,L|39:213,1,50,0|0,1:0|3:0,2:0:0:0:
37,175,73321,5,0,1:0:0:0:
126,188,73637,2,0,L|128:138,1,50,0|0,1:0|3:0,2:0:0:0:
158,104,73953,2,0,B|133:93|133:93|135:7,1,100,0|0,1:0|1:0,2:0:0:0:
225,15,74585,1,0,1:0:0:0:
255,99,74900,1,0,1:0:0:0:
245,188,75215,6,0,L|243:257,1,50,8|8,1:3|1:3,2:0:0:0:
219,276,75531,1,2,2:0:0:0:
217,368,75847,21,0,1:0:0:0:
297,328,76163,2,0,L|349:325,1,50,0|0,1:0|3:0,2:0:0:0:
383,351,76479,2,0,B|397:327|397:327|496:314,1,100,0|0,1:0|1:0,2:0:0:0:
497,232,77111,1,0,1:0:0:0:
408,215,77426,1,0,1:0:0:0:
319,198,77742,1,0,1:0:0:0:
229,185,78058,2,0,L|241:117,1,50,0|0,3:0|3:0,2:0:0:0:
245,91,78373,21,0,1:0:0:0:
155,105,78690,2,0,L|106:102,1,50,0|0,1:0|3:0,2:0:0:0:
59,103,79006,2,0,P|55:57|88:3,1,100,0|0,1:0|1:0,2:0:0:0:
170,18,79636,2,0,L|237:22,1,50,0|0,3:0|3:0,2:0:0:0:
254,50,79952,2,0,L|318:53,1,50,0|0,3:0|3:0,2:0:0:0:
332,17,80268,2,0,L|395:21,1,50,0|0,3:0|3:0,2:0:0:0:
426,14,80584,1,4,2:3:0:0:
464,96,80900,21,4,1:0:0:0:
406,165,81215,1,8,2:1:0:0:
469,228,81531,2,0,L|474:287,1,50,0|2,1:0|2:0,2:0:0:0:
502,312,81847,2,0,L|493:370,1,50,8|2,2:1|2:0,2:0:0:0:
450,370,82163,2,0,P|401:342|351:347,1,100,0|8,1:0|2:1,2:0:0:0:
273,372,82794,1,0,1:0:0:0:
278,282,83110,1,8,2:1:0:0:
269,192,83426,22,0,P|265:132|277:67,1,100,0|8,1:0|2:1,2:0:0:0:
203,32,84058,2,0,P|186:63|182:96,1,50,0|2,1:0|2:0,2:0:0:0:
138,86,84373,2,0,P|137:119|154:161,1,50,8|2,2:1|2:0,2:0:0:0:
168,171,84689,2,0,P|178:224|156:283,1,100,0|8,1:0|2:1,2:0:0:0:
132,351,85321,38,0,P|107:348|82:342,1,50,8|8,1:3|1:3,2:0:0:0:
39,332,85636,1,2,2:0:0:0:
0,251,85952,37,0,1:0:0:0:
82,216,86267,1,8,2:0:0:0:
163,178,86583,2,0,L|246:180,1,50,0|2,1:0|2:0,2:0:0:0:
247,208,86899,2,0,L|303:209,1,50,8|2,2:0|2:0,2:0:0:0:
336,186,87215,2,0,P|387:173|439:197,1,100,0|8,1:0|2:0,2:0:0:0:
407,276,87846,1,0,1:0:0:0:
388,364,88162,1,8,2:0:0:0:
296,374,88478,22,0,P|298:313|317:250,1,100,0|8,1:0|3:1,2:0:0:0:
247,208,89110,2,0,P|226:237|219:269,1,50,0|2,3:0|3:2,2:0:0:0:
177,255,89425,2,0,P|172:287|185:331,1,50,0|0,3:0|3:0,2:0:0:0:
187,347,89741,2,0,P|137:368|75:360,1,100,0|0,1:0|3:2,2:0:0:0:
82,281,90373,1,0,3:0:0:0:
81,235,90531,1,2,3:2:0:0:
107,198,90689,1,0,3:2:0:0:
182,248,91005,38,0,B|191:260|191:260|366:247|366:247|381:224,1,200,6|0,1:0|1:0,2:0:0:0:
465,259,91952,1,8,2:1:0:0:
465,259,92110,2,0,P|476:201|464:153,1,100,2|2,2:0|2:0,2:0:0:0:
425,144,92584,2,0,P|425:97|443:45,1,100,8|0,2:1|1:0,2:0:0:0:
362,18,93215,1,8,2:1:0:0:
362,18,93373,2,0,B|331:45|331:45|163:29,1,200,0|2,3:0|2:0,2:0:0:0:
120,104,94321,1,0,2:0:0:0:
120,104,94479,2,0,L|183:113,1,50,8|2,2:1|2:0,2:0:0:0:
214,115,94794,2,0,B|221:124|221:124|321:129,1,100,2|8,1:2|2:1,2:0:0:0:
396,102,95426,1,0,1:0:0:0:
232,175,96057,38,0,B|214:189|214:189|200:350|200:350|216:373,1,200,6|0,1:0|1:0,2:0:0:0:
118,358,97004,1,8,2:1:0:0:
112,363,97162,2,0,P|84:332|77:272,1,100,2|2,2:0|2:0,2:0:0:0:
103,239,97636,2,0,P|120:189|98:145,1,100,8|0,2:1|1:0,2:0:0:0:
32,98,98267,1,8,2:1:0:0:
32,98,98425,2,0,B|49:73|49:73|218:63,1,200,0|2,3:0|2:0,2:0:0:0:
309,43,99373,1,0,2:0:0:0:
309,43,99531,2,0,L|306:99,1,50,8|2,2:1|2:0,2:0:0:0:
279,129,99847,2,0,B|260:147|260:147|273:235,1,100,0|8,1:0|2:1,2:0:0:0:
340,277,100478,2,0,L|352:349,2,50,2|0|8,1:0|3:0|2:1,2:0:0:0:
361,189,101110,22,0,B|406:205|406:205|438:359,1,200,4|0,1:0|1:0,2:0:0:0:
353,335,102058,1,8,2:0:0:0:
353,335,102215,2,0,P|295:346|247:334,1,100,2|2,2:1|2:1,2:0:0:0:
236,296,102690,2,0,P|187:282|134:299,1,100,8|0,2:0|1:0,2:0:0:0:
69,240,103321,1,8,2:0:0:0:
69,240,103479,2,0,B|96:209|96:209|80:41,1,200,0|2,3:0|2:1,2:0:0:0:
166,37,104426,1,2,2:1:0:0:
166,37,104584,2,0,L|172:97,1,50,8|2,2:0|2:1,2:0:0:0:
169,132,104900,2,0,B|183:148|183:148|191:235,1,100,0|8,1:0|2:0,2:0:0:0:
164,313,105531,1,0,1:0:0:0:
340,274,106163,38,0,P|311:340|349:361,1,100,0|8,1:0|2:1,2:0:0:0:
361,366,106636,2,0,P|415:331|425:242,1,150,0|8,3:0|2:1,2:0:0:0:
404,213,107268,1,0,3:0:0:0:
323,174,107584,1,0,3:0:0:0:
232,172,107900,2,0,L|228:104,1,50,0|0,3:0|1:0,2:0:0:0:
310,83,108373,2,0,L|307:31,2,50,10|0|2,2:1|3:0|1:0,2:0:0:0:
323,174,109005,2,0,L|329:281,2,100,2|2|2,1:0|1:0|1:0,2:0:0:0:
238,144,109952,1,2,1:0:0:0:
242,233,110268,1,2,1:0:0:0:
156,255,110584,2,0,P|139:220|138:190,1,50,2|2,1:0|1:0,2:0:0:0:
96,190,110900,2,0,P|97:160|91:134,1,50,2|2,1:0|1:0,2:0:0:0:
87,95,111215,5,8,1:3:0:0:
220,118,111689,1,8,1:3:0:0:
354,134,112163,1,8,1:3:0:0:
307,56,112479,2,0,B|260:73|238:163|281:188|320:208|302:305|235:320,1,300,0|0,1:0|2:0,2:0:0:0:
202,237,113742,5,8,1:3:0:0:
334,209,114216,1,8,1:3:0:0:
465,179,114690,1,8,1:3:0:0:
419,256,115005,2,0,B|386:233|386:233|370:153|370:153|406:101|406:101|390:12|390:12|364:-3,1,300,0|4,1:0|2:3,2:0:0:0:
256,192,116268,12,0,119426,3:0:0:0:
317,133,120058,37,2,2:0:0:0:
260,202,120373,2,0,L|190:198,2,50,2|2|2,2:0|2:0|2:0,2:0:0:0:
349,214,121005,1,0,2:0:0:0:
438,220,121321,1,8,1:3:0:0:
