osu file format v14

[General]
AudioFilename: audio.mp3
AudioLeadIn: 0
PreviewTime: 80742
Countdown: 0
SampleSet: Soft
StackLeniency: 0.7
Mode: 0
LetterboxInBreaks: 0
WidescreenStoryboard: 1

[Editor]
Bookmarks: 90980
DistanceSpacing: 0.6
BeatDivisor: 8
GridSize: 32
TimelineZoom: 2.599999

[Metadata]
Title:GOODTEK
TitleUnicode:GOODTEK
Artist:EBIMAYO
ArtistUnicode:EBIMAYO
Creator:yf_bmp
Version:Tt's Hyper
Source:大血戦 -THE BMS OF FIGHTERS ULTIMATE-
Tags:GOODPUMP pumpcore hardcore GOODMEN BOFU2015 daikessen BMS MUSYNX Muse Dash 同步音律喵賽克 CHUNITHM Arcaea Dance Rail Phigros Groove Coaster EZ2ON REBOOT SOUND VOLTEX EXCEED GEAR SDVX 6 electronic instrumental sorairokarasu TtmnZk Maboyu AliomLoung Doomsday
BeatmapID:3432912
BeatmapSetID:1680421

[Difficulty]
HPDrainRate:4
CircleSize:4.8
OverallDifficulty:7.2
ApproachRate:8.2
SliderMultiplier:1.7
SliderTickRate:1

[Events]
//Background and Video events
Video,-100,"o.mp4"
0,0,"bg.jpg",0,0
//Break Periods
2,40679,49864
//Storyboard Layer 0 (Background)
//Storyboard Layer 1 (Fail)
//Storyboard Layer 2 (Pass)
//Storyboard Layer 3 (Foreground)
//Storyboard Layer 4 (Overlay)
//Storyboard Sound Samples

[TimingPoints]
58,315.789473684211,4,2,2,60,1,0
58,-166.666666666666,4,2,2,60,0,0
10163,-166.666666666666,4,2,1,70,0,0
10794,-142.857142857143,4,2,1,70,0,0
11110,-111.111111111111,4,2,1,70,0,0
15215,-166.666666666666,4,2,1,70,0,0
15690,-166.666666666666,4,2,1,40,0,0
16479,-166.666666666666,4,2,1,45,0,0
17111,-166.666666666666,4,2,1,50,0,0
18058,-166.666666666666,4,2,1,55,0,0
18374,-166.666666666666,4,2,1,60,0,0
18690,-166.666666666666,4,2,1,65,0,0
19005,-100,4,2,1,70,0,0
19085,-100,4,2,1,5,0,0
19163,-100,4,2,1,80,0,0
19321,-100,4,2,1,5,0,0
19400,-100,4,2,1,80,0,0
19558,-100,4,2,1,5,0,0
19637,-100,4,2,1,80,0,0
19716,-100,4,2,1,5,0,0
19795,-100,4,2,1,80,0,0
19953,-100,4,2,1,80,0,0
20111,-100,4,2,1,5,0,0
20269,-100,4,2,1,70,0,0
22479,-100,4,2,1,80,0,0
24058,-142.857142857143,4,2,1,80,0,0
24295,-142.857142857143,4,2,1,5,0,0
24374,-142.857142857143,4,2,1,70,0,0
24689,-200,4,2,1,70,0,0
25321,-100,4,2,1,70,0,0
29110,-83.3333333333333,4,2,1,70,0,0
29348,-83.3333333333333,4,2,1,5,0,0
29427,-83.3333333333333,4,2,1,70,0,0
29663,-83.3333333333333,4,2,1,5,0,0
29742,-83.3333333333333,4,2,1,70,0,0
30216,-83.3333333333333,4,2,1,5,0,0
30373,-142.857142857143,4,2,1,70,0,0
38506,-142.857142857143,4,2,1,30,0,0
38585,-142.857142857143,4,2,1,70,0,0
38663,-142.857142857143,4,2,1,30,0,0
38742,-142.857142857143,4,2,1,70,0,0
38821,-142.857142857143,4,2,1,30,0,0
38900,-142.857142857143,4,2,1,70,0,0
38979,-142.857142857143,4,2,1,35,0,0
39058,-142.857142857143,4,2,1,70,0,0
39137,-142.857142857143,4,2,1,35,0,0
39216,-142.857142857143,4,2,1,40,0,0
39532,-142.857142857143,4,2,1,50,0,0
39848,-142.857142857143,4,2,1,60,0,0
40163,-100,4,2,1,70,0,0
40479,-100,4,2,1,70,0,0
42611,-100,4,2,1,5,0,0
42690,-100,4,2,1,70,0,0
44821,-100,4,2,1,5,0,0
44900,-100,4,2,1,70,0,0
45453,-100,4,2,1,5,0,0
45532,-100,4,2,1,70,0,0
47663,-100,4,2,1,5,0,0
47742,-100,4,2,1,70,0,0
49874,-100,4,2,1,5,0,0
49953,-100,4,2,1,70,0,0
50506,-100,4,2,1,5,0,0
50584,-142.857142857143,4,2,2,60,0,0
60690,-142.857142857143,4,2,1,70,0,0
61953,-142.857142857143,4,2,2,70,0,0
63216,-142.857142857143,4,2,1,70,0,0
64479,-142.857142857143,4,2,2,70,0,0
65111,-142.857142857143,4,2,2,50,0,0
65427,-142.857142857143,4,2,1,70,0,0
65742,-100,4,2,1,70,0,0
67637,-100,4,2,1,80,0,0
70163,-166.666666666667,4,2,1,80,0,0
70716,-166.666666666667,4,2,1,5,0,0
70794,-90.9090909090909,4,2,1,70,0,0
75216,-90.9090909090909,4,2,1,50,0,0
75532,-90.9090909090909,4,2,1,70,0,0
75690,-90.9090909090909,4,2,1,5,0,0
75848,-90.9090909090909,4,2,1,70,0,0
79636,-133.333333333333,4,2,1,25,0,0
79953,-133.333333333333,4,2,1,35,0,0
80269,-133.333333333333,4,2,1,50,0,0
80427,-133.333333333333,4,2,1,60,0,0
80585,-133.333333333333,4,2,1,70,0,0
80900,-90.9090909090909,4,2,1,70,0,0
85795,-90.9090909090909,4,2,1,5,0,0
85952,-100,4,2,1,70,0,0
89506,-100,4,2,1,60,0,0
90058,-100,4,2,1,65,0,0
90374,-100,4,2,1,70,0,0
90690,-100,4,2,1,75,0,0
91005,-100,4,2,1,75,0,1
106163,-142.857142857143,4,2,1,75,0,1
109479,-142.857142857143,4,2,1,25,0,1
109637,-142.857142857143,4,2,1,75,0,1
109795,-142.857142857143,4,2,1,30,0,1
109953,-142.857142857143,4,2,1,75,0,1
110032,-142.857142857143,4,2,1,35,0,1
110111,-142.857142857143,4,2,1,75,0,1
110190,-142.857142857143,4,2,1,40,0,1
110269,-142.857142857143,4,2,1,75,0,1
110348,-142.857142857143,4,2,1,45,0,1
110427,-142.857142857143,4,2,1,75,0,1
110506,-142.857142857143,4,2,1,50,0,1
110585,-142.857142857143,4,2,1,75,0,1
110663,-142.857142857143,4,2,1,55,0,1
110742,-142.857142857143,4,2,1,75,0,1
110821,-142.857142857143,4,2,1,60,0,1
110900,-142.857142857143,4,2,1,75,0,1
110979,-142.857142857143,4,2,1,65,0,1
111058,-142.857142857143,4,2,1,75,0,1
111137,-142.857142857143,4,2,1,70,0,1
111215,-142.857142857143,4,2,1,70,0,0
112479,-142.857142857143,4,2,2,70,0,0
113742,-142.857142857143,4,2,1,70,0,0
115006,-142.857142857143,4,2,2,70,0,0
115637,-142.857142857143,4,2,2,50,0,0
115953,-142.857142857143,4,2,1,70,0,0
116268,-100,4,2,1,70,0,0
120689,-166.666666666667,4,2,1,70,0,0
120926,-166.666666666667,4,2,1,70,0,0
121005,-166.666666666667,4,2,1,70,0,0

[Colours]
Combo1 : 240,189,36
Combo2 : 83,169,12
Combo3 : 71,103,228
Combo4 : 220,58,46

[HitObjects]
410,179,58,6,0,L|463:202,6,50.9999984436036,4|2|2|2|2|2|2,2:0|2:0|2:0|2:0|2:0|2:0|2:0,0:0:0:0:
377,245,1163,2,0,L|354:291,8,50.9999984436036,2|2|2|2|2|2|2|2|2,2:0|2:0|2:0|2:0|2:0|2:0|2:0|2:0|2:0,0:0:0:0:
417,330,2584,6,0,L|476:363,14,50.9999984436036,2|2|2|2|2|2|2|2|2|2|2|2|2|2|2,2:0|2:0|2:0|2:0|2:0|2:0|2:0|2:0|2:0|2:0|2:0|2:0|2:0|2:0|2:0,0:0:0:0:
102,179,5110,6,0,L|49:202,6,50.9999984436036,2|2|2|2|2|2|2,2:0|2:0|2:0|2:0|2:0|2:0|2:0,0:0:0:0:
135,245,6215,2,0,L|158:291,8,50.9999984436036,2|2|2|2|2|2|2|2|2,2:0|2:0|2:0|2:0|2:0|2:0|2:0|2:0|2:0,0:0:0:0:
95,330,7636,6,0,L|36:363,14,50.9999984436036,2|2|2|2|2|2|2|2|2|2|2|2|2|2|2,2:0|2:0|2:0|2:0|2:0|2:0|2:0|2:0|2:0|2:0|2:0|2:0|2:0|2:0|2:0,0:0:0:0:
259,94,10163,6,0,L|249:44,1,50.9999984436036,0|0,1:0|0:0,0:0:0:0:
364,15,10479,2,0,L|309:25,1,50.9999984436036,0|2,3:3|0:0,0:0:0:0:
394,141,10794,2,0,L|382:82,1,59.4999981842042,0|0,1:0|0:0,0:0:0:0:
259,196,11110,2,0,L|347:178,1,76.4999976654053,0|2,3:0|0:0,0:0:0:0:
396,222,11426,6,0,L|414:302,1,76.4999976654053,0|0,1:0|0:0,0:0:0:0:
368,355,11742,2,0,L|278:375,1,76.4999976654053,0|2,3:0|0:0,0:0:0:0:
227,334,12058,2,0,L|212:249,1,76.4999976654053,0|2,1:0|0:0,0:0:0:0:
180,189,12373,2,0,L|95:203,1,76.4999976654053,0|2,3:0|0:0,0:0:0:0:
40,156,12689,6,0,L|25:49,1,76.4999976654053,0|2,1:0|0:0,0:0:0:0:
80,28,13005,2,0,L|173:14,1,76.4999976654053,0|2,3:0|0:0,0:0:0:0:
230,50,13321,2,0,L|246:150,1,76.4999976654053,0|2,1:0|0:0,0:0:0:0:
307,164,13636,2,0,L|382:150,1,76.4999976654053,0|2,3:0|0:0,0:0:0:0:
436,200,13952,6,0,L|449:274,1,76.4999976654053,0|2,1:0|2:0,0:0:0:0:
378,329,14268,2,0,L|301:347,1,76.4999976654053,0|2,3:0|0:0,0:0:0:0:
234,271,14584,2,0,L|217:189,1,76.4999976654053,0|2,1:0|2:0,0:0:0:0:
306,107,14900,2,0,L|335:25,1,76.4999976654053,8|2,3:1|0:0,0:0:0:0:
435,39,15215,6,0,L|488:57,3,50.9999984436036,0|2|8|2,1:0|0:0|0:1|3:2,0:0:0:0:
408,144,15847,2,0,L|357:157,1,50.9999984436036,0|0,1:0|3:0,0:0:0:0:
487,139,16163,1,8,3:1:0:0:
478,213,16321,1,2,3:2:0:0:
477,221,16400,1,2,3:2:0:0:
476,228,16479,6,0,L|469:270,2,25.4999992218018,0|0|0,1:0|3:0|3:0,0:0:0:0:
394,295,16794,2,0,L|428:308,2,25.4999992218018,8|2|2,3:1|3:2|3:2,0:0:0:0:
296,247,17110,2,0,L|310:209,2,25.4999992218018,0|0|2,1:0|3:0|3:2,0:0:0:0:
250,339,17426,2,0,L|219:325,2,25.4999992218018,8|2|2,3:1|3:2|3:2,0:0:0:0:
116,268,17742,6,0,L|129:239,2,25.4999992218018,0|0|2,1:0|3:0|3:2,0:0:0:0:
182,139,18058,2,0,L|151:125,2,25.4999992218018,8|2|2,3:1|3:2|3:2,0:0:0:0:
318,90,18373,2,0,L|355:106,2,25.4999992218018,0|2|2,3:0|3:2|3:2,0:0:0:0:
377,230,18689,2,0,L|391:195,2,25.4999992218018,0|2|2,3:2|3:2|3:2,0:0:0:0:
234,280,19005,5,2,0:0:0:0:
301,313,19163,2,0,L|297:266,1,42.5,0|2,0:0|0:0,0:0:0:0:
288,187,19400,2,0,L|283:136,1,42.5,0|2,0:0|0:0,0:0:0:0:
277,61,19636,2,0,L|225:82,1,42.5,2|0,0:0|0:0,0:0:0:0:
347,99,19873,1,2,0:0:0:0:
361,104,19952,2,0,B|349:72|349:72|412:50,1,85,4|0,2:3|0:0,0:0:0:0:
469,123,20268,5,0,1:0:0:0:
403,161,20426,1,0,0:0:0:0:
506,196,20584,2,0,B|458:212|458:212|470:244,1,85,0|0,3:3|0:0,0:0:0:0:
400,356,20900,1,0,1:0:0:0:
408,280,21058,1,0,0:0:0:0:
334,261,21215,2,0,B|346:229|346:229|298:212,1,85,0|0,3:3|0:0,0:0:0:0:
240,300,21531,5,0,1:0:0:0:
263,368,21689,1,0,0:0:0:0:
146,344,21846,2,0,B|100:366|100:366|86:334,1,85,0|0,3:3|0:0,0:0:0:0:
116,217,22163,1,0,1:0:0:0:
46,247,22321,1,0,0:0:0:0:
16,175,22479,2,0,B|8:153|8:153|9:134,3,42.5,2|2|2|2,0:0|0:0|0:0|0:0,0:0:0:0:
47,112,22794,5,0,1:0:0:0:
125,90,22952,1,0,0:0:0:0:
229,168,23110,2,0,L|133:153,1,85,0|0,3:3|0:0,0:0:0:0:
191,266,23426,1,0,1:0:0:0:
269,288,23584,1,0,0:0:0:0:
373,210,23742,2,0,L|277:225,1,85,0|0,3:3|0:0,0:0:0:0:
303,136,24058,6,0,B|283:108|283:108|295:81|295:81|287:39,1,89.2499972763062,8|0,0:2|0:0,0:0:0:0:
302,22,24373,2,0,B|336:9|336:9|328:34,1,59.4999981842042,0|0,3:3|0:0,0:0:0:0:
216,77,24689,2,0,B|185:88|185:88|197:119,1,63.75
202,133,25005,1,2,3:2:0:0:
148,203,25163,1,2,0:0:0:0:
151,212,25242,1,2,0:0:0:0:
154,220,25321,6,0,L|183:300,1,85,0|0,1:0|0:0,0:0:0:0:
248,372,25636,1,8,3:2:0:0:
270,301,25794,1,0,0:0:0:0:
359,363,25952,2,0,B|343:314|343:314|310:326,1,85,0|0,1:0|0:0,0:0:0:0:
336,219,26268,1,8,3:2:0:0:
404,256,26426,1,0,0:0:0:0:
430,136,26584,6,0,B|382:154|382:154|395:185,1,85,0|0,1:0|0:0,0:0:0:0:
295,112,26900,1,8,3:2:0:0:
335,54,27058,1,0,0:0:0:0:
209,13,27215,2,0,B|256:31|256:31|243:62,1,85,0|0,1:0|0:0,0:0:0:0:
161,105,27531,2,0,B|137:111|137:111|115:132,3,42.5,2|2|2|2,0:0|0:0|0:0|0:0,0:0:0:0:
126,156,27847,5,0,1:0:0:0:
58,112,28005,1,0,0:0:0:0:
22,192,28163,2,0,L|50:292,1,85,8|0,3:2|0:0,0:0:0:0:
147,267,28479,1,0,1:0:0:0:
215,223,28637,1,0,0:0:0:0:
251,303,28795,2,0,L|223:403,1,85,8|0,3:2|0:0,0:0:0:0:
280,240,29110,6,0,B|364:170|199:131|283:60,2,203.999993774414,8|8|8,1:3|1:3|1:3,0:0:0:0:
329,291,29900,1,8,1:3:0:0:
302,363,30058,1,2,0:0:0:0:
302,363,30373,5,0,1:0:0:0:
394,258,30531,2,0,L|390:194,1,59.4999981842042,2|8,0:1|0:2,0:0:0:0:
378,34,30847,2,0,L|383:100,1,59.4999981842042,2|0,0:1|1:0,0:0:0:0:
493,140,31163,2,0,L|420:146,1,59.4999981842042,2|8,0:1|0:2,0:0:0:0:
278,159,31479,2,0,L|353:153,1,59.4999981842042,2|0,0:1|1:0,0:0:0:0:
202,188,31794,6,0,L|197:129,1,59.4999981842042,2|8,0:1|0:2,0:0:0:0:
90,73,32110,2,0,L|155:67,1,59.4999981842042,2|0,0:1|1:0,0:0:0:0:
124,197,32426,1,2,0:1:0:0:
105,321,32584,2,2,B|118:296|118:296|92:189,1,118.999996368408,8|0,0:2|1:0,0:1:0:0:
57,125,33058,6,0,L|-12:145,1,59.4999981842042,2|8,0:1|0:0,0:0:0:0:
207,83,33373,2,0,L|276:63,1,59.4999981842042,2|0,0:1|1:0,0:0:0:0:
120,57,33689,2,0,L|103:-4,1,59.4999981842042,2|8,0:1|0:0,0:0:0:0:
151,160,34005,2,0,L|168:221,1,59.4999981842042,2|0,0:1|1:0,0:0:0:0:
298,238,34321,6,0,L|229:260,1,59.4999981842042,2|8,0:1|0:0,0:0:0:0:
387,339,34636,2,0,L|372:282,1,59.4999981842042,2|0,0:1|1:0,0:0:0:0:
343,163,34952,1,2,3:1:0:0:
385,75,35110,2,2,L|369:153,1,59.4999981842042,8|0,3:2|3:3,0:1:0:0:
414,222,35426,6,0,L|480:233,2,59.4999981842042,0|0|0,1:0|3:3|3:3,0:0:0:0:
448,311,35900,1,0,3:3:0:0:
357,325,36058,2,0,L|338:382,2,59.4999981842042,0|0|0,1:0|3:3|3:3,0:0:0:0:
282,260,36531,1,0,3:3:0:0:
280,253,36610,1,0,3:3:0:0:
279,244,36689,6,0,L|301:176,2,59.4999981842042,0|0|0,1:0|3:3|3:3,0:0:0:0:
176,292,37163,1,0,3:3:0:0:
103,322,37321,2,0,L|85:381,2,59.4999981842042,0|0|2,1:0|3:3|3:1,0:0:0:0:
60,243,37794,1,0,3:3:0:0:
57,235,37873,1,0,3:3:0:0:
54,228,37952,6,0,L|99:97,1,118.999996368408,0|0,1:0|1:0,0:0:0:0:
123,42,38426,1,2,0:1:0:0:
200,74,38584,2,0,L|195:10,1,59.4999981842042,0|2,1:0|3:1,0:0:0:0:
286,70,38900,2,0,L|260:131,1,59.4999981842042,0|2,1:0|3:1,0:0:0:0:
239,188,39215,5,0,3:0:0:0:
261,201,39373,1,2,3:1:0:0:
247,230,39531,1,0,3:2:0:0:
303,285,39689,1,2,3:2:0:0:
357,230,39847,1,0,3:0:0:0:
407,175,40005,1,2,3:2:0:0:
458,119,40163,2,0,L|466:220,1,85,0|2,3:2|3:2,0:0:0:0:
480,321,40479,5,4,0:2:0:0:
63,70,50584,6,0,B|119:48|119:48|142:74|142:74|86:221,1,237.999992736817,4|2,0:0|0:0,0:0:0:0:
266,277,51531,1,0,0:0:0:0:
293,215,51689,2,0,L|182:173,1,118.999996368408,2|2,0:0|0:0,0:0:0:0:
153,239,52163,2,0,L|128:296,1,59.4999981842042
179,341,52479,1,2,0:0:0:0:
361,277,52794,1,0,0:0:0:0:
393,342,52952,1,2,0:0:0:0:
457,310,53110,6,0,B|512:284|512:284|510:251|510:251|366:186,1,237.999992736817,0|2,0:0|0:0,0:0:0:0:
358,48,53900,1,2,0:0:0:0:
365,116,54058,1,0,0:0:0:0:
298,134,54215,2,0,B|271:145|271:145|303:302,1,178.499994552612,2|0,0:0|0:0,0:0:0:0:
21,363,55005,2,0,B|29:330|29:330|136:359,1,118.999996368408,2|0,0:0|0:0,0:0:0:0:
127,153,55636,6,0,B|119:123|119:123|183:110|183:110|193:147,1,118.999996368408
106,221,56110,2,0,B|101:243|101:243|37:230|37:230|45:200,1,118.999996368408,0|2,0:0|0:0,0:0:0:0:
57,136,56584,1,0,0:0:0:0:
10,20,56742,2,0,L|24:105,1,59.4999981842042,2|0,0:0|0:0,0:0:0:0:
136,46,57058,2,0,L|204:32,1,59.4999981842042,2|0,0:0|0:0,0:0:0:0:
304,78,57373,2,0,L|318:142,2,59.4999981842042,2|0|0,0:0|0:0|0:0,0:0:0:0:
230,100,57847,1,0,0:0:0:0:
273,183,58005,2,0,B|182:160|182:160|191:210,1,118.999996368408,2|0,0:0|0:0,0:0:0:0:
256,192,58479,12,0,60373,0:0:0:0:
329,56,60689,6,0,L|357:15,2,29.7499990921021,8|2|2,1:3|0:0|0:0,0:0:0:0:
258,200,61163,6,0,L|232:160,2,29.7499990921021,8|2|2,1:3|0:0|0:0,0:0:0:0:
327,329,61636,6,0,L|355:288,2,29.7499990921021,8|2|2,1:3|0:0|0:0,0:0:0:0:
255,363,61952,5,0,1:0:0:0:
196,314,62110,1,0,1:0:0:0:
111,372,62268,2,0,L|100:310,1,59.4999981842042,2|0,0:3|0:0,0:0:0:0:
106,299,62505,1,0,0:0:0:0:
141,219,62663,1,0,0:0:0:0:
137,194,62742,2,0,L|265:159,1,118.999996368408,0|2,1:0|0:3,0:0:0:0:
177,111,63215,6,0,L|167:62,2,29.7499990921021,8|2|2,1:3|0:0|0:0,0:0:0:0:
232,270,63689,6,0,L|185:260,2,29.7499990921021,8|2|2,1:3|0:0|0:0,0:0:0:0:
372,312,64162,6,0,L|362:263,2,29.7499990921021,8|2|2,1:3|0:0|0:0,0:0:0:0:
298,328,64479,5,0,1:0:0:0:
303,257,64636,1,0,1:0:0:0:
310,176,64794,2,0,L|323:236,1,59.4999981842042,2|0,3:0|0:0,0:0:0:0:
378,157,65031,1,0,0:0:0:0:
377,147,65110,2,0,L|400:119,3,29.7499990921021,2|2|2|2,0:3|0:3|0:3|0:3,0:0:0:0:
360,67,65426,1,4,0:3:0:0:
475,253,65742,6,0,L|378:242,1,85,0|0,3:0|1:0,0:0:0:0:
320,264,66058,1,0,3:0:0:0:
331,330,66215,1,0,3:0:0:0:
261,345,66373,2,0,L|252:299,2,42.5,0|0|0,3:0|0:0|3:0,0:0:0:0:
163,365,66689,2,0,L|108:377,2,42.5,0|0|0,3:0|0:0|3:0,0:0:0:0:
140,264,67005,6,0,L|122:167,1,85,0|0,3:0|3:0,0:0:0:0:
227,144,67321,1,0,3:0:0:0:
214,77,67478,1,0,3:0:0:0:
150,26,67636,2,0,L|93:41,2,42.5,0|0|0,3:0|2:0|3:0,0:0:0:0:
283,70,67952,2,0,L|338:82,2,42.5,0|0|0,3:0|0:0|3:0,0:0:0:0:
364,141,68268,6,0,L|340:240,1,85,0|0,3:0|3:0,0:0:0:0:
245,293,68584,1,0,3:0:0:0:
268,359,68741,1,0,3:0:0:0:
178,353,68899,2,0,L|161:306,2,42.5,0|0|0,3:0|3:0|3:0,0:0:0:0:
122,192,69215,2,0,L|163:174,2,42.5,0|0|0,3:0|3:0|3:0,0:0:0:0:
216,225,69531,5,0,0:0:0:0:
285,57,69847,1,0,0:0:0:0:
328,112,70005,1,0,0:0:0:0:
399,31,70163,2,0,B|409:64|409:64|398:96|398:96|413:141,1,101.999996887207,0|4,0:0|0:3,0:0:0:0:
457,242,70794,6,0,B|410:228|410:228|396:275,1,93.5000028533936,0|0,1:0|0:0,0:0:0:0:
330,359,71110,2,0,L|318:266,1,93.5000028533936,0|0,1:0|0:0,0:0:0:0:
317,258,71347,1,0,0:0:0:0:
315,250,71426,1,0,1:0:0:0:
284,184,71584,1,0,0:0:0:0:
215,216,71742,1,0,1:0:0:0:
243,286,71900,2,0,B|181:304|181:304|211:312,1,93.5000028533936,0|0,0:0|1:0,0:0:0:0:
76,346,72215,6,0,P|121:344|153:377,1,93.5000028533936,0|0,0:0|1:0,0:0:0:0:
118,273,72531,1,0,3:0:0:0:
78,213,72689,2,0,L|109:125,1,93.5000028533936,0|0,1:2|0:0,0:0:0:0:
212,58,73005,1,0,1:0:0:0:
213,76,73084,1,0,1:0:0:0:
215,93,73163,2,0,B|201:112|201:112|220:133,1,46.7500014266968,0|0,3:0|3:0,0:0:0:0:
324,123,73321,6,0,B|348:80|348:80|307:57,1,93.5000028533936,0|0,1:0|0:0,0:0:0:0:
270,166,73637,2,0,L|295:272,1,93.5000028533936,0|0,1:0|0:0,0:0:0:0:
295,266,73874,1,0,0:0:0:0:
297,275,73953,1,0,1:0:0:0:
351,326,74111,1,0,0:0:0:0:
403,272,74269,1,0,1:0:0:0:
351,217,74427,2,0,B|413:195|413:195|379:173,1,93.5000028533936,0|0,0:0|1:0,0:0:0:0:
413,50,74742,6,0,P|414:105|444:133,1,93.5000028533936,0|0,0:0|1:0,0:0:0:0:
477,72,75058,1,0,3:0:0:0:
354,3,75215,1,8,1:3:0:0:
341,65,75373,1,8,1:3:0:0:
327,128,75531,2,0,L|226:106,1,93.5000028533936,2|0,0:2|0:0,0:0:0:0:
124,189,75847,6,0,B|172:173|172:173|189:226,1,93.5000028533936,0|0,1:0|0:0,0:0:0:0:
296,213,76163,2,0,L|325:305,1,93.5000028533936,0|0,1:0|0:0,0:0:0:0:
327,310,76400,1,0,0:0:0:0:
329,318,76479,1,0,1:0:0:0:
250,287,76637,1,0,0:0:0:0:
224,357,76795,1,0,1:0:0:0:
300,383,76953,2,0,B|276:365|276:365|196:383,1,93.5000028533936,0|0,0:0|1:0,0:0:0:0:
93,372,77268,6,0,P|129:334|113:272,1,93.5000028533936,0|0,0:0|1:0,0:0:0:0:
116,179,77584,1,0,3:0:0:0:
46,188,77742,2,0,L|53:296,1,93.5000028533936,0|0,1:0|0:0,0:0:0:0:
179,223,78058,1,0,3:0:0:0:
185,207,78137,1,0,1:0:0:0:
191,191,78216,2,0,B|189:169|189:169|208:147,1,46.7500014266968,0|0,3:0|3:0,0:0:0:0:
120,51,78374,6,0,B|156:27|156:27|185:68,1,93.5000028533936,0|0,1:0|0:0,0:0:0:0:
306,110,78690,2,0,L|400:98,1,93.5000028533936,0|0,1:0|0:0,0:0:0:0:
409,97,78927,1,0,0:0:0:0:
419,95,79006,1,0,1:0:0:0:
382,173,79164,1,0,0:0:0:0:
416,242,79322,1,0,1:0:0:0:
393,314,79479,1,0,0:0:0:0:
436,367,79636,6,0,B|431:343|431:343|297:354|297:354|298:372|298:372|173:331|173:331|183:299|183:299|138:282,1,382.500014591218,0|4,3:0|0:3,0:0:0:0:
104,74,80900,6,0,B|81:67|81:67|55:85,2,46.7500014266968,4|2|2,1:0|0:0|0:0,0:0:0:0:
225,52,81215,2,0,B|185:41|185:41|168:93,1,93.5000028533936,8|2,0:1|0:0,0:0:0:0:
235,195,81531,2,0,L|191:181,1,46.7500014266968,0|2,1:0|0:0,0:0:0:0:
321,263,81768,2,0,L|303:123,1,140.25000428009,2|2,0:0|0:0,0:0:0:0:
377,88,82163,6,0,B|400:81|400:81|426:99,2,46.7500014266968,0|2|2,1:0|0:0|0:0,0:0:0:0:
433,186,82479,1,8,0:1:0:0:
415,253,82636,1,2,0:0:0:0:
467,310,82794,2,0,L|497:200,1,93.5000028533936,0|2,1:0|0:0,0:0:0:0:
454,115,83110,1,0,0:0:0:0:
457,107,83189,1,2,3:2:0:0:
460,99,83268,2,0,L|449:46,1,46.7500014266968,2|2,3:2|3:2,0:0:0:0:
358,34,83426,6,0,B|336:38|336:38|304:25,2,46.7500014266968,0|2|2,1:0|0:0|0:0,0:0:0:0:
288,91,83742,2,0,B|322:107|322:107|292:177,1,93.5000028533936,8|2,0:1|0:0,0:0:0:0:
228,222,84058,2,0,L|184:208,1,46.7500014266968,0|2,1:0|0:0,0:0:0:0:
300,245,84294,2,0,L|322:387,1,140.25000428009,2|2,0:0|0:0,0:0:0:0:
391,374,84690,6,0,B|402:354|402:354|426:351,2,46.7500014266968,0|2|2,1:0|0:0|0:0,0:0:0:0:
247,338,85005,2,0,B|225:325|225:325|189:330,2,46.7500014266968,8|2|2,0:1|0:0|0:0,0:0:0:0:
321,240,85321,2,0,L|306:169,1,46.7500014266968,8|0,1:3|0:0,0:0:0:0:
293,133,85479,2,0,L|277:69,1,46.7500014266968,8|0,1:3|0:0,0:0:0:0:
242,184,85636,1,2,0:2:0:0:
10,148,85952,6,0,L|120:125,1,85,0|2,1:0|0:0,0:0:0:0:
153,102,86268,2,0,L|39:95,1,85,8|2,0:0|0:0,0:0:0:0:
64,185,86584,2,0,L|176:191,1,85,0|2,1:0|0:0,0:0:0:0:
254,195,86900,2,0,L|145:158,1,85,0|2,0:0|0:0,0:0:0:0:
138,344,87215,6,0,L|154:301,2,42.5,0|2|2,1:0|0:0|0:0,0:0:0:0:
290,262,87531,2,0,L|269:210,2,42.5,8|2|2,0:0|0:0|0:0,0:0:0:0:
169,149,87847,2,0,L|182:107,2,42.5,0|2|2,1:0|0:0|0:0,0:0:0:0:
267,48,88163,2,0,L|251:3,2,42.5,0|0|0,0:0|3:0|3:0,0:0:0:0:
196,42,88479,5,0,1:0:0:0:
270,122,88636,1,2,3:2:0:0:
334,95,88794,2,0,B|344:124|344:124|307:197,1,85,8|2,3:1|3:2,0:0:0:0:
267,267,89110,1,0,3:0:0:0:
331,237,89268,1,2,3:2:0:0:
359,299,89426,1,0,0:0:0:0:
298,336,89584,1,0,3:0:0:0:
294,341,89663,1,0,3:0:0:0:
288,345,89742,6,0,B|269:336|269:336|236:345,2,42.5,0|2|2,3:0|3:2|3:2,0:0:0:0:
147,354,90058,2,0,L|157:311,2,42.5,0|2|2,3:2|3:2|3:2,0:0:0:0:
91,253,90373,1,0,3:0:0:0:
89,184,90531,1,2,3:2:0:0:
149,148,90689,1,0,3:2:0:0:
208,187,90847,1,2,3:2:0:0:
323,134,91005,6,0,B|290:116|290:116|243:127,1,85,6|2,1:0|0:0,0:0:0:0:
286,199,91321,1,8,0:1:0:0:
394,144,91479,2,0,L|400:93,1,42.5,2|2,0:0|0:0,0:0:0:0:
460,64,91636,2,0,L|512:56,2,42.5,0|2|2,1:0|0:0|0:0,0:0:0:0:
406,220,91952,2,0,L|335:206,2,42.5,8|0|2,0:1|0:0|0:0,0:0:0:0:
460,321,92268,6,0,L|477:235,1,85,0|2,1:0|0:0,0:0:0:0:
389,338,92584,1,8,0:1:0:0:
296,279,92742,2,0,B|278:292|278:292|230:287,2,42.5,0|2|0,0:0|0:0|1:0,0:0:0:0:
279,177,93058,2,0,L|266:130,1,42.5
198,203,93215,1,8,0:1:0:0:
173,110,93373,1,0,3:3:0:0:
169,101,93452,1,0,3:3:0:0:
165,91,93531,6,0,L|254:65,1,85,0|2,1:0|0:0,0:0:0:0:
350,153,93847,1,8,0:1:0:0:
375,244,94005,2,0,L|300:212,1,42.5,0|2,0:0|0:0,0:0:0:0:
267,254,94162,2,0,L|258:296,2,42.5,0|0|0,1:0|0:0|0:0,0:0:0:0:
424,362,94479,2,0,L|430:317,2,42.5,8|0|2,0:1|0:0|0:2,0:0:0:0:
330,375,94794,6,0,B|299:360|299:360|229:390,1,85,2|2,1:2|0:0,0:0:0:0:
170,371,95110,1,8,0:1:0:0:
148,299,95268,1,2,0:0:0:0:
220,276,95426,2,0,B|220:253|220:253|210:225,2,42.5,0|0|0,1:0|0:0|3:3,0:0:0:0:
155,142,95742,2,0,B|155:119|155:119|165:91,2,42.5,0|0|0,1:0|0:0|3:3,0:0:0:0:
37,194,96058,6,0,B|84:183|84:183|117:201,1,85,6|2,1:0|0:0,0:0:0:0:
223,166,96374,1,8,0:1:0:0:
278,114,96532,2,0,L|284:63,1,42.5,2|2,0:0|0:0,0:0:0:0:
230,21,96689,2,0,L|187:27,2,42.5,0|2|2,1:0|0:0|0:0,0:0:0:0:
352,108,97005,2,0,L|393:116,2,42.5,8|0|2,0:1|0:0|0:0,0:0:0:0:
293,192,97321,6,0,L|317:280,1,85,0|2,1:0|0:0,0:0:0:0:
244,324,97636,1,8,0:1:0:0:
181,273,97794,1,0,0:0:0:0:
185,261,97873,2,0,L|100:273,1,85,2|0,0:0|0:0,0:0:0:0:
92,207,98110,1,0,0:0:0:0:
215,153,98268,1,8,0:1:0:0:
169,86,98426,1,0,3:3:0:0:
90,101,98584,6,0,B|107:60|107:60|92:-4,1,85,0|2,1:0|0:0,0:0:0:0:
133,171,98900,1,8,0:1:0:0:
66,216,99058,2,0,L|16:213,1,42.5,0|2,0:0|0:0,0:0:0:0:
11,288,99215,2,0,L|23:340,2,42.5,0|0|0,1:0|0:0|0:0,0:0:0:0:
175,243,99532,2,0,L|192:204,2,42.5,8|0|2,0:1|0:0|0:0,0:0:0:0:
150,336,99847,6,0,B|181:322|181:322|250:356,1,85,0|2,1:0|0:0,0:0:0:0:
338,341,100163,1,8,0:1:0:0:
360,269,100321,1,2,0:0:0:0:
288,246,100479,2,0,B|270:261|270:261|237:262,2,42.5,2|0|0,1:0|0:0|3:3,0:0:0:0:
415,164,100795,2,0,B|413:141|413:141|422:112,2,42.5,8|0|0,0:1|0:0|3:3,0:0:0:0:
328,108,101110,5,4,1:0:0:0:
224,162,101268,2,0,B|262:142|262:142|287:177,1,85,2|8,0:1|0:2,0:0:0:0:
420,244,101584,2,0,B|382:224|382:224|357:259,1,85,2|0,0:1|1:1,0:0:0:0:
234,353,101900,1,2,0:1:0:0:
306,312,102058,1,8,0:2:0:0:
210,265,102215,6,0,L|199:361,1,85,2|0,0:1|1:0,0:0:0:0:
128,244,102531,2,0,L|108:152,1,85,2|8,0:1|0:2,0:0:0:0:
241,79,102847,2,0,L|145:100,1,85,2|0,0:1|1:0,0:0:0:0:
306,191,103163,2,0,L|296:149,1,42.5,2|0,0:1|0:0,0:0:0:0:
336,97,103321,2,2,B|351:83|351:83|356:14,1,85,8|0,0:0|0:0,0:1:0:0:
478,132,103636,5,0,1:0:0:0:
425,182,103794,2,0,B|444:223|444:223|500:199,1,85,2|8,0:1|0:0,0:0:0:0:
384,295,104110,2,0,B|348:279|348:279|328:321,1,85,2|0,0:1|1:0,0:0:0:0:
190,341,104426,1,2,0:1:0:0:
182,257,104584,1,8,0:0:0:0:
259,306,104741,6,0,L|227:225,1,85,2|0,0:1|1:0,0:0:0:0:
193,150,105057,2,0,L|304:106,1,85,2|8,0:1|0:0,0:0:0:0:
115,124,105373,2,0,L|35:153,1,85,2|0,0:1|1:0,0:0:0:0:
140,15,105689,2,0,L|162:85,1,42.5,2|0,0:1|0:0,0:0:0:0:
217,73,105847,2,2,B|235:63|235:63|248:0,1,85,8|0,0:0|0:0,0:1:0:0:
336,104,106163,6,0,B|360:117|360:117|408:113,2,59.4999981842042,0|0|8,1:0|3:3|0:1,0:0:0:0:
274,190,106637,1,0,3:3:0:0:
233,246,106794,2,0,L|252:313,2,59.4999981842042,0|0|8,1:0|3:3|0:1,0:0:0:0:
136,182,107268,1,0,3:3:0:0:
134,175,107347,1,0,3:3:0:0:
133,166,107426,6,0,L|155:98,2,59.4999981842042,0|0|8,1:0|3:3|0:1,0:0:0:0:
153,266,107900,1,0,3:0:0:0:
77,316,108058,2,0,L|9:301,2,59.4999981842042,0|0|10,3:0|3:0|3:1,0:0:0:0:
166,368,108531,1,8,3:1:0:0:
174,369,108610,1,0,3:0:0:0:
181,371,108689,6,0,L|302:303,1,118.999996368408,2|2,1:0|1:0,0:0:0:0:
393,151,109321,2,0,L|382:217,1,59.4999981842042,2|0,1:0|3:0,0:0:0:0:
331,110,109636,2,0,L|320:183,1,59.4999981842042,2|0,1:0|3:0,0:0:0:0:
242,159,109952,5,2,1:0:0:0:
232,180,110110,1,2,1:0:0:0:
256,194,110268,1,2,1:0:0:0:
298,124,110426,1,2,1:0:0:0:
237,92,110584,1,2,1:0:0:0:
176,60,110742,1,2,1:0:0:0:
213,5,110900,2,0,B|224:-11|224:-11|296:30,1,89.2499972763062,2|0,1:0|3:0,0:0:0:0:
344,56,111215,6,0,L|358:8,2,29.7499990921021,8|2|2,1:3|0:0|0:0,0:0:0:0:
317,222,111689,6,0,L|280:191,2,29.7499990921021,8|2|2,1:3|0:0|0:0,0:0:0:0:
421,325,112162,6,0,L|435:277,2,29.7499990921021,8|2|2,1:3|0:0|0:0,0:0:0:0:
238,359,112478,5,0,1:0:0:0:
213,286,112636,1,0,1:0:0:0:
110,292,112794,2,0,L|132:233,1,59.4999981842042,2|0,3:3|0:0,0:0:0:0:
144,227,113031,1,0,0:0:0:0:
215,176,113189,1,0,0:0:0:0:
224,153,113268,2,0,L|351:188,1,118.999996368408,0|2,1:0|0:3,0:0:0:0:
304,108,113741,6,0,L|314:59,2,29.7499990921021,8|2|2,1:3|0:0|0:0,0:0:0:0:
249,267,114215,6,0,L|296:257,2,29.7499990921021,8|2|2,1:3|0:0|0:0,0:0:0:0:
109,309,114688,6,0,L|119:260,2,29.7499990921021,8|2|2,1:3|0:0|0:0,0:0:0:0:
183,325,115005,5,0,1:0:0:0:
178,254,115162,1,0,1:0:0:0:
171,173,115320,2,0,L|158:233,1,59.4999981842042,2|0,0:3|0:0,0:0:0:0:
103,154,115557,1,0,0:0:0:0:
104,144,115636,2,0,L|81:116,3,29.7499990921021,2|2|2|2,0:3|0:3|0:3|0:3,0:0:0:0:
115,63,115952,1,4,0:3:0:0:
37,253,116268,6,0,L|134:242,1,85,0|0,1:0|3:0,0:0:0:0:
192,264,116584,1,0,3:0:0:0:
181,330,116741,1,0,3:0:0:0:
251,345,116899,2,0,L|260:299,2,42.5,0|0|0,1:0|0:0|3:0,0:0:0:0:
349,365,117215,2,0,L|404:377,2,42.5,0|0|0,3:0|0:0|3:0,0:0:0:0:
372,264,117531,6,0,L|390:167,1,85,0|0,1:0|3:0,0:0:0:0:
285,144,117847,1,0,3:0:0:0:
298,77,118004,1,0,3:0:0:0:
362,26,118162,2,0,L|419:41,2,42.5,0|0|0,1:0|2:0|3:0,0:0:0:0:
229,70,118478,2,0,L|174:82,2,42.5,0|0|0,3:0|0:0|3:0,0:0:0:0:
148,141,118794,6,0,L|172:240,1,85,0|0,3:0|3:0,0:0:0:0:
267,293,119110,1,0,3:0:0:0:
244,359,119267,1,0,3:0:0:0:
334,353,119425,2,0,L|351:306,2,42.5,0|0|0,3:0|3:0|3:0,0:0:0:0:
390,192,119741,2,0,L|349:174,2,42.5,0|0|0,3:0|3:0|3:0,0:0:0:0:
296,225,120057,5,0,0:0:0:0:
227,57,120373,1,0,0:0:0:0:
184,112,120531,1,0,0:0:0:0:
113,31,120689,2,0,B|103:64|103:64|114:96|114:96|104:125,1,76.4999976654053
66,164,121005,2,0,P|116:170|169:188,1,101.999996887207,0|8,0:0|1:3,0:0:0:0:
