osu file format v14

[General]
AudioFilename: audio.mp3
AudioLeadIn: 0
PreviewTime: 80742
Countdown: 0
SampleSet: Soft
StackLeniency: 0.2
Mode: 0
LetterboxInBreaks: 0
WidescreenStoryboard: 1

[Editor]
Bookmarks: 60665,89046
DistanceSpacing: 1.5
BeatDivisor: 4
GridSize: 4
TimelineZoom: 1.8

[Metadata]
Title:GOODTEK
TitleUnicode:GOODTEK
Artist:EBIMAYO
ArtistUnicode:EBIMAYO
Creator:yf_bmp
Version:Maboyu's Another
Source:大血戦 -THE BMS OF FIGHTERS ULTIMATE-
Tags:GOODPUMP pumpcore hardcore GOODMEN BOFU2015 daikessen BMS MUSYNX Muse Dash 同步音律喵賽克 CHUNITHM Arcaea Dance Rail Phigros Groove Coaster EZ2ON REBOOT SOUND VOLTEX EXCEED GEAR SDVX 6 electronic instrumental sorairokarasu TtmnZk Maboyu AliomLoung Doomsday
BeatmapID:3432911
BeatmapSetID:1680421

[Difficulty]
HPDrainRate:5.5
CircleSize:4
OverallDifficulty:7
ApproachRate:8.5
SliderMultiplier:1.6
SliderTickRate:1

[Events]
//Background and Video events
Video,-100,"o.mp4"
0,0,"bg.jpg",0,0
//Break Periods
//Storyboard Layer 0 (Background)
//Storyboard Layer 1 (Fail)
//Storyboard Layer 2 (Pass)
//Storyboard Layer 3 (Foreground)
//Storyboard Layer 4 (Overlay)
//Storyboard Sound Samples

[TimingPoints]
58,315.789473684211,4,2,2,60,1,0
10162,-100,4,2,1,70,0,0
15689,-100,4,2,1,40,0,0
16478,-100,4,2,1,45,0,0
17110,-100,4,2,1,50,0,0
18057,-100,4,2,1,55,0,0
18373,-100,4,2,1,60,0,0
18689,-100,4,2,1,65,0,0
19005,-100,4,2,1,70,0,0
19084,-100,4,2,1,5,0,0
19162,-100,4,2,1,80,0,0
19320,-100,4,2,1,5,0,0
19399,-100,4,2,1,80,0,0
19557,-100,4,2,1,5,0,0
19636,-100,4,2,1,80,0,0
19715,-100,4,2,1,5,0,0
19794,-100,4,2,1,80,0,0
19873,-100,4,2,1,5,0,0
19952,-100,4,2,1,80,0,0
20110,-100,4,2,1,5,0,0
20268,-100,4,2,1,70,0,0
22478,-100,4,2,1,80,0,0
24057,-83.3333333333333,4,2,1,80,0,0
24294,-83.3333333333333,4,2,1,5,0,0
24373,-83.3333333333333,4,2,1,70,0,0
25320,-100,4,2,1,70,0,0
29347,-100,4,2,1,5,0,0
29426,-100,4,2,1,70,0,0
29662,-100,4,2,1,5,0,0
29741,-100,4,2,1,70,0,0
30057,-66.6666666666667,4,2,1,70,0,0
30373,-100,4,2,1,70,0,0
32426,-76.9230769230769,4,2,1,70,0,0
33057,-100,4,2,1,70,0,0
34952,-76.9230769230769,4,2,1,70,0,0
35584,-100,4,2,1,70,0,0
38505,-100,4,2,1,30,0,0
38584,-100,4,2,1,70,0,0
38662,-100,4,2,1,30,0,0
38741,-100,4,2,1,70,0,0
38820,-100,4,2,1,30,0,0
38899,-100,4,2,1,70,0,0
38978,-100,4,2,1,35,0,0
39057,-100,4,2,1,70,0,0
39136,-100,4,2,1,35,0,0
39215,-100,4,2,1,40,0,0
39531,-100,4,2,1,50,0,0
39847,-100,4,2,1,60,0,0
40162,-100,4,2,1,70,0,0
40478,-133.333333333333,4,2,1,80,0,0
42610,-133.333333333333,4,2,1,5,0,0
42689,-133.333333333333,4,2,1,80,0,0
44820,-133.333333333333,4,2,1,5,0,0
44899,-133.333333333333,4,2,1,80,0,0
45452,-133.333333333333,4,2,1,5,0,0
45531,-133.333333333333,4,2,1,80,0,0
47662,-133.333333333333,4,2,1,5,0,0
47741,-133.333333333333,4,2,1,80,0,0
47899,-100,4,2,1,80,0,0
49873,-100,4,2,1,5,0,0
49952,-100,4,2,1,80,0,0
50505,-100,4,2,1,5,0,0
50584,-100,4,2,2,60,0,0
60689,-100,4,2,1,70,0,0
61952,-100,4,2,2,70,0,0
63215,-100,4,2,1,70,0,0
64478,-100,4,2,2,70,0,0
65426,-100,4,2,1,70,0,0
67636,-100,4,2,1,80,0,0
70715,-100,4,2,1,5,0,0
70794,-66.6666666666667,4,2,1,70,0,0
71110,-100,4,2,1,70,0,0
72057,-66.6666666666667,4,2,1,70,0,0
72373,-100,4,2,1,70,0,0
73320,-66.6666666666667,4,2,1,70,0,0
73636,-100,4,2,1,70,0,0
74584,-66.6666666666667,4,2,1,70,0,0
74899,-100,4,2,1,70,0,0
75215,-100,4,2,1,50,0,0
75531,-76.9230769230769,4,2,1,70,0,0
75689,-76.9230769230769,4,2,1,5,0,0
75847,-66.6666666666667,4,2,1,70,0,0
76162,-100,4,2,1,70,0,0
77110,-66.6666666666667,4,2,1,70,0,0
77426,-100,4,2,1,70,0,0
78373,-66.6666666666667,4,2,1,70,0,0
78689,-100,4,2,1,70,0,0
79636,-100,4,2,1,25,0,0
79952,-100,4,2,1,35,0,0
80268,-100,4,2,1,50,0,0
80426,-100,4,2,1,60,0,0
80584,-100,4,2,1,70,0,0
85636,-76.9230769230769,4,2,1,70,0,0
85952,-100,4,2,1,70,0,0
89505,-100,4,2,1,60,0,0
90057,-100,4,2,1,65,0,0
90373,-100,4,2,1,70,0,0
90689,-100,4,2,1,75,0,0
91005,-83.3333333333333,4,2,1,75,0,1
98268,-66.6666666666667,4,2,1,75,0,1
98426,-83.3333333333333,4,2,1,75,0,1
103162,-66.6666666666667,4,2,1,75,0,1
103636,-83.3333333333333,4,2,1,75,0,1
105689,-66.6666666666667,4,2,1,75,0,1
106162,-100,4,2,1,75,0,1
108689,-80,4,2,1,75,0,1
109005,-66.6666666666667,4,2,1,75,0,1
109320,-57.1428571428571,4,2,1,75,0,1
109478,-57.1428571428571,4,2,1,25,0,1
109636,-50,4,2,1,75,0,1
109794,-100,4,2,1,30,0,1
109952,-100,4,2,1,75,0,1
110031,-100,4,2,1,35,0,1
110110,-100,4,2,1,75,0,1
110189,-100,4,2,1,40,0,1
110268,-100,4,2,1,75,0,1
110347,-100,4,2,1,45,0,1
110426,-100,4,2,1,75,0,1
110505,-100,4,2,1,50,0,1
110584,-100,4,2,1,75,0,1
110662,-100,4,2,1,55,0,1
110741,-100,4,2,1,75,0,1
110820,-100,4,2,1,60,0,1
110899,-100,4,2,1,75,0,1
110978,-100,4,2,1,65,0,1
111057,-100,4,2,1,75,0,1
111136,-100,4,2,1,70,0,1
111215,-100,4,2,1,70,0,0
112478,-100,4,2,2,70,0,0
113741,-100,4,2,1,70,0,0
115005,-100,4,2,2,70,0,0
115952,-100,4,2,1,70,0,0

[Colours]
Combo1 : 240,189,36
Combo2 : 83,169,12
Combo3 : 71,103,228
Combo4 : 220,58,46

[HitObjects]
254,194,58,5,4,2:0:0:0:
166,79,216,1,2,2:0:0:0:
166,79,374,1,2,2:0:0:0:
166,79,532,1,2,2:0:0:0:
161,174,690,1,2,2:0:0:0:
161,174,848,1,2,2:0:0:0:
161,174,1006,1,2,2:0:0:0:
254,194,1163,5,2,2:0:0:0:
254,194,1321,1,2,2:0:0:0:
254,194,1479,1,2,2:0:0:0:
254,194,1637,1,2,2:0:0:0:
348,174,1795,1,2,2:0:0:0:
348,174,1953,1,2,2:0:0:0:
348,174,2111,1,2,2:0:0:0:
348,174,2269,1,2,2:0:0:0:
346,79,2427,1,2,2:0:0:0:
435,123,2584,5,2,2:0:0:0:
435,123,2742,1,2,2:0:0:0:
437,219,2900,1,2,2:0:0:0:
437,219,3058,1,2,2:0:0:0:
437,219,3215,1,2,2:0:0:0:
340,268,3373,1,2,2:0:0:0:
340,268,3532,1,2,2:0:0:0:
340,268,3689,1,2,2:0:0:0:
234,123,3847,5,2,2:0:0:0:
234,123,4005,1,2,2:0:0:0:
260,215,4163,1,2,2:0:0:0:
260,215,4321,1,2,2:0:0:0:
260,215,4479,1,2,2:0:0:0:
340,268,4637,1,2,2:0:0:0:
340,268,4795,1,2,2:0:0:0:
340,268,4953,1,2,2:0:0:0:
184,274,5111,5,2,2:0:0:0:
184,274,5269,1,2,2:0:0:0:
184,274,5427,1,2,2:0:0:0:
260,215,5585,1,2,2:0:0:0:
260,215,5742,1,2,2:0:0:0:
260,215,5900,1,2,2:0:0:0:
172,175,6058,1,2,2:0:0:0:
260,215,6216,5,2,2:0:0:0:
260,215,6374,1,2,2:0:0:0:
260,215,6532,1,2,2:0:0:0:
260,215,6690,1,2,2:0:0:0:
297,303,6848,1,2,2:0:0:0:
297,303,7006,1,2,2:0:0:0:
297,303,7164,1,2,2:0:0:0:
297,303,7322,1,2,2:0:0:0:
392,295,7480,1,2,2:0:0:0:
362,204,7637,6,0,L|402:157,3,40,2|0|2|0,2:0|0:0|2:0|0:0,0:0:0:0:
300,150,7953,2,0,L|255:100,3,40,2|0|2|0,2:0|0:0|2:0|0:0,0:0:0:0:
364,94,8269,6,0,L|421:56,3,40,2|0|2|0,2:0|0:0|2:0|0:0,0:0:0:0:
296,42,8585,2,0,L|248:3,3,40,2|0|2|0,2:0|0:0|2:0|0:0,0:0:0:0:
364,94,8901,2,0,L|416:131,3,40,2|0|2|0,2:0|0:0|2:0|0:0,0:0:0:0:
273,120,9216,6,0,L|256:163,3,40,2|0|2|0,2:0|0:0|2:0|0:0,0:0:0:0:
352,190,9532,2,0,L|376:241,3,40,2|0|2|0,2:0|0:0|2:0|0:0,0:0:0:0:
278,236,9848,2,0,L|239:288,3,40,2|0|2|0,2:0|0:0|2:0|0:0,0:0:0:0:
214,327,10164,6,0,P|146:321|103:343,1,80,0|0,1:0|0:0,0:0:0:0:
43,212,10480,2,0,L|31:169,3,40,0|2|2|2,3:3|0:0|0:0|0:0,0:0:0:0:
16,102,10795,2,0,P|86:80|121:90,1,80,0|0,1:0|0:0,0:0:0:0:
202,173,11111,2,0,L|190:130,3,40,0|2|2|2,3:0|0:0|0:0|0:0,0:0:0:0:
175,63,11427,2,0,P|245:41|280:51,1,80,0|0,1:0|0:0,0:0:0:0:
359,134,11743,2,0,L|347:91,3,40,0|2|2|2,3:0|0:0|0:0|0:0,0:0:0:0:
332,24,12058,2,0,P|402:2|437:12,1,80,0|2,1:0|0:0,0:0:0:0:
458,138,12374,6,0,L|470:181,3,40,0|2|2|2,3:0|0:0|0:0|0:0,0:0:0:0:
485,248,12690,2,0,P|415:270|380:260,1,80,0|2,1:0|0:0,0:0:0:0:
289,189,13006,2,0,L|301:232,3,40,0|0|2|2,3:0|0:0|0:0|0:0,0:0:0:0:
316,299,13322,2,0,P|246:321|211:311,1,80,0|2,1:0|0:0,0:0:0:0:
131,227,13637,2,0,L|143:270,3,40,0|0|2|2,3:0|0:0|0:0|0:0,0:0:0:0:
158,337,13953,2,0,P|88:359|53:349,1,80,0|2,1:0|2:0,0:0:0:0:
131,227,14269,6,0,L|232:216,1,80,0|2,3:0|0:0,0:0:0:0:
401,166,14585,2,0,L|322:175,1,80,0|2,1:0|2:0,0:0:0:0:
164,92,14901,2,0,L|243:83,1,80,8|2,3:1|0:0,0:0:0:0:
336,6,15216,6,0,L|334:107,1,80,0|2,1:0|0:0,0:0:0:0:
363,281,15532,2,0,L|363:201,1,80,8|2,0:1|3:2,0:0:0:0:
465,55,15848,2,0,L|464:134,1,80,0|0,1:0|3:0,0:0:0:0:
482,294,16164,6,0,L|481:333,3,40,8|2|2|2,3:1|3:2|3:2|3:2,0:0:0:0:
404,230,16480,2,0,L|404:270,3,40,0|0|0|0,1:0|3:0|3:0|3:0,0:0:0:0:
325,182,16795,2,0,L|325:222,3,40,8|2|2|2,3:1|3:2|3:2|3:2,0:0:0:0:
242,223,17111,6,0,L|242:277,3,40,0|0|2|0,1:0|3:0|2:0|3:0,0:0:0:0:
161,257,17427,2,0,L|160:312,3,40,8|2|2|2,3:1|3:2|3:2|3:2,0:0:0:0:
80,290,17743,2,0,L|80:330,3,40,0|0|2|2,1:0|3:0|3:2|3:2,0:0:0:0:
91,209,18059,5,8,3:1:0:0:
87,177,18137,1,2,3:2:0:0:
92,145,18216,1,2,3:2:0:0:
104,116,18295,1,2,3:2:0:0:
124,91,18374,1,0,3:0:0:0:
149,71,18453,1,2,3:2:0:0:
178,58,18532,1,2,3:2:0:0:
210,54,18611,1,0,3:2:0:0:
242,57,18690,1,0,3:2:0:0:
271,68,18769,1,2,3:2:0:0:
298,86,18848,1,2,3:2:0:0:
318,110,18927,1,2,3:2:0:0:
256,192,19006,12,4,19953,2:3:0:0:
165,196,20269,6,0,P|162:235|170:274,1,80,0|0,1:0|0:0,0:0:0:0:
341,274,20585,2,0,P|349:235|346:196,1,80,0|0,3:3|0:0,0:0:0:0:
168,181,20901,2,0,P|158:219|159:259,1,80,0|0,1:0|0:0,0:0:0:0:
353,260,21216,2,0,P|355:220|345:181,1,80,0|0,3:3|0:0,0:0:0:0:
166,159,21532,2,0,P|156:197|157:237,1,80,0|0,1:0|0:0,0:0:0:0:
354,237,21848,2,0,P|355:197|346:159,1,80,0|0,3:3|0:0,0:0:0:0:
292,79,22164,2,0,L|209:27,1,80,0|0,1:0|0:0,0:0:0:0:
133,1,22480,2,0,L|134:40,3,40,2|2|2|2,0:0|0:0|0:0|0:0,0:0:0:0:
112,84,22795,6,0,P|72:97|24:76,1,80,0|0,1:0|0:0,0:0:0:0:
31,183,23111,2,0,L|25:276,1,80,0|0,3:3|0:0,0:0:0:0:
127,340,23427,2,0,L|122:261,1,80,0|0,1:0|0:0,0:0:0:0:
223,169,23743,2,0,L|217:249,1,80,0|0,3:3|0:0,0:0:0:0:
144,134,24058,6,0,P|167:80|339:149,1,287.999991210938,8|0,0:2|0:0,0:0:0:0:
338,250,24690,2,0,P|241:338|144:250,1,287.999991210938,0|2,0:0|0:0,0:0:0:0:
143,249,25321,5,0,1:0:0:0:
286,178,25479,1,0,0:0:0:0:
219,111,25637,2,0,L|218:31,1,80,8|0,3:2|0:0,0:0:0:0:
148,177,25953,1,0,1:0:0:0:
72,117,26111,2,0,L|71:37,1,80,0|8,0:0|3:2,0:0:0:0:
148,177,26427,1,0,0:0:0:0:
219,31,26585,6,0,L|218:110,1,80,0|0,1:0|0:0,0:0:0:0:
286,178,26900,1,8,3:2:0:0:
354,31,27058,2,0,L|355:111,1,80,0|0,0:0|1:0,0:0:0:0:
428,174,27374,1,0,0:0:0:0:
259,225,27532,6,0,L|256:155,4,40,2|2|2|2|0,0:0|0:0|0:0|0:0|1:0,0:0:0:0:
193,326,28006,2,0,L|107:331,2,80,0|8|0,0:0|3:2|0:0,0:0:0:0:
313,321,28479,2,0,L|399:326,2,80,0|0|8,1:0|0:0|3:2,0:0:0:0:
257,41,29111,5,8,1:3:0:0:
257,41,29427,1,8,1:3:0:0:
96,196,29742,1,8,1:3:0:0:
96,196,29900,1,8,1:3:0:0:
96,196,30058,2,0,L|251:201,1,120.000004577637,2|0,0:0|0:0,0:0:0:0:
278,130,30374,5,0,1:0:0:0:
345,198,30532,2,0,P|343:237|346:281,1,80,2|8,0:1|0:2,0:0:0:0:
427,226,30848,2,0,L|425:146,1,80,2|0,0:1|1:0,0:0:0:0:
346,118,31164,2,0,L|344:197,1,80,2|8,0:1|0:2,0:0:0:0:
266,141,31479,2,0,L|266:221,1,80,2|0,0:1|1:0,0:0:0:0:
183,171,31795,2,0,L|183:254,1,80,2|8,0:1|0:2,0:0:0:0:
105,192,32111,2,0,L|106:276,1,80,2|0,0:1|1:0,0:0:0:0:
25,300,32427,1,2,0:1:0:0:
25,300,32585,2,2,L|25:69,1,207.999990478516,8|0,0:2|1:0,0:1:0:0:
167,198,33058,6,0,P|168:237|166:281,1,80,2|8,0:1|0:0,0:0:0:0:
85,226,33374,2,0,L|86:146,1,80,2|0,0:1|1:0,0:0:0:0:
166,118,33690,2,0,L|168:204,1,80,2|8,0:1|0:0,0:0:0:0:
246,141,34006,2,0,L|246:221,1,80,2|0,0:1|1:0,0:0:0:0:
329,171,34322,2,0,L|329:254,1,80,2|8,0:1|0:0,0:0:0:0:
407,192,34637,2,0,L|407:272,1,80,2|0,0:1|1:0,0:0:0:0:
487,160,34953,1,2,3:1:0:0:
487,160,35111,2,2,L|487:368,1,207.999990478516,8|0,3:2|1:0,0:1:0:0:
395,337,35585,5,0,3:3:0:0:
443,254,35742,1,0,3:3:0:0:
394,170,35900,1,0,3:3:0:0:
411,75,36058,1,0,1:0:0:0:
324,33,36216,1,0,3:3:0:0:
261,106,36374,1,0,3:3:0:0:
308,185,36532,1,0,3:3:0:0:
308,185,36611,1,0,3:3:0:0:
308,185,36690,1,0,1:0:0:0:
263,270,36848,5,0,3:3:0:0:
316,350,37006,1,0,3:3:0:0:
220,354,37163,1,0,3:3:0:0:
166,273,37321,1,0,1:0:0:0:
114,353,37479,1,0,3:3:0:0:
8,352,37637,1,2,3:1:0:0:
61,272,37795,1,0,3:3:0:0:
61,272,37874,1,0,3:3:0:0:
61,272,37952,6,0,P|61:229|73:183,1,80,2|0,0:1|1:0,0:0:0:0:
216,213,38268,2,0,P|214:252|206:292,1,80,2|0,0:1|1:0,0:0:0:0:
152,140,38584,2,0,P|152:100|160:60,1,80,2|0,3:1|1:0,0:0:0:0:
305,75,38900,2,0,P|305:115|297:155,1,80,2|0,3:1|1:0,0:0:0:0:
216,213,39215,6,0,L|217:262,3,40,0|2|2|0,0:3|3:2|3:2|3:2,0:0:0:0:
246,270,39531,2,0,L|243:327,3,40,2|2|0|0,3:2|3:2|3:2|3:0,0:0:0:0:
259,338,39847,1,0,3:0:0:0:
285,356,39927,1,2,3:2:0:0:
314,366,40005,1,2,3:2:0:0:
345,370,40084,1,0,3:2:0:0:
376,366,40163,1,0,3:2:0:0:
403,350,40242,1,2,3:2:0:0:
426,328,40321,1,2,3:2:0:0:
442,300,40400,1,0,3:2:0:0:
449,266,40479,6,0,B|389:265|389:265|341:237|341:237|325:266|325:266|287:185|287:185|251:196|251:196|228:231|228:231|255:289,1,360.000013732911,2|2,0:2|0:0,0:0:0:0:
241,359,41585,2,0,B|180:352|180:352|120:234,1,180.000006866455,2|2,0:0|0:0,0:0:0:0:
184,175,42216,1,0,0:0:0:0:
93,102,42373,6,0,P|87:132|95:161,1,60.0000022888184,2|0,0:0|0:0,0:0:0:0:
184,175,42689,1,0,0:0:0:0:
199,86,42847,2,0,B|237:54|297:46|297:46|345:67|346:137|346:137|390:150|390:150|385:215,1,300.000011444092,2|0,0:0|0:0,0:0:0:0:
304,286,43794,6,0,L|306:227,1,60.0000022888184,2|0,0:0|0:0,0:0:0:0:
234,171,44110,2,0,B|262:128|317:133|317:133|349:83|349:83|417:68|417:68|456:86,1,240.000009155274,2|0,0:0|0:0,0:0:0:0:
498,133,44900,2,0,L|491:317,1,180.000006866455,2|0,0:0|0:0,0:0:0:0:
404,341,45532,6,0,B|375:305|375:305|324:334|324:334|289:319|289:319|288:282|288:282|341:238|341:238|313:181,1,300.000011444092,2|0,0:0|0:0,0:0:0:0:
252,131,46479,1,2,0:0:0:0:
209,210,46637,6,0,B|190:251|190:251|191:334,1,120.000004577637,2|0,0:0|0:0,0:0:0:0:
101,338,47111,2,0,B|80:354|80:354|35:349,1,60.0000022888184,2|0,0:0|0:0,0:0:0:0:
54,259,47427,2,0,B|75:243|75:243|120:248,1,60.0000022888184,2|0,0:0|0:0,0:0:0:0:
190,296,47742,1,2,0:0:0:0:
203,200,47900,6,0,B|185:161|185:161|208:126|208:126|244:115|244:115|274:137|274:137|282:196|282:196|310:182|310:182|333:193|333:193|352:218|352:218|377:223|377:223|408:204|408:204|391:145,1,400,2|0,0:0|0:0,0:0:0:0:
440,34,48848,2,0,P|464:65|467:105,1,80,2|2,0:0|0:0,0:0:0:0:
477,200,49163,6,0,P|328:212|398:92,1,320,2|0,0:0|0:0,0:0:0:0:
400,175,49953,2,0,B|342:175|342:175|282:138|282:138|240:177|231:238|272:262,1,240,2|0,0:0|0:0,0:0:0:0:
189,313,50585,6,0,B|149:278|154:227|154:227|130:199|130:199|131:147|131:147|117:123|117:123|87:140|87:140|68:159|59:198|59:198|47:244|47:244|69:311,1,400,4|2,0:0|0:0,0:0:0:0:
63,376,51531,1,0,0:0:0:0:
151,337,51689,2,0,B|194:308|203:272|203:272|251:254|258:189,1,160,2|0,0:0|0:0,0:0:0:0:
249,122,52164,6,0,P|210:129|178:154,1,80,2|0,0:0|0:0,0:0:0:0:
298,304,52479,2,0,P|346:243|335:166,1,160,2|2,0:0|0:0,0:0:0:0:
252,219,52953,6,0,B|336:236|336:236|356:252|356:252|380:243|380:243|413:242|413:242|457:298|457:298|504:276|519:246|518:194|481:162,1,400,2|0,0:0|0:0,0:0:0:0:
422,27,53901,2,0,P|410:64|415:104,1,80,2|2,0:0|0:0,0:0:0:0:
334,156,54216,6,0,B|277:145|277:145|298:83|288:54|253:46|253:46|211:62|179:111|195:193,1,320,2|0,0:0|0:0,0:0:0:0:
189,272,55006,2,0,P|92:209|108:98,1,240,2|0,0:0|0:0,0:0:0:0:
191,165,55637,6,0,L|356:164,1,160,2|0,0:0|0:0,0:0:0:0:
372,22,56111,2,0,P|392:97|351:164,1,160,2|0,0:0|0:0,0:0:0:0:
301,84,56585,1,2,0:2:0:0:
251,241,56742,6,0,P|242:203|250:164,1,80,2|0,0:0|0:0,0:0:0:0:
189,88,57058,2,0,B|146:79|146:79|80:86,1,80,2|0,0:0|0:0,0:0:0:0:
48,156,57373,2,0,P|41:230|38:349,1,160,2|0,0:0|0:0,0:0:0:0:
131,338,57847,2,0,P|182:317|232:326,1,80,2|2,0:0|0:0,0:0:0:0:
304,329,58163,6,0,L|308:249,1,80
389,194,58480,1,2,0:0:0:0:
308,249,58637,1,0,0:0:0:0:
299,153,58794,2,0,P|258:148|228:95,1,80
37,112,59111,1,0,0:0:0:0:
134,114,59269,1,2,0:0:0:0:
86,30,59427,5,0,0:0:0:0:
182,31,59585,1,0,0:0:0:0:
134,114,59742,1,2,0:0:0:0:
86,197,59900,1,0,0:0:0:0:
182,202,60058,1,0,0:0:0:0:
232,120,60216,1,0,0:0:0:0:
134,114,60374,1,0,0:0:0:0:
37,112,60532,1,2,0:0:0:0:
86,216,60690,6,0,P|79:257|83:320,1,80,8|2,1:3|0:0,0:0:0:0:
158,351,61006,1,2,3:2:0:0:
329,327,61164,2,0,L|250:329,1,80,8|2,1:3|0:0,0:0:0:0:
190,252,61479,1,2,3:2:0:0:
246,97,61637,2,0,P|254:136|250:176,1,80,8|2,1:3|0:0,0:0:0:0:
346,231,61953,5,0,1:0:0:0:
346,231,62032,1,0,0:0:0:0:
346,231,62111,1,0,1:0:0:0:
424,174,62269,2,0,L|372:146,3,40,2|0|0|0,0:3|0:0|0:0|0:0,0:0:0:0:
375,108,62585,2,0,L|316:120,3,40,0|0|0|0,0:0|0:0|1:0|0:0,0:0:0:0:
288,124,62901,2,0,L|283:43,1,80,0|2,0:0|0:3,0:0:0:0:
186,38,63216,6,0,P|151:57|111:59,1,80,8|2,1:3|0:0,0:0:0:0:
21,25,63532,1,0,3:0:0:0:
43,199,63690,2,0,L|31:120,1,80,8|2,1:3|0:0,0:0:0:0:
111,59,64006,1,2,3:2:0:0:
250,119,64164,2,0,P|215:136|178:126,1,80,8|2,1:3|0:0,0:0:0:0:
133,211,64479,5,0,1:0:0:0:
133,211,64637,1,0,1:0:0:0:
226,231,64795,2,0,L|230:310,1,80,2|0,3:0|0:0,0:0:0:0:
316,353,65111,2,0,L|361:348,4,40,2|2|2|2|4,0:3|0:3|0:3|0:3|0:3,0:0:0:0:
158,360,65742,5,0,3:0:0:0:
84,297,65900,1,0,1:0:0:0:
59,204,66058,1,0,3:0:0:0:
101,118,66216,1,0,3:0:0:0:
163,190,66374,1,0,3:0:0:0:
188,282,66532,1,0,3:0:0:0:
255,350,66690,1,0,3:0:0:0:
317,277,66848,1,0,3:0:0:0:
317,277,66927,1,0,3:0:0:0:
317,277,67006,1,0,3:0:0:0:
354,189,67163,5,0,3:0:0:0:
397,103,67321,1,0,3:0:0:0:
445,186,67479,1,0,3:0:0:0:
469,278,67637,1,0,3:0:0:0:
393,337,67795,1,0,3:0:0:0:
317,277,67953,1,0,3:0:0:0:
354,189,68111,1,0,3:0:0:0:
276,132,68269,6,0,L|270:171,3,40,0|0|0|0,3:0|3:0|3:0|3:0,0:0:0:0:
231,193,68585,2,0,L|236:246,3,40,0|0|0|0,3:0|3:0|3:0|3:0,0:0:0:0:
233,248,68900,1,0,3:0:0:0:
230,263,68980,1,0,3:0:0:0:
226,278,69059,1,0,3:0:0:0:
222,294,69137,1,0,3:0:0:0:
217,309,69216,1,0,3:0:0:0:
213,325,69295,1,0,3:0:0:0:
209,340,69374,1,0,3:0:0:0:
206,356,69453,1,0,3:0:0:0:
256,192,69531,12,0,70478,0:0:0:0:
134,218,70795,6,0,P|79:170|160:205,1,240.000009155274,0|0,1:0|1:0,0:0:0:0:
217,266,71269,2,0,L|217:306,1,40
258,332,71427,2,0,L|359:308,1,80,0|0,1:0|0:0,0:0:0:0:
430,299,71743,2,0,P|434:259|424:220,1,80,0|0,1:0|0:0,0:0:0:0:
330,197,72058,6,0,P|273:117|354:172,1,240.000009155274,0|0,1:0|1:0,0:0:0:0:
444,99,72532,1,0,3:0:0:0:
379,27,72690,2,0,L|266:27,1,80,0|0,1:2|0:0,0:0:0:0:
214,73,73006,2,0,L|213:33,3,40,0|0|0|0,1:0|1:0|3:0|3:0,0:0:0:0:
236,120,73321,6,0,P|162:185|208:98,1,240.000009155274,0|0,1:0|1:0,0:0:0:0:
102,33,73795,1,0,0:0:0:0:
102,33,73874,1,0,0:0:0:0:
102,33,73953,2,0,L|-1:33,1,80,0|0,1:0|0:0,0:0:0:0:
43,127,74269,2,0,P|33:168|34:236,1,80,0|0,1:0|0:0,0:0:0:0:
109,261,74585,6,0,P|160:302|77:279,1,240.000009155274,0|0,1:0|1:0,0:0:0:0:
30,205,75058,1,0,3:0:0:0:
117,166,75216,1,8,1:3:0:0:
117,166,75374,1,8,1:3:0:0:
117,166,75532,2,0,L|236:163,1,103.999995239258,2|0,0:2|0:0,0:0:0:0:
333,183,75848,6,0,B|341:84|238:66|238:66|318:55,1,240.000009155274,0|0,1:0|1:0,0:0:0:0:
402,9,76322,2,0,L|403:49,1,40
437,82,76479,2,0,P|472:124|456:180,1,80,0|0,1:0|0:0,0:0:0:0:
444,240,76795,2,0,L|346:246,1,80,0|0,1:0|0:0,0:0:0:0:
388,340,77111,6,0,B|289:354|264:253|264:253|259:333,1,240.000009155274,0|0,1:0|1:0,0:0:0:0:
172,360,77585,1,0,3:0:0:0:
168,264,77743,2,0,L|168:164,1,80,0|0,1:0|0:0,0:0:0:0:
248,132,78058,2,0,L|248:172,3,40,0|0|0|0,3:0|1:0|3:0|3:0,0:0:0:0:
248,228,78374,6,0,B|347:242|372:141|372:141|377:221,1,240.000009155274,0|0,1:0|1:0,0:0:0:0:
428,292,78848,1,0,0:0:0:0:
428,292,78926,1,0,0:0:0:0:
428,292,79006,1,0,1:0:0:0:
476,208,79163,1,0,0:0:0:0:
476,208,79322,2,0,P|472:132|488:96,1,80,0|0,1:0|0:0,0:0:0:0:
342,105,79637,6,0,L|364:72,3,40,0|0|0|0,3:0|3:0|3:0|3:0,0:0:0:0:
264,68,79953,2,0,L|260:28,3,40,0|0|0|0,3:0|3:0|3:0|3:0,0:0:0:0:
204,123,80269,2,0,L|176:96,3,40,0|0|0|0,3:0|3:0|3:0|3:0,0:0:0:0:
280,160,80585,1,4,0:3:0:0:
448,111,80901,6,0,L|452:72,2,40,4|2|2,1:0|0:0|0:0,0:0:0:0:
472,204,81216,2,0,L|476:244,2,40,8|2|2,0:1|0:0|0:0,0:0:0:0:
376,184,81532,5,0,1:0:0:0:
372,216,81611,1,2,0:0:0:0:
348,236,81690,1,2,0:0:0:0:
344,268,81769,1,2,0:0:0:0:
256,308,81927,2,0,L|248:240,1,40,2|2,0:0|0:0,0:0:0:0:
172,212,82164,6,0,L|175:172,2,40,0|2|2,1:0|0:0|0:0,0:0:0:0:
100,276,82480,2,0,L|96:320,2,40,8|2|2,0:1|0:0|0:0,0:0:0:0:
56,188,82795,1,0,1:0:0:0:
76,163,82874,1,2,0:0:0:0:
74,132,82953,1,2,0:0:0:0:
95,107,83032,1,2,0:0:0:0:
184,76,83190,6,0,L|224:68,2,40,2|2|2,3:2|3:2|3:2,0:0:0:0:
256,108,83427,2,0,L|295:101,2,40,0|2|2,1:0|0:0|0:0,0:0:0:0:
356,176,83743,6,0,L|352:220,2,40,8|2|2,0:1|0:0|0:0,0:0:0:0:
420,100,84058,1,0,1:0:0:0:
434,128,84136,1,2,0:0:0:0:
464,139,84215,1,2,0:0:0:0:
478,167,84294,1,2,0:0:0:0:
476,264,84453,2,0,L|476:320,1,40,2|2,0:0|0:0,0:0:0:0:
380,304,84690,6,0,L|376:348,2,40,0|2|2,1:0|0:0|0:0,0:0:0:0:
336,216,85006,2,0,L|339:176,2,40,8|2|2,0:1|0:0|0:0,0:0:0:0:
276,312,85322,5,8,1:3:0:0:
192,216,85480,1,8,1:3:0:0:
264,96,85637,2,0,P|275:97|380:92,1,103.999995239258,2|0,0:2|0:0,0:0:0:0:
444,184,85953,6,0,L|448:144,2,40,0|2|2,1:0|0:0|0:0,0:0:0:0:
460,280,86269,2,0,L|464:320,2,40,8|2|2,0:0|0:0|0:0,0:0:0:0:
368,244,86585,5,0,1:0:0:0:
336,236,86664,1,2,0:0:0:0:
304,228,86742,1,2,0:0:0:0:
272,220,86821,1,2,0:0:0:0:
204,152,86980,2,0,L|201:112,1,40,2|2,0:0|0:0,0:0:0:0:
120,160,87216,6,0,L|116:200,2,40,0|2|2,1:0|0:0|0:0,0:0:0:0:
128,64,87532,2,0,L|146:28,2,40,8|2|2,0:0|0:0|0:0,0:0:0:0:
48,116,87848,1,0,1:0:0:0:
36,148,87927,1,2,0:0:0:0:
24,176,88005,1,2,0:0:0:0:
12,204,88084,1,2,0:0:0:0:
68,280,88243,6,0,L|108:272,2,40,0|0|0,3:0|3:0|3:0,0:0:0:0:
140,312,88480,2,0,L|179:305,2,40,0|2|2,1:0|0:0|3:2,0:0:0:0:
244,232,88795,6,0,L|248:192,2,40,8|2|2,3:1|0:0|3:2,0:0:0:0:
336,256,89111,1,0,3:0:0:0:
340,228,89190,1,2,0:0:0:0:
344,200,89269,1,2,3:2:0:0:
348,172,89348,1,2,0:0:0:0:
436,216,89506,2,0,L|432:280,2,40,2|0|0,3:2|3:0|3:0,0:0:0:0:
436,188,89743,5,0,1:0:0:0:
429,171,89822,1,2,3:2:0:0:
429,151,89901,1,2,3:2:0:0:
436,134,89979,1,0,3:2:0:0:
440,104,90059,5,0,3:2:0:0:
413,87,90136,1,2,3:2:0:0:
379,84,90215,1,2,3:2:0:0:
352,88,90295,1,0,3:2:0:0:
324,64,90374,5,0,3:0:0:0:
292,44,90453,1,2,3:2:0:0:
256,52,90532,1,2,3:2:0:0:
228,76,90610,1,0,3:2:0:0:
200,100,90690,5,0,3:2:0:0:
164,104,90769,1,2,3:2:0:0:
128,100,90848,1,2,3:2:0:0:
96,88,90926,1,0,3:2:0:0:
48,92,91006,6,0,P|32:132|52:204,1,95.9999970703126,6|2,1:0|0:0,0:0:0:0:
49,365,91322,2,0,P|69:322|67:275,1,95.9999970703126,8|2,0:1|0:0,0:0:0:0:
140,208,91637,1,0,1:0:0:0:
232,240,91795,2,0,P|289:250|334:233,1,95.9999970703126,2|8,0:0|0:1,0:0:0:0:
467,159,92111,6,0,P|410:146|364:160,1,95.9999970703126,2|0,0:0|1:1,0:0:0:0:
277,130,92427,1,2,0:0:0:0:
236,42,92585,2,0,B|189:42,2,47.9999985351563,8|2|0,0:1|0:0|0:0,0:0:0:0:
113,102,92900,2,0,P|145:161|103:215,1,143.999995605469,0|0,1:0|0:0,0:0:0:0:
63,242,93216,2,0,P|110:241|158:249,1,95.9999970703126,8|0,0:1|3:3,0:0:0:0:
248,213,93532,5,0,1:0:0:0:
137,343,93690,1,2,0:0:0:0:
228,312,93848,2,0,B|287:308,3,47.9999985351563,8|2|0|2,0:1|0:0|0:0|0:0,0:0:0:0:
323,315,94164,2,0,P|360:255|331:188,1,143.999995605469,0|0,1:0|0:0,0:0:0:0:
341,143,94479,2,0,L|440:136,1,95.9999970703126,8|2,0:1|0:2,0:0:0:0:
444,39,94795,5,2,1:2:0:0:
407,28,94874,1,2,0:0:0:0:
375,50,94953,1,2,0:0:0:0:
338,36,95032,1,2,0:0:0:0:
300,66,95111,2,0,B|253:67|253:67|216:62,1,47.9999985351563,8|2,0:1|0:0,0:0:0:0:
219,30,95269,2,0,B|141:31|141:31|113:47,1,95.9999970703126,2|0,0:0|1:0,0:0:0:0:
29,49,95585,2,0,B|37:76|37:76|18:168,1,95.9999970703126,0|0,3:3|1:0,0:0:0:0:
77,222,95900,1,0,3:3:0:0:
77,222,95979,1,0,3:3:0:0:
77,222,96058,6,0,B|116:222|116:222|123:228|123:228|171:230,1,95.9999970703126,6|2,1:0|0:0,0:0:0:0:
230,78,96374,2,0,P|253:119|242:165,1,95.9999970703126,8|2,0:1|0:0,0:0:0:0:
245,188,96610,1,2,0:0:0:0:
259,207,96689,1,0,1:0:0:0:
279,219,96768,1,2,0:0:0:0:
301,227,96848,2,0,L|417:227,1,95.9999970703126,2|8,0:0|0:1,0:0:0:0:
473,72,97164,6,0,B|486:114|486:114|469:163,1,95.9999970703126,2|0,0:0|1:0,0:0:0:0:
397,227,97479,1,2,0:0:0:0:
397,227,97558,1,2,0:0:0:0:
397,227,97637,2,0,B|407:312,2,47.9999985351563,8|2|0,0:1|0:0|0:0,0:0:0:0:
349,142,97953,2,0,L|248:145,1,95.9999970703126,0|0,1:0|0:0,0:0:0:0:
257,48,98269,6,0,B|181:26|181:26|132:33,1,120.000004577637,8|0,0:1|3:3,0:0:0:0:
113,51,98505,1,0,3:3:0:0:
110,84,98585,6,0,L|93:217,1,95.9999970703126,0|2,1:0|0:0,0:0:0:0:
165,246,98900,1,8,0:1:0:0:
222,169,99058,2,0,B|254:177|282:169,1,47.9999985351563,0|2,0:0|0:0,0:0:0:0:
317,162,99216,2,0,B|310:114|310:114|313:90|313:90|308:67,1,95.9999970703126,0|0,1:0|0:0,0:0:0:0:
405,122,99532,2,0,B|407:171|407:171|412:189|412:189|419:257,1,95.9999970703126,8|2,0:1|0:0,0:0:0:0:
478,288,99848,5,0,1:0:0:0:
318,218,100006,1,2,0:0:0:0:
508,193,100163,1,8,0:1:0:0:
371,303,100321,1,2,0:0:0:0:
371,303,100400,1,2,0:0:0:0:
371,303,100479,5,2,1:0:0:0:
423,128,100637,1,0,3:3:0:0:
219,86,100794,1,8,0:1:0:0:
161,262,100953,1,0,3:0:0:0:
161,262,101032,1,0,3:0:0:0:
161,262,101111,6,0,P|154:308|166:362,1,95.9999970703126,4|2,1:0|0:1,0:0:0:0:
346,351,101427,2,0,P|357:305|348:258,1,95.9999970703126,8|2,0:2|0:1,0:0:0:0:
161,235,101743,2,0,P|151:281|162:328,1,95.9999970703126,0|2,1:1|0:1,0:0:0:0:
349,328,102058,2,0,P|360:281|351:235,1,95.9999970703126,8|2,0:0|0:1,0:0:0:0:
161,208,102374,2,0,P|151:254|162:301,1,95.9999970703126,0|2,1:0|0:1,0:0:0:0:
349,301,102690,2,0,P|360:254|351:208,1,95.9999970703126,8|2,0:0|0:1,0:0:0:0:
259,178,103006,5,0,1:0:0:0:
338,104,103163,1,2,0:1:0:0:
338,104,103242,1,0,0:0:0:0:
338,104,103321,2,0,B|258:37|174:104,1,180.000006866455,8|0,0:0|0:0,0:0:0:0:
161,122,103637,6,0,P|154:76|166:22,1,95.9999970703126,0|2,1:0|0:1,0:0:0:0:
346,33,103953,2,0,P|357:79|348:126,1,95.9999970703126,8|2,0:0|0:1,0:0:0:0:
161,149,104269,2,0,P|151:103|162:56,1,95.9999970703126,0|2,1:0|0:1,0:0:0:0:
349,56,104585,2,0,P|360:103|351:149,1,95.9999970703126,8|2,0:0|0:1,0:0:0:0:
161,176,104901,2,0,P|151:130|162:83,1,95.9999970703126,0|2,1:0|0:1,0:0:0:0:
349,83,105216,2,0,P|360:130|351:176,1,95.9999970703126,8|2,0:0|0:1,0:0:0:0:
259,206,105532,5,0,1:0:0:0:
174,280,105689,1,2,0:1:0:0:
174,280,105768,1,0,0:0:0:0:
174,280,105847,2,0,B|254:347|338:280,1,180.000006866455,8|0,0:0|0:0,0:0:0:0:
350,271,106164,5,0,1:0:0:0:
443,254,106321,1,0,3:3:0:0:
394,170,106479,1,8,0:1:0:0:
411,75,106637,1,0,3:3:0:0:
324,33,106795,1,0,1:0:0:0:
261,106,106953,1,0,3:3:0:0:
308,185,107111,1,8,0:1:0:0:
263,270,107269,1,0,3:3:0:0:
263,270,107347,1,0,0:0:0:0:
263,270,107427,5,0,1:0:0:0:
316,350,107585,1,0,3:3:0:0:
220,354,107742,1,8,0:1:0:0:
166,273,107900,1,0,3:3:0:0:
114,353,108058,1,0,1:0:0:0:
61,272,108216,1,0,3:3:0:0:
11,349,108374,1,10,0:1:0:0:
61,272,108532,1,0,3:0:0:0:
61,272,108610,1,0,0:0:0:0:
60,271,108690,6,0,P|52:225|65:139,1,100,2|0,1:0|0:0,0:0:0:0:
168,69,109006,6,0,P|183:126|175:186,1,120.000004577637,2|0,1:0|0:0,0:0:0:0:
297,287,109322,6,0,P|311:218|299:142,1,140.000001335144,2|0,1:0|3:0,0:0:0:0:
425,28,109637,6,0,P|405:106|417:195,1,160,2|0,1:0|3:0,0:0:0:0:
297,287,109952,6,0,L|279:245,3,40,0|2|0|2,3:0|1:0|3:0|1:0,0:0:0:0:
297,222,110268,2,0,L|300:183,3,40,0|2|0|2,3:0|1:0|3:0|1:0,0:0:0:0:
301,149,110584,1,2,1:0:0:0:
311,119,110662,1,0,3:0:0:0:
334,97,110741,1,2,1:0:0:0:
365,90,110820,1,0,3:0:0:0:
395,98,110899,1,2,1:0:0:0:
418,120,110978,1,0,3:0:0:0:
427,150,111057,1,2,1:0:0:0:
421,181,111136,1,0,3:0:0:0:
419,207,111216,6,0,P|426:248|422:311,1,80,8|2,1:3|0:0,0:0:0:0:
354,351,111532,1,2,3:2:0:0:
183,327,111690,2,0,L|262:329,1,80,8|2,1:3|0:0,0:0:0:0:
322,252,112005,1,0,3:0:0:0:
266,97,112164,2,0,P|258:136|262:176,1,80,8|2,1:3|0:0,0:0:0:0:
166,231,112479,5,0,1:0:0:0:
166,231,112558,1,0,0:0:0:0:
166,231,112637,1,0,1:0:0:0:
88,174,112795,2,0,L|140:146,3,40,2|0|0|0,3:3|0:0|0:0|0:0,0:0:0:0:
137,108,113111,2,0,L|196:120,3,40,0|0|0|0,0:0|0:0|1:0|0:0,0:0:0:0:
224,124,113427,2,0,L|229:43,1,80,0|2,0:0|0:3,0:0:0:0:
326,38,113743,6,0,P|361:57|401:59,1,80,8|2,1:3|0:0,0:0:0:0:
491,25,114058,1,2,3:2:0:0:
469,198,114216,2,0,L|481:119,1,80,8|2,1:3|0:0,0:0:0:0:
401,59,114532,1,0,3:0:0:0:
262,119,114690,2,0,P|297:136|334:126,1,80,8|2,1:3|0:0,0:0:0:0:
379,211,115005,5,0,1:0:0:0:
379,211,115163,1,0,1:0:0:0:
286,231,115322,2,0,L|282:310,1,80,2|0,0:3|0:0,0:0:0:0:
189,340,115637,2,0,L|135:337,4,40,2|2|2|2|4,0:3|0:3|0:3|0:3|0:3,0:0:0:0:
354,360,116269,5,0,1:0:0:0:
428,297,116427,1,0,3:0:0:0:
453,204,116585,1,0,3:0:0:0:
411,118,116743,1,0,3:0:0:0:
349,190,116901,1,0,1:0:0:0:
324,282,117059,1,0,3:0:0:0:
257,350,117215,1,0,3:0:0:0:
195,277,117373,1,0,3:0:0:0:
195,277,117452,1,0,3:0:0:0:
195,277,117531,1,0,1:0:0:0:
158,189,117690,5,0,3:0:0:0:
115,103,117848,1,0,3:0:0:0:
67,186,118006,1,0,3:0:0:0:
119,337,118164,1,0,1:0:0:0:
158,189,118322,1,0,3:0:0:0:
43,278,118480,1,0,3:0:0:0:
195,277,118636,1,0,3:0:0:0:
236,132,118794,6,0,L|242:171,3,40,0|0|0|0,3:0|3:0|3:0|3:0,0:0:0:0:
281,193,119110,2,0,L|276:246,3,40,0|0|0|0,3:0|3:0|3:0|3:0,0:0:0:0:
279,248,119427,1,0,3:0:0:0:
282,263,119505,1,0,3:0:0:0:
286,278,119584,1,0,3:0:0:0:
290,294,119663,1,0,3:0:0:0:
295,309,119742,1,0,3:0:0:0:
299,325,119821,1,0,3:0:0:0:
303,340,119900,1,0,3:0:0:0:
306,356,119979,1,0,3:0:0:0:
256,192,120058,12,0,121163,0:0:0:0:
475,211,121321,5,8,1:3:0:0:
