osu file format v14

[General]
AudioFilename: audio.mp3
AudioLeadIn: 0
PreviewTime: 80742
Countdown: 0
SampleSet: Soft
StackLeniency: 0.2
Mode: 0
LetterboxInBreaks: 0
WidescreenStoryboard: 1

[Editor]
Bookmarks: 89046
DistanceSpacing: 1.8
BeatDivisor: 4
GridSize: 4
TimelineZoom: 1

[Metadata]
Title:GOODTEK
TitleUnicode:GOODTEK
Artist:EBIMAYO
ArtistUnicode:EBIMAYO
Creator:yf_bmp
Version:Insane
Source:大血戦 -THE BMS OF FIGHTERS ULTIMATE-
Tags:GOODPUMP pumpcore hardcore GOODMEN BOFU2015 daikessen BMS MUSYNX Muse Dash 同步音律喵賽克 CHUNITHM Arcaea Dance Rail Phigros Groove Coaster EZ2ON REBOOT SOUND VOLTEX EXCEED GEAR SDVX 6 electronic instrumental sorairokarasu TtmnZk Maboyu AliomLoung Doomsday
BeatmapID:3432910
BeatmapSetID:1680421

[Difficulty]
HPDrainRate:6.3
CircleSize:3.5
OverallDifficulty:8
ApproachRate:9.3
SliderMultiplier:1.8
SliderTickRate:1

[Events]
//Background and Video events
Video,-100,"o.mp4"
0,0,"bg.jpg",0,0
//Break Periods
//Storyboard Layer 0 (Background)
//Storyboard Layer 1 (Fail)
//Storyboard Layer 2 (Pass)
//Storyboard Layer 3 (Foreground)
//Storyboard Layer 4 (Overlay)
//Storyboard Sound Samples

[TimingPoints]
58.6925642581255,315.789473684211,4,2,2,60,1,0
10163,-100,4,2,1,70,0,0
15690,-100,4,2,1,40,0,0
16479,-100,4,2,1,45,0,0
17111,-100,4,2,1,50,0,0
18058,-100,4,2,1,55,0,0
18374,-100,4,2,1,60,0,0
18690,-100,4,2,1,65,0,0
19006,-50,4,2,1,70,0,0
19085,-50,4,2,1,5,0,0
19163,-50,4,2,1,80,0,0
19321,-50,4,2,1,5,0,0
19400,-50,4,2,1,80,0,0
19558,-50,4,2,1,5,0,0
19637,-50,4,2,1,80,0,0
19716,-50,4,2,1,5,0,0
19795,-50,4,2,1,80,0,0
19874,-50,4,2,1,5,0,0
19953,-50,4,2,1,80,0,0
20111,-50,4,2,1,5,0,0
20269,-100,4,2,1,70,0,0
22479,-50,4,2,1,80,0,0
22795,-100,4,2,1,80,0,0
24058,-50,4,2,1,80,0,0
24295,-50,4,2,1,5,0,0
24374,-95.2380952380952,4,2,1,70,0,0
24690,-66.6666666666667,4,2,1,70,0,0
25006,-50,4,2,1,70,0,0
25321,-100,4,2,1,70,0,0
27532,-50,4,2,1,70,0,0
27848,-100,4,2,1,70,0,0
29111,-50,4,2,1,70,0,0
29348,-50,4,2,1,5,0,0
29427,-50,4,2,1,70,0,0
29663,-50,4,2,1,5,0,0
29742,-50,4,2,1,70,0,0
30058,-200,4,2,1,70,0,0
30216,-200,4,2,1,5,0,0
30374,-66.6666666666667,4,2,1,70,0,0
35585,-40,4,2,1,70,0,0
37953,-83.3333333333333,4,2,1,70,0,0
38111,-50,4,2,1,70,0,0
38269,-76.9230769230769,4,2,1,70,0,0
38427,-47.6190476190476,4,2,1,70,0,0
38506,-47.6190476190476,4,2,1,30,0,0
38585,-71.4285714285714,4,2,1,70,0,0
38663,-71.4285714285714,4,2,1,30,0,0
38742,-45.4545454545455,4,2,1,70,0,0
38821,-45.4545454545455,4,2,1,30,0,0
38900,-66.6666666666667,4,2,1,70,0,0
38979,-66.6666666666667,4,2,1,35,0,0
39058,-43.4782608695652,4,2,1,70,0,0
39137,-43.4782608695652,4,2,1,35,0,0
39216,-100,4,2,1,40,0,0
39532,-66.6666666666667,4,2,1,50,0,0
39848,-66.6666666666667,4,2,1,60,0,0
40163,-66.6666666666667,4,2,1,70,0,0
40479,-100,4,2,1,70,0,0
41585,-133.333333333333,4,2,1,70,0,0
42611,-133.333333333333,4,2,1,5,0,0
42690,-133.333333333333,4,2,1,70,0,0
42848,-100,4,2,1,70,0,0
44821,-100,4,2,1,5,0,0
44900,-100,4,2,1,70,0,0
45453,-100,4,2,1,5,0,0
45532,-83.3333333333333,4,2,1,70,0,0
47427,-133.333333333333,4,2,1,70,0,0
47663,-133.333333333333,4,2,1,5,0,0
47742,-133.333333333333,4,2,1,70,0,0
47900,-63.2911392405063,4,2,1,70,0,0
49874,-77.5193798449612,4,2,1,5,0,0
49953,-100,4,2,1,70,0,0
50506,-111.111111111111,4,2,1,5,0,0
50585,-100,4,2,2,60,0,0
60690,-100,4,2,1,70,0,0
61953,-100,4,2,2,70,0,0
63216,-100,4,2,1,70,0,0
64479,-100,4,2,2,70,0,0
65111,-100,4,2,2,50,0,0
65427,-66.6666666666667,4,2,1,70,0,0
65742,-100,4,2,1,70,0,0
66374,-80,4,2,1,70,0,0
67006,-66.6666666666667,4,2,1,70,0,0
67637,-57.1428571428571,4,2,1,80,0,0
68269,-133.333333333333,4,2,1,80,0,0
68585,-100,4,2,1,80,0,0
68900,-80,4,2,1,80,0,0
69216,-66.6666666666667,4,2,1,80,0,0
70716,-66.6666666666667,4,2,1,5,0,0
70795,-50,4,2,1,70,0,0
71111,-100,4,2,1,70,0,0
72058,-50,4,2,1,70,0,0
72374,-100,4,2,1,70,0,0
73321,-50,4,2,1,70,0,0
73637,-100,4,2,1,70,0,0
74585,-50,4,2,1,70,0,0
74900,-100,4,2,1,70,0,0
75216,-66.6666666666667,4,2,1,50,0,0
75532,-66.6666666666667,4,2,1,70,0,0
75690,-66.6666666666667,4,2,1,5,0,0
75848,-50,4,2,1,70,0,0
76163,-100,4,2,1,70,0,0
77111,-50,4,2,1,70,0,0
77427,-66.6666666666667,4,2,1,70,0,0
77742,-66.6666666666667,4,2,1,70,0,0
78058,-100,4,2,1,70,0,0
78374,-50,4,2,1,70,0,0
78690,-100,4,2,1,70,0,0
79637,-100,4,2,1,25,0,0
79953,-100,4,2,1,35,0,0
80269,-100,4,2,1,50,0,0
80427,-100,4,2,1,60,0,0
80585,-100,4,2,1,70,0,0
80900,-100,4,2,1,70,0,0
85637,-200,4,2,1,70,0,0
85795,-200,4,2,1,5,0,0
85953,-100,4,2,1,70,0,0
89506,-100,4,2,1,60,0,0
90058,-100,4,2,1,65,0,0
90374,-100,4,2,1,70,0,0
90690,-100,4,2,1,75,0,0
91006,-66.6666666666667,4,2,1,75,0,1
103321,-50,4,2,1,75,0,1
103637,-66.6666666666667,4,2,1,75,0,1
105848,-50,4,2,1,75,0,1
106163,-80,4,2,1,75,0,1
107585,-66.6666666666667,4,2,1,75,0,1
108690,-80,4,2,1,75,0,1
109006,-66.6666666666667,4,2,1,75,0,1
109321,-57.1428571428571,4,2,1,75,0,1
109479,-57.1428571428571,4,2,1,25,0,1
109637,-50,4,2,1,75,0,1
109795,-50,4,2,1,30,0,1
109953,-50,4,2,1,75,0,1
110032,-50,4,2,1,35,0,1
110111,-47.0588235294118,4,2,1,75,0,1
110190,-47.0588235294118,4,2,1,40,0,1
110269,-44.4444444444445,4,2,1,75,0,1
110348,-44.4444444444445,4,2,1,45,0,1
110427,-42.1052631578947,4,2,1,75,0,1
110506,-42.1052631578947,4,2,1,50,0,1
110585,-40,4,2,1,75,0,1
110663,-40,4,2,1,55,0,1
110742,-38.0952380952381,4,2,1,75,0,1
110821,-38.0952380952381,4,2,1,60,0,1
110900,-36.3636363636364,4,2,1,75,0,1
110979,-36.3636363636364,4,2,1,65,0,1
111058,-34.7826086956522,4,2,1,75,0,1
111137,-34.7826086956522,4,2,1,70,0,1
111216,-100,4,2,1,70,0,0
112479,-100,4,2,2,70,0,0
113742,-100,4,2,1,70,0,0
115006,-100,4,2,2,70,0,0
115637,-100,4,2,2,50,0,0
115953,-66.6666666666667,4,2,1,70,0,0
116269,-100,4,2,1,70,0,0
116900,-80,4,2,1,70,0,0
117532,-66.6666666666667,4,2,1,70,0,0
118163,-57.1428571428571,4,2,1,70,0,0
118795,-133.333333333333,4,2,1,70,0,0
119111,-100,4,2,1,70,0,0
119427,-80,4,2,1,70,0,0
119742,-66.6666666666667,4,2,1,70,0,0

[Colours]
Combo1 : 240,189,36
Combo2 : 83,169,12
Combo3 : 71,103,228
Combo4 : 220,58,46

[HitObjects]
0,192,58,5,4,2:0:0:0:
200,12,216,1,2,2:0:0:0:
196,16,374,1,2,2:0:0:0:
192,20,532,1,2,2:0:0:0:
184,96,690,1,2,2:0:0:0:
180,100,848,1,2,2:0:0:0:
176,104,1006,1,2,2:0:0:0:
312,372,1163,5,2,2:0:0:0:
316,368,1321,1,2,2:0:0:0:
320,364,1479,1,2,2:0:0:0:
324,360,1637,1,2,2:0:0:0:
324,360,1795,1,2,2:0:0:0:
320,364,1953,1,2,2:0:0:0:
316,368,2111,1,2,2:0:0:0:
312,372,2269,1,2,2:0:0:0:
448,224,2427,1,2,2:0:0:0:
252,192,2585,5,2,2:0:0:0:
256,196,2742,1,2,2:0:0:0:
260,192,2900,1,2,2:0:0:0:
256,188,3057,1,2,2:0:0:0:
248,192,3216,5,2,2:0:0:0:
256,184,3374,1,2,2:0:0:0:
264,192,3532,1,2,2:0:0:0:
256,200,3690,1,2,2:0:0:0:
244,192,3848,5,2,2:0:0:0:
256,204,4006,1,2,2:0:0:0:
268,192,4163,1,2,2:0:0:0:
256,180,4321,1,2,2:0:0:0:
240,192,4479,5,2,2:0:0:0:
256,176,4637,1,2,2:0:0:0:
272,192,4794,1,2,2:0:0:0:
256,208,4952,1,2,2:0:0:0:
400,192,5111,5,2,2:0:0:0:
200,372,5269,1,2,2:0:0:0:
196,368,5427,1,2,2:0:0:0:
192,364,5585,1,2,2:0:0:0:
184,288,5742,1,2,2:0:0:0:
180,284,5900,1,2,2:0:0:0:
176,280,6058,1,2,2:0:0:0:
312,12,6216,5,2,2:0:0:0:
316,16,6374,1,2,2:0:0:0:
320,20,6532,1,2,2:0:0:0:
324,24,6690,1,2,2:0:0:0:
324,24,6848,1,2,2:0:0:0:
320,20,7006,1,2,2:0:0:0:
316,16,7164,1,2,2:0:0:0:
312,12,7322,1,2,2:0:0:0:
448,160,7479,1,2,2:0:0:0:
253,189,7638,5,2,2:0:0:0:
258,189,7795,1,2,2:0:0:0:
258,194,7953,1,2,2:0:0:0:
253,194,8110,1,2,2:0:0:0:
250,186,8269,5,2,2:0:0:0:
250,197,8427,1,2,2:0:0:0:
261,197,8585,1,2,2:0:0:0:
261,186,8743,1,2,2:0:0:0:
247,183,8901,5,2,2:0:0:0:
264,183,9059,1,2,2:0:0:0:
264,200,9216,1,2,2:0:0:0:
247,200,9374,1,2,2:0:0:0:
244,180,9532,5,2,2:0:0:0:
244,203,9690,1,2,2:0:0:0:
267,203,9847,1,2,2:0:0:0:
267,180,10005,1,2,2:0:0:0:
216,16,10163,6,0,B|170:14|170:14|142:48,1,90,0|0,1:0|0:0,0:0:0:0:
80,216,10400,1,0,0:0:0:0:
80,216,10479,2,0,L|156:204,3,45,0|2|2|2,3:3|0:0|0:0|0:0,0:0:0:0:
155,125,10795,2,0,L|59:140,1,90,0|0,1:0|0:0,0:0:0:0:
196,280,11032,1,0,0:0:0:0:
196,280,11111,2,0,B|204:260|204:260|200:236,3,45,0|2|2|2,3:0|0:0|0:0|0:0,0:0:0:0:
116,288,11427,6,0,L|137:403,1,90,0|0,1:0|0:0,0:0:0:0:
4,336,11663,1,0,0:0:0:0:
4,336,11742,2,0,L|40:310,1,45,0|2,3:0|0:0,0:0:0:0:
240,286,11900,2,0,L|196:280,1,45,2|2,0:0|0:0,0:0:0:0:
23,189,12058,6,0,L|23:245,1,45,0|0,1:0|0:0,0:0:0:0:
168,160,12216,2,0,L|184:203,1,45,2|0,0:0|0:0,0:0:0:0:
24,64,12374,2,0,L|24:120,1,45,0|2,3:0|0:0,0:0:0:0:
116,48,12532,2,0,L|131:90,1,45,2|2,0:0|0:0,0:0:0:0:
232,8,12690,6,0,P|247:8|283:-2,1,45,0|0,1:0|0:0,0:0:0:0:
112,28,12848,2,0,P|127:28|163:18,1,45,2|0,0:0|0:0,0:0:0:0:
348,36,13006,2,0,P|330:80|259:86,1,90,0|2,3:0|0:0,0:0:0:0:
244,159,13242,1,2,0:0:0:0:
244,159,13321,6,0,P|221:160|200:153,1,45,0|0,1:0|0:0,0:0:0:0:
80,132,13479,2,0,P|101:139|124:139,1,45,2|0,0:0|0:0,0:0:0:0:
88,268,13637,2,0,P|129:253|148:213,1,90,0|2,3:0|0:0,0:0:0:0:
124,139,13874,1,2,0:0:0:0:
124,139,13953,6,0,P|98:147|80:175,1,45,0|0,1:0|0:0,0:0:0:0:
172,288,14111,2,0,P|197:279|216:252,1,45,2|0,2:0|0:0,0:0:0:0:
8,256,14269,2,0,P|12:300|29:341,1,90,0|2,3:0|0:0,0:0:0:0:
104,372,14506,1,2,0:0:0:0:
104,372,14585,6,0,L|183:362,1,45,0|0,1:0|0:0,0:0:0:0:
228,348,14742,2,0,L|307:358,1,45,2|0,2:0|0:0,0:0:0:0:
348,384,14900,2,0,P|376:384|404:372,1,45,8|2,3:1|0:0,0:0:0:0:
440,316,15058,2,0,P|468:316|496:328,1,45,2|2,0:0|0:0,0:0:0:0:
496,120,15216,6,0,P|496:105|506:69,1,45,0|0,1:0|0:0,0:0:0:0:
476,240,15374,2,0,P|476:225|486:189,1,45,2|0,0:0|0:0,0:0:0:0:
453,16,15532,2,0,P|424:27|421:72,1,45,8|2,0:1|0:0,0:0:0:0:
344,108,15690,1,2,3:2:0:0:
344,108,15768,1,2,3:2:0:0:
344,108,15848,6,0,P|343:131|350:152,1,45,0|0,1:0|3:0,0:0:0:0:
371,272,16006,2,0,P|364:251|364:228,1,45,0|0,3:0|3:0,0:0:0:0:
229,262,16163,2,0,P|236:241|256:232,1,45,8|2,3:1|3:2,0:0:0:0:
364,228,16321,1,2,3:2:0:0:
365,228,16400,1,2,3:2:0:0:
365,228,16479,6,0,P|357:254|329:272,1,45,0|0,1:0|3:0,0:0:0:0:
212,184,16637,2,0,P|221:159|248:140,1,45,0|0,3:0|3:0,0:0:0:0:
267,283,16795,2,0,P|241:275|223:247,1,45,8|2,3:1|3:2,0:0:0:0:
312,129,16953,2,2,P|337:138|356:165,1,45,2|2,3:2|3:2,0:2:0:0:
144,380,17111,6,0,L|134:301,1,45,0|0,1:0|3:0,0:0:0:0:
117,219,17269,2,0,L|112:264,1,45,2|0,3:2|3:0,0:0:0:0:
148,148,17427,2,0,P|148:120|136:92,1,45,8|2,3:1|3:2,0:0:0:0:
89,7,17584,2,0,P|83:29|84:52,1,45,2|2,3:2|3:2,0:0:0:0:
40,228,17742,6,0,P|24:216|0:207,3,45,0|0|2|2,1:0|3:0|3:2|3:2,0:0:0:0:
55,146,18058,5,8,3:1:0:0:
79,130,18137,1,2,3:2:0:0:
109,128,18216,1,2,3:2:0:0:
144,139,18294,1,2,3:2:0:0:
174,170,18373,5,0,3:0:0:0:
211,189,18452,1,2,3:2:0:0:
257,189,18532,1,2,3:2:0:0:
299,167,18611,1,0,3:2:0:0:
327,121,18689,5,0,3:2:0:0:
316,65,18769,1,2,3:2:0:0:
275,23,18848,1,2,3:2:0:0:
214,23,18927,1,2,3:2:0:0:
168,68,19006,6,0,P|172:112|196:180,1,90,2|0,0:0|0:0,0:0:0:0:
328,340,19163,1,0,0:0:0:0:
344,316,19242,6,0,P|340:272|316:204,1,90,2|0,0:0|0:0,0:0:0:0:
184,44,19400,1,0,0:0:0:0:
168,68,19479,6,0,P|171:112|159:183,1,90,2|0,0:0|0:0,0:0:0:0:
328,229,19637,6,0,P|357:196|416:154,1,90,2|0,0:0|0:0,0:0:0:0:
184,155,19795,2,0,P|155:188|96:230,1,90,2|0,0:0|0:0,0:0:0:0:
44,352,19953,6,0,B|89:324|136:350|126:366|163:398|211:373,1,180,4|0,2:3|0:0,0:0:0:0:
404,44,20269,6,0,P|408:24|424:-8,3,45,0|0|0|0,1:0|0:0|0:0|0:0,0:0:0:0:
480,96,20585,5,0,3:3:0:0:
436,84,20663,1,0,0:0:0:0:
392,92,20742,2,0,P|388:112|388:144,1,45
284,172,20900,6,0,P|288:192|304:224,3,45,0|0|0|0,1:0|0:0|0:0|0:0,0:0:0:0:
360,120,21216,5,0,3:3:0:0:
316,132,21294,1,0,0:0:0:0:
272,124,21374,2,0,P|268:104|268:72,1,45
164,44,21532,6,0,P|168:24|184:-8,3,45,0|0|0|0,1:0|0:0|0:0|0:0,0:0:0:0:
240,96,21848,5,0,3:3:0:0:
196,84,21926,1,0,0:0:0:0:
152,92,22006,2,0,P|148:112|148:144,1,45
72,200,22163,6,0,P|76:220|92:252,3,45,0|0|0|0,1:0|0:0|0:0|0:0,0:0:0:0:
32,116,22479,6,0,P|27:75|36:20,3,90,2|2|2|2,0:0|0:0|0:0|0:0,0:0:0:0:
196,84,22795,6,0,P|176:80|144:64,3,45,0|0|0|0,1:0|0:0|0:0|0:0,0:0:0:0:
248,8,23111,5,0,3:3:0:0:
236,52,23189,1,0,0:0:0:0:
244,96,23268,1,0,0:0:0:0:
272,128,23347,1,0,0:0:0:0:
324,204,23427,6,0,P|344:200|376:184,3,45,0|0|0|0,1:0|0:0|0:0|0:0,0:0:0:0:
272,128,23742,5,0,3:3:0:0:
284,172,23820,1,0,0:0:0:0:
276,216,23899,1,0,0:0:0:0:
248,248,23978,1,0,0:0:0:0:
195,324,24058,6,0,P|297:242|307:340,1,270,8|0,0:2|0:0,0:0:0:0:
256,376,24374,6,0,B|219:397|182:377|191:364|161:338|123:358,1,141.749995674133,0|0,3:3|0:0,0:0:0:0:
112,280,24690,6,0,P|111:247|90:201,1,67.5000025749208
16,308,24848,2,0,P|16:340|37:386,1,67.5000025749208
195,324,25006,6,0,P|216:296|268:268,3,90,2|2|2|2,3:2|0:0|0:0|0:0,0:0:0:0:
404,340,25321,6,0,P|408:360|424:392,2,45,0|0|0,1:0|0:0|0:0,0:0:0:0:
484,276,25558,1,0,0:0:0:0:
480,288,25637,5,8,3:2:0:0:
436,300,25715,1,0,0:0:0:0:
392,292,25795,2,0,P|388:272|388:240,1,45
284,212,25953,6,0,P|288:192|304:160,2,45,0|0|0,1:0|0:0|0:0,0:0:0:0:
364,276,26190,1,0,0:0:0:0:
360,264,26269,5,8,3:2:0:0:
316,252,26348,1,0,0:0:0:0:
268,264,26427,2,0,P|264:284|264:316,1,45
164,340,26584,6,0,P|168:360|184:392,2,45,0|0|0,1:0|0:0|0:0,0:0:0:0:
244,276,26821,1,0,0:0:0:0:
240,288,26900,5,8,3:2:0:0:
196,300,26978,1,0,0:0:0:0:
152,292,27058,2,0,P|148:272|148:240,1,45
72,184,27216,6,0,P|76:164|92:132,2,45,0|0|0,1:0|0:0|0:0,0:0:0:0:
36,280,27453,1,0,0:0:0:0:
32,268,27532,6,0,P|27:309|36:364,3,90,2|2|2|2,0:0|0:0|0:0|0:0,0:0:0:0:
204,304,27848,6,0,P|184:308|152:324,2,45,0|0|0,1:0|0:0|0:0,0:0:0:0:
268,384,28085,1,0,0:0:0:0:
256,380,28163,5,8,3:2:0:0:
244,336,28241,1,0,0:0:0:0:
252,292,28320,1,0,0:0:0:0:
280,260,28399,1,0,0:0:0:0:
332,184,28479,6,0,P|352:188|384:204,2,45,0|0|0,1:0|0:0|0:0,0:0:0:0:
268,264,28716,1,0,0:0:0:0:
280,260,28795,5,8,3:2:0:0:
292,216,28874,1,0,0:0:0:0:
284,172,28953,1,0,0:0:0:0:
256,140,29032,1,0,0:0:0:0:
200,71,29111,6,0,B|188:11|188:11|256:-17|256:-17|324:11|324:11|312:71,1,270,8|0,1:3|0:0,0:0:0:0:
176,302,29427,6,0,B|130:342|130:342|72:298|72:298|62:225|62:225|120:205,1,270,8|0,1:3|0:0,0:0:0:0:
391,205,29742,6,0,B|449:225|449:225|445:253,1,90,8|0,1:3|0:0,0:0:0:0:
403,325,29900,2,0,B|381:343|381:343|334:302,1,90,8|0,1:3|0:0,0:0:0:0:
256,207,30058,6,0,L|256:156,1,45,2|0,0:0|0:0,0:0:0:0:
512,312,30374,5,0,1:0:0:0:
480,224,30532,2,0,P|484:190|493:157,1,67.5000025749208,2|0,0:1|0:0,0:0:0:0:
464,72,30690,5,8,0:2:0:0:
413,157,30848,2,0,P|404:190|400:224,1,67.5000025749208,2|0,0:1|0:0,0:0:0:0:
348,312,31006,5,0,1:0:0:0:
320,224,31163,2,0,P|324:190|333:157,1,67.5000025749208,2|0,0:1|0:0,0:0:0:0:
312,72,31321,5,8,0:2:0:0:
252,153,31479,2,0,P|243:186|240:220,1,67.5000025749208,2|0,0:1|0:0,0:0:0:0:
184,312,31637,5,0,1:0:0:0:
160,220,31795,2,0,P|164:186|173:153,1,67.5000025749208,2|0,0:1|0:0,0:0:0:0:
160,72,31952,5,8,0:2:0:0:
92,153,32111,2,0,P|83:186|80:220,1,67.5000025749208,2|0,0:1|0:0,0:0:0:0:
20,312,32269,5,0,1:0:0:0:
0,220,32427,2,0,P|4:186|13:153,1,67.5000025749208,2|0,0:1|0:0,0:0:0:0:
40,13,32585,2,2,P|31:46|28:80,1,67.5000025749208,8|0,0:2|0:0,0:1:0:0:
20,312,32742,1,0,3:3:0:0:
20,312,32821,1,0,3:3:0:0:
20,312,32900,5,0,1:0:0:0:
0,220,33058,2,0,P|2:197|8:221,1,67.5000025749208,2|0,0:1|0:0,0:0:0:0:
160,72,33216,5,8,0:0:0:0:
84,156,33374,2,0,P|86:179|92:155,1,67.5000025749208,2|0,0:1|0:0,0:0:0:0:
184,312,33532,5,0,1:0:0:0:
168,220,33690,2,0,P|170:197|176:221,1,67.5000025749208,2|0,0:1|0:0,0:0:0:0:
312,72,33848,5,8,0:0:0:0:
252,156,34006,2,0,P|254:179|260:155,1,67.5000025749208,2|0,0:1|0:0,0:0:0:0:
348,312,34163,5,0,1:0:0:0:
336,220,34321,2,0,P|338:197|344:221,1,67.5000025749208,2|0,0:1|0:0,0:0:0:0:
464,72,34479,5,8,0:0:0:0:
420,156,34637,2,0,P|422:179|428:155,1,67.5000025749208,2|0,0:1|0:0,0:0:0:0:
508,372,34795,5,0,1:0:0:0:
504,220,34953,2,2,P|506:197|512:221,1,67.5000025749208,2|0,3:1|0:0,0:1:0:0:
512,296,35111,2,2,P|510:319|504:295,1,67.5000025749208,8|0,3:2|0:0,0:1:0:0:
256,328,35269,5,0,3:3:0:0:
256,328,35348,1,0,3:3:0:0:
256,328,35427,1,0,1:0:0:0:
132,104,35585,6,2,B|76:101|76:101|72:83|72:83|71:120,1,112.5,0|0,3:3|0:0,0:1:0:0:
68,200,35742,1,0,3:3:0:0:
292,156,35900,6,2,B|236:153|236:153|232:135|232:135|231:172,1,112.5,0|0,3:3|0:0,0:1:0:0:
228,252,36057,1,0,1:0:0:0:
452,208,36216,6,2,B|396:205|396:205|392:187|392:187|391:224,1,112.5,0|0,3:3|0:0,0:1:0:0:
388,304,36373,1,0,3:3:0:0:
148,352,36532,5,0,3:3:0:0:
148,352,36611,1,0,3:3:0:0:
148,352,36690,1,0,1:0:0:0:
128,196,36848,6,2,B|131:219|131:219|123:220|123:220|120:197|120:197|122:188|122:188|112:125,1,112.5,0|0,3:3|0:0,0:1:0:0:
100,60,37006,1,0,3:3:0:0:
264,232,37163,6,2,B|267:255|267:255|259:256|259:256|256:233|256:233|258:224|258:224|248:161,1,112.5,0|0,3:3|0:0,0:1:0:0:
236,96,37321,1,0,1:0:0:0:
400,268,37479,6,2,B|403:291|403:291|395:292|395:292|392:269|392:269|394:260|394:260|384:197,1,112.5,0|0,3:3|0:0,0:1:0:0:
372,132,37637,1,2,3:1:0:0:
416,8,37795,5,0,3:3:0:0:
416,8,37874,1,0,3:3:0:0:
416,8,37953,2,0,B|443:-2|443:-2|472:3,1,53.9999983520508,0|0,1:0|0:0,0:0:0:0:
372,132,38111,2,0,P|328:143|284:138,1,90,2|0,0:1|0:0,0:0:0:0:
293,60,38269,6,0,B|322:65|322:65|349:55,1,58.4999973220826,0|0,1:0|0:0,0:0:0:0:
221,23,38427,2,0,P|174:18|129:30,1,94.499997116089,2|0,0:1|3:0,0:0:0:0:
29,87,38585,6,0,B|27:54|27:54|41:27,1,62.9999980773926,0|0,1:0|3:0,0:0:0:0:
129,30,38742,2,0,P|115:77|112:126,1,99.0000030212403,2|0,3:1|3:0,0:0:0:0:
193,155,38900,6,0,B|197:189|197:189|184:219,1,67.5000025749208,0|0,1:0|3:0,0:0:0:0:
100,228,39058,2,0,P|87:279|84:331,1,103.500001974106,2|0,3:1|3:0,0:0:0:0:
220,296,39216,6,0,P|241:303|272:302,3,45,0|0|2|0,3:0|3:0|3:1|3:0,0:0:0:0:
284,284,39532,5,0,3:2:0:0:
298,262,39611,1,2,3:2:0:0:
301,232,39690,1,2,3:2:0:0:
290,199,39768,1,0,3:2:0:0:
260,170,39847,5,0,3:0:0:0:
242,134,39926,1,2,3:2:0:0:
242,91,40006,1,2,3:2:0:0:
263,49,40085,1,0,3:2:0:0:
307,22,40163,5,0,3:2:0:0:
359,33,40242,1,2,3:2:0:0:
401,74,40321,1,2,3:2:0:0:
401,133,40399,1,0,3:2:0:0:
364,176,40479,6,2,B|328:140|328:140|280:156|280:156|268:208|268:208|304:244|304:244|300:260|300:260|252:260|252:260|256:244|256:244|220:208|220:208|224:192|224:192|172:192|172:192|168:208|168:208|116:208|116:208|120:192|120:192|64:192,1,540,4|2,0:2|0:1,0:1:0:0:
220,96,41585,6,2,B|168:96|168:96|172:112|172:112|120:112|120:112|116:96|116:96|64:96|64:96|60:112,1,202.500007724762,2|2,0:1|0:1,0:1:0:0:
364,176,42374,6,0,B|332:140|332:140|336:132|336:132|304:96,1,101.250003862381,2|0,0:1|0:0,0:0:0:0:
296,84,42690,1,2,0:1:0:0:
156,236,42848,6,2,B|204:236|204:236|200:252|200:252|252:252|252:252|256:236|256:236|308:236|308:236|304:252|304:252|340:288|340:288|336:304|336:304|384:304|384:304|388:288|388:288|400:248|400:248|448:220|448:220|496:248|496:248|508:300,1,540,2|2,0:1|0:1,0:1:0:0:
360,384,43953,1,2,0:1:0:0:
200,300,44111,6,2,B|260:300|260:300|255:281|255:281|318:281|318:281|322:300|322:300|385:300|385:300|380:281|380:281|424:238|424:238|419:218|419:218|477:218|477:218|482:238|482:238,1,405,2|2,0:1|0:0,0:1:0:0:
482,238,44900,6,2,B|486:255|486:255|433:255|433:255|429:238|429:238|416:194|416:194|364:163|364:163|311:194|311:194|298:251,1,315,2|2,0:1|0:0,0:1:0:0:
240,316,45532,6,2,B|222:271|222:271|208:281|208:281|189:232|189:232|202:223|202:223|183:175|183:175|196:165|196:165|242:159|242:159|236:144|236:144|190:150|190:150|177:160|177:160|171:145|171:145|154:147|154:147|116:168|116:168|110:154|110:154|148:132|148:132|165:130|165:130|178:120|178:120|158:72|158:72|145:82|145:82|111:-2,1,647.99998022461,2|2,0:1|0:1,0:1:0:0:
16,128,46637,6,2,B|40:189|40:189|66:149|66:149|10:71|10:71|35:31|35:31|60:93,1,323.999990112305,2|2,0:1|0:1,0:1:0:0:
60,93,47427,6,0,L|13:-21,1,101.250003862381,2|0,0:1|0:0,0:0:0:0:
30,20,47742,1,2,0:1:0:0:
176,140,47900,6,2,B|191:103|191:103|252:52|252:52|173:59|173:59|137:43|137:43|99:58|99:58|84:95|84:95|102:139|102:139|138:154|138:154|181:154|181:154|218:170|218:170|236:214|236:214|220:251|220:251|183:266|183:266|147:250|147:250|67:256|67:256|129:206|129:206|144:169,1,853.200020830079,2|2,0:1|0:1,0:1:0:0:
320,208,49006,1,2,0:1:0:0:
412,36,49163,6,2,B|444:36|444:36|428:76|428:76|396:76|396:76|380:116|380:116|348:116|348:116|384:16|384:16|300:16|300:16|244:184|244:184|276:184|276:184|293:128,1,639.900015622559,2|0,0:1|0:0,0:1:0:0:
204,60,49953,6,2,B|192:96|192:96|128:96|128:96|152:20|152:20|60:20|60:20|44:60,1,315,2|2,0:1|0:0,0:1:0:0:
40,136,50585,5,4,0:0:0:0:
40,136,50663,1,0,0:0:0:0:
40,136,50742,2,0,P|44:159|40:183,2,45,2|2|0,0:0|0:0|0:0,0:0:0:0:
104,228,51058,5,0,0:0:0:0:
102,243,51136,1,0,0:0:0:0:
114,255,51216,5,2,0:0:0:0:
110,287,51295,1,2,0:0:0:0:
146,311,51374,1,2,0:0:0:0:
142,343,51453,1,0,0:0:0:0:
138,375,51531,1,0,0:0:0:0:
180,172,51690,6,0,P|184:149|180:125,2,45,2|2|0,0:0|0:0|0:0,0:0:0:0:
252,280,52006,1,2,0:0:0:0:
248,312,52085,1,2,0:0:0:0:
244,344,52163,1,0,0:0:0:0:
261,204,52321,1,0,0:0:0:0:
384,264,52479,5,2,0:0:0:0:
380,296,52558,1,2,0:0:0:0:
416,320,52637,1,2,0:0:0:0:
412,352,52716,1,0,0:0:0:0:
408,384,52794,1,0,0:0:0:0:
440,184,52953,5,2,0:0:0:0:
440,184,53032,1,0,0:0:0:0:
440,184,53111,1,0,0:0:0:0:
282,130,53269,5,2,0:0:0:0:
278,98,53348,1,2,0:0:0:0:
274,66,53426,1,0,0:0:0:0:
352,204,53585,5,0,0:0:0:0:
350,189,53663,1,0,0:0:0:0:
362,177,53743,5,2,0:0:0:0:
358,145,53822,1,2,0:0:0:0:
394,121,53901,1,2,0:0:0:0:
390,89,53980,1,0,0:0:0:0:
386,57,54058,1,0,0:0:0:0:
260,204,54216,5,2,0:0:0:0:
260,204,54295,1,2,0:0:0:0:
260,204,54374,1,0,0:0:0:0:
132,96,54532,5,2,0:0:0:0:
128,64,54611,1,2,0:0:0:0:
124,32,54689,1,0,0:0:0:0:
140,172,54847,5,0,0:0:0:0:
4,128,55006,5,2,0:0:0:0:
0,96,55085,1,2,0:0:0:0:
36,72,55164,1,2,0:0:0:0:
32,40,55243,1,0,0:0:0:0:
28,8,55321,1,0,0:0:0:0:
12,204,55479,1,2,0:0:0:0:
148,248,55637,5,0,0:0:0:0:
160,260,55716,1,0,0:0:0:0:
180,280,55794,5,2,0:0:0:0:
148,284,55873,1,2,0:0:0:0:
128,308,55952,1,0,0:0:0:0:
272,244,56111,5,0,0:0:0:0:
284,256,56190,1,0,0:0:0:0:
304,276,56268,5,2,0:0:0:0:
272,280,56347,1,2,0:0:0:0:
252,304,56426,1,2,0:0:0:0:
252,336,56506,1,2,0:0:0:0:
272,360,56585,1,0,0:0:0:0:
368,384,56742,5,2,0:0:0:0:
456,340,56900,1,0,0:0:0:0:
300,176,57058,1,2,0:0:0:0:
204,200,57215,1,0,0:0:0:0:
172,384,57373,5,2,0:0:0:0:
376,176,57532,5,0,0:0:0:0:
436,160,57690,1,0,0:0:0:0:
496,144,57848,1,0,0:0:0:0:
240,348,58006,5,2,0:0:0:0:
332,64,58163,5,0,0:0:0:0:
316,120,58322,1,0,0:0:0:0:
300,176,58480,1,2,0:0:0:0:
308,132,58636,1,0,0:0:0:0:
316,88,58795,1,0,0:0:0:0:
304,112,58953,1,0,0:0:0:0:
292,136,59111,1,0,0:0:0:0:
172,308,59268,5,2,0:0:0:0:
96,156,59427,5,0,0:0:0:0:
100,108,59585,1,0,0:0:0:0:
240,272,59741,5,2,0:0:0:0:
28,88,59900,5,0,0:0:0:0:
24,124,60059,1,0,0:0:0:0:
20,160,60217,1,0,0:0:0:0:
32,136,60373,1,0,0:0:0:0:
172,232,60532,5,2,0:0:0:0:
324,356,60690,5,8,1:3:0:0:
368,332,60769,1,2,0:0:0:0:
412,308,60848,1,2,0:0:0:0:
456,284,60927,1,2,0:0:0:0:
500,260,61006,1,2,3:2:0:0:
408,164,61163,5,8,1:3:0:0:
366,136,61242,1,2,0:0:0:0:
318,142,61321,1,2,0:0:0:0:
288,180,61400,1,2,0:0:0:0:
290,228,61479,1,2,3:2:0:0:
324,356,61637,5,8,1:3:0:0:
376,348,61716,1,2,0:0:0:0:
412,308,61795,1,2,0:0:0:0:
448,268,61874,1,2,0:0:0:0:
500,260,61953,5,0,1:0:0:0:
324,356,62111,1,0,1:0:0:0:
412,308,62269,1,2,0:3:0:0:
228,328,62427,1,0,0:0:0:0:
228,328,62506,1,0,0:0:0:0:
228,328,62585,1,0,0:0:0:0:
132,300,62742,1,0,1:0:0:0:
333,152,62900,6,0,L|341:197,1,45
263,212,63058,2,0,L|256:168,1,45,2|0,0:3|0:0,0:0:0:0:
188,28,63216,5,8,1:3:0:0:
136,36,63295,1,2,0:0:0:0:
100,76,63374,1,2,0:0:0:0:
64,116,63453,1,2,0:0:0:0:
12,124,63532,1,0,3:0:0:0:
104,220,63689,5,8,1:3:0:0:
146,248,63768,1,2,0:0:0:0:
194,242,63847,1,2,0:0:0:0:
224,204,63926,1,2,0:0:0:0:
221,155,64005,1,2,3:2:0:0:
188,28,64163,5,8,1:3:0:0:
152,72,64242,1,2,0:0:0:0:
100,76,64321,1,2,0:0:0:0:
48,84,64400,1,2,0:0:0:0:
12,124,64479,5,0,1:0:0:0:
188,28,64637,1,0,1:0:0:0:
100,76,64795,1,2,3:0:0:0:
260,76,64953,1,0,0:0:0:0:
312,72,65032,1,0,0:0:0:0:
380,84,65111,5,2,0:3:0:0:
380,84,65190,1,2,0:3:0:0:
380,84,65268,1,2,0:3:0:0:
380,84,65348,1,2,0:3:0:0:
380,84,65427,6,0,P|404:152|292:208,1,202.500007724762,4|0,0:3|0:0,0:0:0:0:
232,224,65742,6,0,P|209:230|186:230,1,45,0|0,3:0|0:0,0:0:0:0:
67,248,65900,2,0,P|89:248|110:241,1,45,0|0,1:0|0:0,0:0:0:0:
310,215,66058,1,0,3:0:0:0:
111,241,66216,1,0,3:0:0:0:
320,328,66374,6,0,P|291:336|262:335,1,56.25,0|0,3:0|0:0,0:0:0:0:
133,356,66532,2,0,P|161:356|187:347,1,56.25,0|0,3:0|0:0,0:0:0:0:
399,315,66690,1,0,3:0:0:0:
268,152,66848,1,0,3:0:0:0:
268,152,66927,1,0,3:0:0:0:
268,152,67006,6,0,P|260:120|264:80,1,67.5000025749208,0|0,3:0|2:0,0:0:0:0:
140,48,67163,2,0,P|148:80|144:120,1,67.5000025749208,0|0,3:0|2:0,0:0:0:0:
97,238,67321,1,0,3:0:0:0:
216,24,67479,1,0,3:0:0:0:
340,252,67637,6,0,P|348:218|344:175,1,78.7500007510185,0|0,3:0|2:0,0:0:0:0:
456,152,67795,2,0,P|447:185|451:228,1,78.7500007510185,0|0,3:0|2:0,0:0:0:0:
499,342,67952,1,0,3:0:0:0:
512,100,68111,1,0,3:0:0:0:
512,100,68190,1,0,3:0:0:0:
512,100,68269,6,0,P|493:103|472:102,1,33.7500012874604,0|0,3:0|3:0,0:0:0:0:
268,196,68427,2,0,P|257:212|241:225,1,33.7500012874604,0|0,3:0|3:0,0:0:0:0:
496,115,68585,6,0,P|470:120|442:118,1,45,0|0,3:0|3:0,0:0:0:0:
245,188,68742,2,0,P|224:204|199:216,1,45,0|0,3:0|3:0,0:0:0:0:
479,128,68900,6,0,P|446:134|410:131,1,56.25,0|0,3:0|3:0,0:0:0:0:
225,176,69058,2,0,P|193:189|158:196,1,56.25,0|0,3:0|3:0,0:0:0:0:
464,144,69216,6,0,P|426:151|384:148,1,67.5000025749208,0|0,3:0|3:0,0:0:0:0:
209,160,69374,2,0,P|170:167|129:163,1,67.5000025749208,0|0,3:0|3:0,0:0:0:0:
300,12,69532,5,0,0:0:0:0:
176,384,70479,2,0,B|164:372|164:372|184:204|184:204|172:192,1,202.500007724762,4|0,0:3|0:0,0:0:0:0:
104,248,70795,6,0,P|204:228|124:304,1,270,0|0,1:0|0:0,0:0:0:0:
18,317,71111,6,0,L|29:228,1,90,0|0,1:0|0:0,0:0:0:0:
104,248,71348,1,0,0:0:0:0:
95,321,71427,1,0,1:0:0:0:
172,88,71585,1,0,0:0:0:0:
214,264,71742,2,0,P|254:288|294:264,1,90,0|0,1:0|0:0,0:0:0:0:
372,160,72058,6,0,P|392:260|316:180,1,270,0|0,1:0|0:0,0:0:0:0:
339,76,72374,6,0,L|418:84,1,45,0|0,1:0|0:0,0:0:0:0:
458,86,72532,2,0,L|537:94,1,45,0|0,3:0|0:0,0:0:0:0:
510,249,72690,6,0,B|476:228|441:247|449:259|421:283|385:264,1,135,0|0,1:2|0:0,0:0:0:0:
372,160,73006,5,0,1:0:0:0:
392,172,73085,1,0,1:0:0:0:
400,192,73163,1,0,3:0:0:0:
396,216,73242,1,0,3:0:0:0:
307,195,73321,6,0,P|227:126|242:230,1,270,0|0,1:0|0:0,0:0:0:0:
392,172,73637,6,0,L|384:80,1,90,0|0,1:0|0:0,0:0:0:0:
460,84,73874,5,0,0:0:0:0:
467,158,73953,1,0,1:0:0:0:
256,176,74111,1,0,0:0:0:0:
432,316,74269,2,0,P|394:344|352:324,1,90,0|0,1:0|0:0,0:0:0:0:
204,296,74585,6,0,P|104:316|184:240,1,270,0|0,1:0|0:0,0:0:0:0:
251,225,74900,6,0,L|233:283,1,45,0|0,1:0|0:0,0:0:0:0:
214,342,75058,2,0,L|196:400,1,45,0|0,3:0|0:0,0:0:0:0:
17,275,75216,6,0,B|9:243|9:243|31:217,1,67.5000025749208,8|0,1:3|0:0,0:0:0:0:
148,249,75374,2,0,B|156:281|156:281|133:306,1,67.5000025749208,8|0,1:3|0:0,0:0:0:0:
0,357,75532,6,0,B|35:339|68:361|59:372|85:398|123:382,1,135.000005149842,2|0,0:2|0:0,0:0:0:0:
224,36,75848,6,0,B|152:52|176:-28|83:15|83:15|76:68|140:64|140:116,1,270,0|0,1:0|0:0,0:0:0:0:
96,176,76163,6,0,P|56:180|8:128,1,90,0|0,1:0|0:0,0:0:0:0:
174,181,76400,1,0,0:0:0:0:
228,240,76479,1,0,1:0:0:0:
296,56,76637,1,0,0:0:0:0:
352,240,76795,2,0,P|383:197|434:166,1,90,0|0,1:0|0:0,0:0:0:0:
324,372,77111,6,0,B|324:325|260:329|267:276|267:276|360:233|336:313|408:297,1,270,0|0,1:0|0:0,0:0:0:0:
484,320,77427,2,0,P|516:269|479:196,1,135.000005149842,0|0,1:0|3:0,0:0:0:0:
472,40,77742,6,0,B|427:55|381:11|381:11|397:74|360:105,1,202.500007724762,0|0,1:0|0:0,0:0:0:0:
448,120,78058,5,0,3:0:0:0:
452,124,78137,1,0,1:0:0:0:
456,128,78216,1,0,3:0:0:0:
460,132,78295,1,0,3:0:0:0:
396,180,78374,6,0,B|323:192|375:257|273:252|273:252|246:205|307:185|288:137,1,270,0|0,1:0|0:0,0:0:0:0:
224,96,78690,6,0,P|211:58|220:-4,1,90,0|0,1:0|0:0,0:0:0:0:
200,172,78927,1,0,0:0:0:0:
188,249,79006,1,0,1:0:0:0:
80,132,79163,1,0,0:0:0:0:
20,284,79321,2,0,P|40:312|104:336,1,90,0|0,1:0|0:0,0:0:0:0:
304,320,79637,5,0,3:0:0:0:
303,304,79716,1,0,3:0:0:0:
293,282,79795,1,0,3:0:0:0:
273,267,79874,1,0,3:0:0:0:
244,260,79953,2,0,P|241:233|236:212,3,45,0|0|0|0,3:0|3:0|3:0|3:0,0:0:0:0:
180,128,80269,5,0,3:0:0:0:
224,140,80348,1,0,3:0:0:0:
272,132,80427,1,0,3:0:0:0:
316,100,80506,1,0,3:0:0:0:
332,44,80585,1,4,0:3:0:0:
332,44,80900,5,4,1:0:0:0:
328,76,80979,1,2,0:0:0:0:
324,108,81058,1,2,0:0:0:0:
412,272,81216,5,8,0:1:0:0:
408,304,81295,1,2,0:0:0:0:
404,336,81374,1,2,0:0:0:0:
400,120,81532,5,0,1:0:0:0:
396,152,81611,1,2,0:0:0:0:
372,172,81690,1,2,0:0:0:0:
368,204,81769,1,2,0:0:0:0:
324,328,81927,5,2,0:0:0:0:
320,360,82006,1,2,0:0:0:0:
4,260,82163,5,0,1:0:0:0:
36,256,82242,1,2,0:0:0:0:
68,252,82321,1,2,0:0:0:0:
232,340,82479,5,8,0:1:0:0:
264,336,82558,1,2,0:0:0:0:
296,332,82637,1,2,0:0:0:0:
80,328,82795,5,0,1:0:0:0:
112,324,82874,1,2,0:0:0:0:
132,300,82953,1,2,0:0:0:0:
164,296,83032,1,2,0:0:0:0:
288,252,83190,5,2,3:2:0:0:
320,248,83269,1,2,3:2:0:0:
352,244,83348,1,2,3:2:0:0:
384,285,83427,5,0,1:0:0:0:
404,283,83506,1,2,0:0:0:0:
424,280,83585,1,2,0:0:0:0:
512,116,83743,5,8,0:1:0:0:
508,84,83822,1,2,0:0:0:0:
504,52,83901,1,2,0:0:0:0:
500,268,84059,5,0,1:0:0:0:
496,236,84138,1,2,0:0:0:0:
472,216,84217,1,2,0:0:0:0:
468,184,84296,1,2,0:0:0:0:
424,60,84454,5,2,0:0:0:0:
420,28,84533,1,2,0:0:0:0:
352,244,84690,5,0,1:0:0:0:
320,240,84769,1,2,0:0:0:0:
288,236,84848,1,2,0:0:0:0:
124,324,85006,5,8,0:1:0:0:
92,320,85085,1,2,0:0:0:0:
60,316,85164,1,2,0:0:0:0:
276,312,85322,5,8,1:3:0:0:
104,240,85480,1,8,1:3:0:0:
448,380,85637,6,0,L|496:376,1,45,2|0,0:2|0:0,0:0:0:0:
420,380,85953,5,0,1:0:0:0:
424,344,86032,1,2,0:0:0:0:
428,308,86111,1,2,0:0:0:0:
92,380,86269,5,8,0:0:0:0:
88,344,86348,1,2,0:0:0:0:
84,308,86427,1,2,0:0:0:0:
372,376,86585,5,0,1:0:0:0:
376,340,86664,1,2,0:0:0:0:
380,304,86742,1,2,0:0:0:0:
384,268,86821,1,2,0:0:0:0:
140,376,86979,5,2,0:0:0:0:
136,340,87058,1,2,0:0:0:0:
400,60,87216,5,0,1:0:0:0:
396,96,87295,1,2,0:0:0:0:
392,132,87374,1,2,0:0:0:0:
112,60,87532,5,8,0:0:0:0:
116,96,87611,1,2,0:0:0:0:
120,132,87690,1,2,0:0:0:0:
444,84,87848,5,0,1:0:0:0:
432,120,87927,1,2,0:0:0:0:
420,156,88005,1,2,0:0:0:0:
408,192,88084,1,2,0:0:0:0:
80,120,88242,5,0,3:0:0:0:
92,156,88320,1,0,3:0:0:0:
104,192,88399,1,0,3:0:0:0:
124,244,88480,5,0,1:0:0:0:
148,228,88559,1,2,0:0:0:0:
172,212,88638,1,2,3:2:0:0:
388,244,88795,5,8,3:1:0:0:
364,228,88874,1,2,0:0:0:0:
340,212,88953,1,2,3:2:0:0:
96,316,89111,5,0,3:0:0:0:
100,288,89190,1,2,0:0:0:0:
104,260,89269,1,2,3:2:0:0:
108,232,89348,1,2,0:0:0:0:
412,288,89506,5,2,3:2:0:0:
408,260,89585,1,0,3:0:0:0:
404,232,89664,1,0,3:0:0:0:
436,208,89742,6,0,P|460:212|496:200,3,45,0|2|2|2,3:0|3:2|3:2|3:2,0:0:0:0:
472,128,90059,5,0,3:2:0:0:
447,112,90138,1,2,3:2:0:0:
417,110,90217,1,2,3:2:0:0:
382,121,90295,1,0,3:2:0:0:
352,152,90374,5,0,3:0:0:0:
315,171,90453,1,2,3:2:0:0:
269,171,90532,1,2,3:2:0:0:
227,149,90610,1,0,3:2:0:0:
199,103,90690,5,0,3:2:0:0:
210,47,90769,1,2,3:2:0:0:
251,5,90848,1,2,3:2:0:0:
312,5,90926,1,0,3:2:0:0:
361,41,91006,6,0,P|377:81|349:177,1,135.000005149842,6|2,1:0|0:0,0:0:0:0:
304,224,91242,1,2,0:0:0:0:
304,224,91321,2,0,P|280:224|233:212,1,67.5000025749208,8|0,0:1|0:0,0:0:0:0:
176,340,91479,5,2,0:0:0:0:
208,304,91558,1,2,0:0:0:0:
256,296,91637,1,0,1:0:0:0:
300,316,91716,1,2,0:0:0:0:
320,360,91795,6,0,P|352:372|396:364,1,67.5000025749208,2|0,0:0|0:0,0:0:0:0:
176,340,91953,2,0,P|143:343|112:331,1,67.5000025749208,8|0,0:1|0:0,0:0:0:0:
0,188,92111,6,0,B|-8:156|-8:156|60:256,1,135.000005149842,2|0,0:0|1:0,0:0:0:0:
112,330,92348,1,0,0:0:0:0:
116,276,92427,1,2,0:0:0:0:
156,236,92506,1,2,0:0:0:0:
208,232,92585,6,0,B|168:176,3,67.5000025749208,8|2|0|2,0:1|0:0|0:0|0:0,0:0:0:0:
216,0,92900,2,0,P|248:64|173:112,1,135.000005149842,0|0,1:0|0:0,0:0:0:0:
316,180,93137,1,0,0:0:0:0:
335,185,93216,2,0,P|295:181|229:147,1,67.5000025749208,8|0,0:1|0:0,0:0:0:0:
116,152,93374,1,0,3:3:0:0:
116,152,93453,1,0,3:3:0:0:
128,156,93532,5,0,1:0:0:0:
156,204,93611,1,2,0:0:0:0:
128,252,93690,1,2,0:0:0:0:
100,300,93769,1,2,0:0:0:0:
128,348,93848,6,0,B|156:364|156:364|188:348,1,67.5000025749208,8|2,0:1|0:0,0:0:0:0:
268,304,94006,2,0,B|296:288|296:288|328:304,1,67.5000025749208,0|2,0:0|0:0,0:0:0:0:
416,364,94163,6,0,L|400:228,1,135.000005149842,0|0,1:0|0:0,0:0:0:0:
492,196,94400,1,0,0:0:0:0:
476,184,94479,2,0,B|495:212|495:212|484:244,1,67.5000025749208,8|0,0:1|0:0,0:0:0:0:
356,132,94637,2,0,B|384:112|384:112|416:123,1,67.5000025749208,2|0,0:2|0:0,0:0:0:0:
316,208,94795,5,2,1:2:0:0:
268,180,94874,1,2,0:0:0:0:
220,208,94953,1,2,0:0:0:0:
172,236,95032,1,2,0:0:0:0:
124,208,95111,6,0,B|108:180|108:180|124:148,1,67.5000025749208,8|2,0:1|0:0,0:0:0:0:
168,68,95269,2,0,B|184:40|184:40|168:8,1,67.5000025749208,2|0,0:0|0:0,0:0:0:0:
56,36,95427,1,0,1:0:0:0:
56,36,95585,6,0,B|64:55|64:55|52:123,1,67.5000025749208,0|0,3:3|0:0,0:0:0:0:
28,177,95742,2,0,B|20:196|20:196|32:264,1,67.5000025749208,0|0,1:0|0:0,0:0:0:0:
292,356,95900,1,0,3:3:0:0:
276,304,95979,1,0,3:3:0:0:
220,312,96058,6,0,B|172:312|172:312|139:295|139:295|89:295,1,135.000005149842,6|2,1:0|0:0,0:0:0:0:
28,242,96294,1,0,0:0:0:0:
28,242,96374,2,0,P|20:208|29:175,1,67.5000025749208,8|0,0:1|0:0,0:0:0:0:
196,198,96532,5,2,0:0:0:0:
228,162,96610,1,2,0:0:0:0:
276,154,96689,1,0,1:0:0:0:
320,174,96768,1,2,0:0:0:0:
340,218,96848,6,0,P|372:230|416:222,1,67.5000025749208,2|0,0:0|0:0,0:0:0:0:
132,189,97006,2,0,P|163:201|196:198,1,67.5000025749208,8|0,0:1|0:0,0:0:0:0:
396,24,97163,6,0,B|404:-8|404:-8|336:88,1,135.000005149842,2|0,0:0|1:0,0:0:0:0:
276,154,97400,1,0,0:0:0:0:
272,100,97479,1,2,0:0:0:0:
232,60,97558,1,2,0:0:0:0:
180,56,97637,6,0,B|220:0,2,67.5000025749208,8|2|0,0:1|0:0|0:0,0:0:0:0:
132,116,97874,1,2,0:0:0:0:
56,130,97953,2,0,B|122:129|122:129|154:189,1,135.000005149842,0|0,1:0|0:0,0:0:0:0:
230,167,98189,1,2,0:0:0:0:
213,243,98269,2,0,L|196:316,1,67.5000025749208,8|0,0:1|0:0,0:0:0:0:
16,384,98426,1,0,3:3:0:0:
16,384,98505,1,0,3:3:0:0:
28,380,98584,5,0,1:0:0:0:
56,332,98663,1,2,0:0:0:0:
28,284,98742,1,2,0:0:0:0:
0,236,98821,1,2,0:0:0:0:
28,188,98900,6,0,B|56:172|56:172|88:188,1,67.5000025749208,8|2,0:1|0:0,0:0:0:0:
156,128,99058,2,0,B|184:144|184:144|216:128,1,67.5000025749208,0|2,0:0|0:0,0:0:0:0:
312,136,99216,6,0,B|300:80|300:80|308:64|308:64|297:4,1,135.000005149842,0|0,1:0|0:0,0:0:0:0:
220,12,99452,1,0,3:0:0:0:
152,52,99532,2,0,B|228:52,1,67.5000025749208,8|0,0:1|0:0,0:0:0:0:
396,4,99690,2,0,B|388:76,1,67.5000025749208,2|0,0:0|0:0,0:0:0:0:
456,164,99847,5,0,1:0:0:0:
408,192,99926,1,2,0:0:0:0:
360,164,100005,1,2,0:0:0:0:
312,136,100084,1,2,0:0:0:0:
264,164,100163,6,0,B|248:192|248:192|264:224,1,67.5000025749208,8|0,0:1|0:0,0:0:0:0:
324,328,100321,1,2,0:0:0:0:
272,332,100400,1,2,0:0:0:0:
220,336,100479,5,2,1:0:0:0:
72,144,100637,1,0,3:3:0:0:
292,48,100794,1,8,0:1:0:0:
440,240,100953,1,0,3:3:0:0:
390,249,101032,1,0,3:0:0:0:
340,260,101111,5,4,1:0:0:0:
212,68,101269,6,0,P|230:100|231:141,1,67.5000025749208,2|0,0:1|0:0,0:0:0:0:
208,248,101427,1,8,0:2:0:0:
232,130,101585,6,0,P|212:104|183:88,1,67.5000025749208,2|0,0:1|0:0,0:0:0:0:
336,228,101742,1,0,1:1:0:0:
182,88,101900,6,0,P|200:120|201:161,1,67.5000025749208,2|0,0:1|0:0,0:0:0:0:
204,280,102058,1,8,0:2:0:0:
203,150,102216,6,0,P|183:124|154:108,1,67.5000025749208,2|0,0:1|0:0,0:0:0:0:
332,196,102374,1,0,1:0:0:0:
153,108,102532,6,0,P|171:140|172:181,1,67.5000025749208,2|0,0:1|0:0,0:0:0:0:
200,312,102690,1,8,0:2:0:0:
174,170,102848,6,0,P|154:144|125:128,1,67.5000025749208,2|0,0:1|0:0,0:0:0:0:
328,164,103006,1,0,1:0:0:0:
124,128,103163,6,0,P|142:160|143:201,1,67.5000025749208,2|0,0:1|0:0,0:0:0:0:
128,272,103321,6,2,P|33:319|69:219,1,270,8|0,0:0|0:0,0:1:0:0:
208,248,103637,5,0,1:0:0:0:
385,196,103795,6,0,P|360:174|328:164,1,67.5000025749208,2|0,0:1|0:0,0:0:0:0:
383,294,103953,1,8,0:0:0:0:
328,164,104111,6,0,P|360:156|393:164,1,67.5000025749208,2|0,0:1|0:0,0:0:0:0:
212,200,104269,1,0,1:0:0:0:
393,164,104427,6,0,P|369:140|336:132,1,67.5000025749208,2|0,0:1|0:0,0:0:0:0:
335,286,104585,1,8,0:0:0:0:
337,132,104743,6,0,P|369:124|402:132,1,67.5000025749208,2|0,0:1|0:0,0:0:0:0:
216,152,104900,1,0,1:0:0:0:
402,132,105058,6,0,P|377:110|345:100,1,67.5000025749208,2|0,0:1|0:0,0:0:0:0:
287,278,105216,1,8,0:0:0:0:
345,100,105374,6,0,P|377:92|410:100,1,67.5000025749208,2|0,0:1|0:0,0:0:0:0:
220,104,105532,1,0,1:0:0:0:
410,100,105690,6,0,P|385:78|353:68,1,67.5000025749208,2|0,0:1|0:0,0:0:0:0:
220,104,105848,6,2,P|112:92|188:192,1,270,8|0,0:0|0:0,0:1:0:0:
208,264,106163,5,0,1:0:0:0:
288,248,106321,2,0,P|315:248|348:233,1,56.25,0|0,3:3|0:0,0:0:0:0:
234,182,106479,1,8,0:1:0:0:
208,264,106637,2,0,P|182:275|154:275,1,56.25,0|0,3:3|0:0,0:0:0:0:
220,104,106795,5,0,1:0:0:0:
368,232,106953,2,0,P|395:232|428:217,1,56.25,0|0,3:3|0:0,0:0:0:0:
128,280,107111,1,8,0:1:0:0:
208,28,107269,1,0,3:3:0:0:
208,28,107348,1,0,3:3:0:0:
208,28,107427,1,0,1:0:0:0:
360,148,107585,6,0,P|370:82|316:23,2,135.000005149842,0|8|0,3:3|0:1|3:0,0:0:0:0:
504,192,108058,1,0,3:0:0:0:
208,192,108216,1,0,3:0:0:0:
331,353,108374,6,0,P|370:300|360:236,1,135.000005149842,10|8,3:1|3:1,0:0:0:0:
276,232,108611,1,0,3:0:0:0:
276,232,108690,6,0,B|324:200|324:200|288:158,1,112.5,2|0,1:0|0:0,0:0:0:0:
212,168,108927,1,0,0:0:0:0:
212,168,109006,6,0,B|182:231|182:231|244:252,1,135.000005149842,2|0,1:0|0:0,0:0:0:0:
288,158,109242,1,0,0:0:0:0:
288,158,109321,6,0,B|281:77|281:77|207:92,1,157.500001502037,2|0,1:0|3:0,0:0:0:0:
160,156,109558,1,0,3:0:0:0:
183,230,109637,6,0,B|236:306|236:306|301:249,1,180,2|0,1:0|3:0,0:0:0:0:
368,144,109874,1,0,3:0:0:0:
268,84,109953,6,0,B|226:64|226:64|212:105,1,90,2|0,1:0|3:0,0:0:0:0:
280,272,110111,6,0,B|328:280|328:280|331:234,1,95.6250018239022,2|0,1:0|3:0,0:0:0:0:
168,104,110269,6,0,B|116:112|116:112|130:159,1,101.250003862381,2|0,1:0|3:0,0:0:0:0:
368,232,110427,6,0,B|413:200|413:200|379:161,1,106.875001019239,2|0,1:0|3:0,0:0:0:0:
128,208,110585,6,0,B|99:258|99:258|148:279,1,112.5,2|0,1:0|3:0,0:0:0:0:
368,119,110742,6,0,B|366:59|366:59|310:65,1,118.125001126528,2|0,1:0|3:0,0:0:0:0:
187,308,110900,6,0,B|224:359|224:359|270:320,1,123.750001180172,2|0,1:0|3:0,0:0:0:0:
244,27,111058,6,0,B|179:10|179:10|169:71,1,129.375002467632,2|0,1:0|3:0,0:0:0:0:
352,364,111216,5,8,1:3:0:0:
376,316,111295,1,2,0:0:0:0:
400,268,111374,1,2,0:0:0:0:
452,276,111453,1,2,0:0:0:0:
504,288,111532,1,2,3:2:0:0:
436,185,111690,5,8,1:3:0:0:
394,188,111769,1,2,0:0:0:0:
352,172,111848,1,2,0:0:0:0:
340,213,111927,1,2,0:0:0:0:
314,249,112006,1,0,3:0:0:0:
352,364,112163,5,8,1:3:0:0:
369,317,112242,1,2,0:0:0:0:
407,285,112321,1,2,0:0:0:0:
455,274,112400,1,2,0:0:0:0:
503,284,112479,5,0,1:0:0:0:
352,364,112637,1,0,1:0:0:0:
364,208,112795,1,2,3:3:0:0:
460,384,112953,1,0,0:0:0:0:
460,384,113032,1,0,0:0:0:0:
460,384,113111,2,0,L|436:340,1,45
364,208,113268,1,0,1:0:0:0:
280,72,113427,6,0,L|276:116,1,45
356,124,113585,2,0,L|359:79,1,45,2|0,0:3|0:0,0:0:0:0:
160,20,113742,5,8,1:3:0:0:
136,68,113821,1,2,0:0:0:0:
112,116,113900,1,2,0:0:0:0:
60,108,113979,1,2,0:0:0:0:
8,96,114058,1,2,3:2:0:0:
76,199,114216,5,8,1:3:0:0:
118,196,114295,1,2,0:0:0:0:
160,212,114374,1,2,0:0:0:0:
172,171,114453,1,2,0:0:0:0:
198,135,114532,1,0,3:0:0:0:
160,20,114689,5,8,1:3:0:0:
143,67,114768,1,2,0:0:0:0:
105,99,114847,1,2,0:0:0:0:
57,110,114926,1,2,0:0:0:0:
8,96,115005,5,0,1:0:0:0:
160,20,115163,1,0,1:0:0:0:
148,176,115321,1,2,0:3:0:0:
288,116,115479,1,0,0:0:0:0:
301,165,115558,1,0,0:0:0:0:
328,228,115637,5,2,0:3:0:0:
328,228,115716,1,2,0:3:0:0:
328,228,115794,1,2,0:3:0:0:
328,228,115874,1,2,0:3:0:0:
328,228,115953,6,0,P|396:252|452:140,1,202.500007724762,4|0,0:3|0:0,0:0:0:0:
405,98,116269,6,0,P|378:105|352:105,1,45,0|0,1:0|0:0,0:0:0:0:
241,130,116427,2,0,P|263:128|284:121,1,45,0|0,3:0|0:0,0:0:0:0:
481,82,116584,1,0,3:0:0:0:
284,120,116742,1,0,3:0:0:0:
435,280,116900,6,0,P|409:288|381:290,1,56.25,0|0,1:0|0:0,0:0:0:0:
248,316,117058,2,0,P|276:314|302:305,1,56.25,0|0,3:0|0:0,0:0:0:0:
512,264,117216,1,0,3:0:0:0:
355,171,117374,1,0,3:0:0:0:
355,171,117453,1,0,3:0:0:0:
355,171,117532,6,0,P|348:145|351:113,1,67.5000025749208,0|0,1:0|2:0,0:0:0:0:
227,67,117690,2,0,P|233:92|230:124,1,67.5000025749208,0|0,3:0|2:0,0:0:0:0:
432,208,117847,1,0,3:0:0:0:
304,36,118005,1,0,3:0:0:0:
184,198,118163,6,0,P|173:235|175:274,1,78.7500007510185,0|0,1:0|2:0,0:0:0:0:
52,330,118321,2,0,P|62:292|60:253,1,78.7500007510185,0|0,3:0|2:0,0:0:0:0:
13,130,118478,1,0,3:0:0:0:
176,384,118637,1,0,3:0:0:0:
176,384,118716,1,0,3:0:0:0:
176,384,118795,6,0,P|172:365|174:344,1,33.7500012874604,0|0,3:0|3:0,0:0:0:0:
92,162,118953,2,0,P|76:151|62:135,1,33.7500012874604,0|0,3:0|3:0,3:0:0:0:
160,368,119111,6,0,P|154:339|157:308,1,45,0|0,3:0|3:0,0:0:0:0:
99,138,119269,2,0,P|81:115|67:86,1,45,0|0,3:0|3:0,0:0:0:0:
148,352,119427,6,0,P|142:323|145:292,1,56.25,0|0,3:0|3:0,0:0:0:0:
112,118,119584,2,0,P|96:82|88:41,1,56.25,0|0,3:0|3:0,0:0:0:0:
132,336,119742,6,0,P|125:298|128:256,1,67.5000025749208,0|0,3:0|3:0,0:0:0:0:
128,102,119900,2,0,P|121:63|125:22,1,67.5000025749208,0|0,3:0|3:0,0:0:0:0:
56,376,120058,5,0,0:0:0:0:
456,8,121321,5,8,1:3:0:0:
