osu file format v14

[General]
AudioFilename: audio.mp3
AudioLeadIn: 0
PreviewTime: 80742
Countdown: 0
SampleSet: Soft
StackLeniency: 0.7
Mode: 0
LetterboxInBreaks: 0
WidescreenStoryboard: 1

[Editor]
DistanceSpacing: 1.2
BeatDivisor: 4
GridSize: 4
TimelineZoom: 1

[Metadata]
Title:GOODTEK
TitleUnicode:GOODTEK
Artist:EBIMAYO
ArtistUnicode:EBIMAYO
Creator:yf_bmp
Version:Hard
Source:大血戦 -THE BMS OF FIGHTERS ULTIMATE-
Tags:GOODPUMP pumpcore hardcore GOODMEN BOFU2015 daikessen BMS MUSYNX Muse Dash 同步音律喵賽克 CHUNITHM Arcaea Dance Rail Phigros Groove Coaster EZ2ON REBOOT SOUND VOLTEX EXCEED GEAR SDVX 6 electronic instrumental sorairokarasu TtmnZk Maboyu AliomLoung Doomsday
BeatmapID:3552340
BeatmapSetID:1680421

[Difficulty]
HPDrainRate:5
CircleSize:4
OverallDifficulty:6
ApproachRate:7.5
SliderMultiplier:1.4
SliderTickRate:0.5

[Events]
//Background and Video events
Video,-100,"o.mp4"
0,0,"bg.jpg",0,0
//Break Periods
2,40678,49659
//Storyboard Layer 0 (Background)
//Storyboard Layer 1 (Fail)
//Storyboard Layer 2 (Pass)
//Storyboard Layer 3 (Foreground)
//Storyboard Layer 4 (Overlay)
//Storyboard Sound Samples

[TimingPoints]
58,315.789473684211,4,2,2,60,1,0
58,-200,4,2,2,60,0,0
10163,-100,4,2,1,70,0,0
15690,-100,4,2,1,40,0,0
16479,-100,4,2,1,45,0,0
17111,-100,4,2,1,50,0,0
18058,-100,4,2,1,55,0,0
18374,-100,4,2,1,60,0,0
18690,-100,4,2,1,65,0,0
19006,-100,4,2,1,70,0,0
19085,-100,4,2,1,5,0,0
19163,-100,4,2,1,80,0,0
19321,-100,4,2,1,5,0,0
19400,-100,4,2,1,80,0,0
19558,-100,4,2,1,5,0,0
19637,-100,4,2,1,80,0,0
19716,-100,4,2,1,5,0,0
19795,-100,4,2,1,80,0,0
19874,-100,4,2,1,5,0,0
19953,-100,4,2,1,80,0,0
20111,-100,4,2,1,5,0,0
20269,-100,4,2,1,70,0,0
22479,-100,4,2,1,80,0,0
24295,-100,4,2,1,5,0,0
24374,-100,4,2,1,70,0,0
29110,-83.3333333333333,4,2,1,70,0,0
29348,-83.3333333333333,4,2,1,5,0,0
29427,-83.3333333333333,4,2,1,70,0,0
29663,-83.3333333333333,4,2,1,5,0,0
29742,-83.3333333333333,4,2,1,70,0,0
30373,-100,4,2,1,70,0,0
38506,-100,4,2,1,30,0,0
38585,-100,4,2,1,70,0,0
38663,-100,4,2,1,30,0,0
38742,-100,4,2,1,70,0,0
38821,-100,4,2,1,30,0,0
38900,-100,4,2,1,70,0,0
38979,-100,4,2,1,35,0,0
39058,-100,4,2,1,70,0,0
39137,-100,4,2,1,35,0,0
39216,-100,4,2,1,40,0,0
39532,-100,4,2,1,50,0,0
39848,-100,4,2,1,60,0,0
40163,-100,4,2,1,70,0,0
42611,-100,4,2,1,5,0,0
42690,-100,4,2,1,70,0,0
44821,-100,4,2,1,5,0,0
44900,-100,4,2,1,70,0,0
45453,-100,4,2,1,5,0,0
45532,-100,4,2,1,70,0,0
47663,-100,4,2,1,5,0,0
47742,-100,4,2,1,70,0,0
49874,-100,4,2,1,5,0,0
49953,-100,4,2,1,70,0,0
50506,-100,4,2,1,5,0,0
50584,-200,4,2,2,60,0,0
60689,-100,4,2,1,70,0,0
61953,-100,4,2,2,70,0,0
63216,-100,4,2,1,70,0,0
64479,-100,4,2,2,70,0,0
65111,-100,4,2,2,50,0,0
65427,-100,4,2,1,70,0,0
67637,-100,4,2,1,80,0,0
70716,-100,4,2,1,5,0,0
70795,-100,4,2,1,70,0,0
75216,-100,4,2,1,50,0,0
75532,-100,4,2,1,70,0,0
75690,-100,4,2,1,5,0,0
75848,-100,4,2,1,70,0,0
79637,-100,4,2,1,25,0,0
79953,-100,4,2,1,35,0,0
80269,-100,4,2,1,50,0,0
80427,-100,4,2,1,60,0,0
80585,-100,4,2,1,70,0,0
89506,-100,4,2,1,60,0,0
90058,-100,4,2,1,65,0,0
90374,-100,4,2,1,70,0,0
90690,-100,4,2,1,75,0,0
91005,-90.9090909090909,4,2,1,75,0,1
109479,-90.9090909090909,4,2,1,25,0,1
109637,-90.9090909090909,4,2,1,75,0,1
109795,-90.9090909090909,4,2,1,30,0,1
109953,-90.9090909090909,4,2,1,75,0,1
110032,-90.9090909090909,4,2,1,35,0,1
110111,-90.9090909090909,4,2,1,75,0,1
110190,-90.9090909090909,4,2,1,40,0,1
110269,-90.9090909090909,4,2,1,75,0,1
110348,-90.9090909090909,4,2,1,45,0,1
110427,-90.9090909090909,4,2,1,75,0,1
110506,-90.9090909090909,4,2,1,50,0,1
110585,-90.9090909090909,4,2,1,75,0,1
110663,-90.9090909090909,4,2,1,55,0,1
110742,-90.9090909090909,4,2,1,75,0,1
110821,-90.9090909090909,4,2,1,60,0,1
110900,-90.9090909090909,4,2,1,75,0,1
110979,-90.9090909090909,4,2,1,65,0,1
111058,-90.9090909090909,4,2,1,75,0,1
111137,-90.9090909090909,4,2,1,70,0,1
111215,-100,4,2,1,70,0,0
112479,-100,4,2,2,70,0,0
113742,-100,4,2,1,70,0,0
115006,-100,4,2,2,70,0,0
115637,-100,4,2,2,50,0,0
115953,-100,4,2,1,70,0,0

[Colours]
Combo1 : 240,189,36
Combo2 : 83,169,12
Combo3 : 71,103,228
Combo4 : 220,58,46

[HitObjects]
216,284,58,6,0,P|146:349|216:368,1,210,4|2,2:0|2:0,0:0:0:0:
296,368,1163,2,0,P|366:303|296:284,1,210,2|2,2:0|2:0,0:0:0:0:
104,148,2584,6,0,P|280:-8|408:148,1,490,2|2,2:0|2:0,0:0:0:0:
276,232,5110,6,0,P|211:302|192:232,1,210,2|2,2:0|2:0,0:0:0:0:
192,152,6215,2,0,P|257:82|276:152,1,210,2|2,2:0|2:0,0:0:0:0:
140,344,7636,6,0,P|-16:168|140:40,1,490,2|2,2:0|2:0,0:0:0:0:
224,44,10005,1,2,2:0:0:0:
296,92,10163,2,0,P|332:92|376:80,1,70,0|2,1:0|0:2,0:0:0:0:
432,132,10478,2,0,P|466:131|501:125,1,70,0|2,3:0|0:2,0:0:0:0:
356,168,10794,2,0,P|322:176|288:175,1,70,0|2,1:0|0:2,0:0:0:0:
424,216,11110,1,0,3:0:0:0:
424,216,11268,1,2,0:2:0:0:
420,300,11426,6,0,B|388:289|388:289|352:293,1,70,0|0,1:0|0:0,0:0:0:0:
304,364,11742,2,0,B|337:376|337:376|373:372,1,70,0|2,3:0|0:0,0:0:0:0:
420,300,12058,2,0,B|456:296|456:296|488:307,1,70,0|2,1:0|0:0,0:0:0:0:
440,381,12374,2,0,B|405:384|405:384|372:372,1,70,0|2,3:0|0:0,0:0:0:0:
372,220,12689,6,0,P|372:184|384:140,1,70,0|2,1:0|0:0,0:0:0:0:
332,84,13004,2,0,P|332:49|338:14,1,70,0|2,3:0|0:0,0:0:0:0:
295,159,13320,2,0,P|287:193|287:227,1,70,0|2,1:0|0:0,0:0:0:0:
248,92,13636,1,0,3:0:0:0:
248,92,13794,1,2,0:0:0:0:
164,96,13952,6,0,B|175:128|175:128|171:164,1,70,0|2,1:0|2:0,0:0:0:0:
100,212,14268,2,0,B|88:179|88:179|92:143,1,70,0|2,3:0|0:0,0:0:0:0:
164,96,14584,2,0,B|168:60|168:60|157:28,1,70,0|2,1:0|2:0,0:0:0:0:
84,77,14900,2,0,B|80:111|80:111|92:144,1,70,8|2,3:1|0:0,0:0:0:0:
12,168,15215,6,0,L|8:252,1,70,0|2,1:0|0:0,0:0:0:0:
60,304,15531,2,0,P|96:312|136:304,1,70,8|2,0:1|3:2,0:0:0:0:
212,320,15847,2,0,L|208:236,1,70,0|0,1:0|3:0,0:0:0:0:
260,184,16163,2,0,P|296:176|336:184,1,70,8|2,3:1|3:2,0:0:0:0:
400,228,16479,6,0,P|410:192|404:144,1,70,0|0,1:0|3:0,0:0:0:0:
356,92,16794,2,0,P|320:81|272:88,1,70,8|2,3:1|3:2,0:0:0:0:
196,52,17110,2,0,P|206:87|200:136,1,70,0|2,1:0|3:2,0:0:0:0:
152,188,17425,2,0,P|116:198|68:192,1,70,8|2,3:1|3:2,0:0:0:0:
52,276,17742,6,0,L|68:312,7,35,0|0|2|2|8|2|2|2,1:0|3:0|3:2|3:2|3:1|3:2|3:2|3:2,0:0:0:0:
108,296,18373,6,0,P|125:298|140:307,3,35,0|2|2|0,3:0|3:2|3:2|3:2,0:0:0:0:
144,352,18689,2,0,P|161:354|176:363,3,35,0|2|2|2,3:2|3:2|3:2|3:2,0:0:0:0:
212,340,19005,5,2,0:0:0:0:
292,260,19163,2,0,P|284:278|282:293,1,35,0|2,0:0|0:0,0:0:0:0:
384,336,19400,2,0,P|363:338|350:344,1,35,0|2,0:0|0:0,0:0:0:0:
376,252,19636,6,0,P|373:215|385:183,2,70,2|2|4,0:0|0:0|2:3,0:0:0:0:
416,88,20268,6,0,P|405:92|382:94,2,35,0|0|0,1:0|0:0|0:0,0:0:0:0:
297,92,20584,2,0,P|259:101|217:100,1,70,0|0,3:3|0:0,0:0:0:0:
176,36,20900,6,0,P|180:24|182:2,2,35,0|0|0,1:0|0:0|0:0,0:0:0:0:
96,64,21216,2,0,P|95:99|86:133,1,70,0|0,3:3|0:0,0:0:0:0:
141,194,21531,6,0,P|159:194|176:200,2,35,0|0|0,1:0|0:0|0:0,0:0:0:0:
68,228,21847,2,0,P|30:219|-12:220,1,70,0|0,3:3|0:0,0:0:0:0:
129,312,22163,6,0,P|118:308|95:306,3,35,0|0|0|0,1:0|0:0|0:0|0:0,0:0:0:0:
300,356,22794,6,0,P|296:345|294:322,3,35,0|0|0|0,1:0|0:0|0:0|0:0,0:0:0:0:
308,285,23110,2,0,P|299:247|300:205,1,70,0|0,3:3|0:0,0:0:0:0:
320,137,23426,6,0,P|332:141|354:143,3,35,0|0|0|0,1:0|0:0|0:0|0:0,0:0:0:0:
340,105,23742,2,0,P|305:104|271:95,1,70,0|0,3:3|0:0,0:0:0:0:
180,129,24057,6,0,P|184:118|108:13,2,140,8|0|0,0:2|3:3|0:0,0:0:0:0:
12,133,25005,1,2,3:2:0:0:
148,232,25321,5,0,1:0:0:0:
148,232,25400,2,0,P|164:220|180:196,2,35
184,252,25636,2,0,L|164:328,1,70,8|0,3:2|0:0,0:0:0:0:
264,260,25952,5,0,1:0:0:0:
264,260,26031,2,0,P|280:248|296:224,2,35
296,288,26267,2,0,P|296:329|312:388,1,70,8|0,3:2|0:0,0:0:0:0:
400,288,26584,5,0,1:0:0:0:
400,288,26663,2,0,P|388:272|364:256,2,35
428,256,26899,2,0,P|468:248|508:212,1,70,8|0,3:2|0:0,0:0:0:0:
392,184,27215,5,0,1:0:0:0:
392,184,27294,2,0,P|380:168|356:152,2,35
476,8,27847,6,0,P|490:2|524:0,2,35,0|0|0,1:0|0:0|0:0,0:0:0:0:
460,24,28084,1,0,0:0:0:0:
456,43,28163,2,0,P|422:53|387:55,1,70,8|0,3:2|0:0,0:0:0:0:
284,88,28479,6,0,P|298:93|332:96,2,35,0|0|0,1:0|0:0|0:0,0:0:0:0:
268,72,28716,1,0,0:0:0:0:
264,53,28795,2,0,P|230:43|195:41,1,70,8|0,3:2|0:0,0:0:0:0:
132,96,29110,6,0,B|78:127|78:127|71:191,1,125.999996154785,8|0,1:3|0:0,0:0:0:0:
112,216,29426,2,0,B|165:184|165:184|172:120,1,125.999996154785,8|0,1:3|0:0,0:0:0:0:
132,96,29742,2,0,L|44:88,2,83.9999974365235,8|8|2,1:3|1:3|0:0,0:0:0:0:
228,236,30373,5,0,1:0:0:0:
305,205,30531,6,0,P|348:213|405:256,1,105,2|0,0:1|0:0,0:0:0:0:
401,304,30847,2,0,P|370:337|305:364,1,105,2|0,0:1|0:0,0:0:0:0:
269,335,31163,2,0,P|254:292|262:221,1,105,2|0,0:1|0:0,0:0:0:0:
305,205,31479,6,0,P|348:213|405:256,1,105,2|0,0:1|0:0,0:0:0:0:
401,304,31795,2,0,P|370:337|305:364,1,105,2|0,0:1|0:0,0:0:0:0:
269,335,32111,2,0,P|254:292|262:221,1,105,2|0,0:1|0:0,0:0:0:0:
305,205,32426,5,2,0:1:0:0:
381,169,32584,2,2,P|369:125|309:129,1,105,8|0,0:2|3:3,0:1:0:0:
276,128,32900,1,0,1:0:0:0:
199,159,33058,6,0,P|156:128|100:116,1,105,2|0,0:1|0:0,0:0:0:0:
103,60,33373,2,0,P|151:38|189:-4,1,105,2|0,0:1|0:0,0:0:0:0:
235,29,33689,2,0,P|229:81|247:136,1,105,2|0,0:1|0:0,0:0:0:0:
199,159,34005,6,0,P|156:128|100:116,1,105,2|0,0:1|0:0,0:0:0:0:
103,60,34320,2,0,P|151:38|189:-4,1,105,2|0,0:1|0:0,0:0:0:0:
235,29,34636,2,0,P|229:81|247:136,1,105,2|0,0:1|0:0,0:0:0:0:
199,159,34953,5,2,3:1:0:0:
124,196,35111,2,2,P|74:196|59:242,1,105,8|0,3:2|3:3,0:1:0:0:
80,280,35426,6,0,L|60:356,1,70,0|0,1:0|3:3,0:0:0:0:
164,280,35742,2,0,L|144:356,1,70,0|0,3:3|3:3,0:0:0:0:
248,276,36058,2,0,L|228:352,1,70,0|0,1:0|3:3,0:0:0:0:
332,276,36374,2,0,L|312:352,1,70,0|0,3:3|3:3,0:0:0:0:
314,343,36610,1,0,3:3:0:0:
314,343,36689,6,0,L|390:363,1,70,0|0,1:0|3:3,0:0:0:0:
480,308,37005,2,0,L|404:288,1,70,0|0,3:3|3:3,0:0:0:0:
340,192,37321,2,0,L|416:212,1,70,0|0,1:0|3:3,0:0:0:0:
506,157,37637,2,0,L|430:137,1,70,2|0,3:1|3:3,0:0:0:0:
438,139,37873,1,0,3:3:0:0:
438,139,37952,6,0,B|416:72|416:72|470:29,1,140,0|0,1:0|1:0,0:0:0:0:
300,36,38584,2,0,B|322:103|322:103|267:145,1,140,0|0,1:0|1:0,0:0:0:0:
160,20,39215,6,0,L|144:56,7,35,0|0|2|0|0|2|2|0,3:0|3:0|3:1|3:0|3:2|3:2|3:2|3:2,0:0:0:0:
104,40,39846,6,0,P|87:42|72:51,3,35,0|2|2|0,3:0|3:2|3:2|3:2,0:0:0:0:
68,96,40162,2,0,P|51:98|36:107,3,35,0|2|2|0,3:2|3:2|3:2|3:2,0:0:0:0:
0,84,40478,5,4,0:2:0:0:
448,245,50584,6,0,B|404:296|335:234|413:210|312:172|280:217|297:246,1,210,4|0,0:0|0:0,0:0:0:0:
324,328,51689,2,0,B|274:359|274:303|225:331,1,105,2|0,0:0|0:0,0:0:0:0:
240,164,52479,1,2,0:0:0:0:
225,331,52794,1,0,0:0:0:0:
148,364,52952,6,0,P|92:364|16:244,1,210,2|2,0:0|0:0,0:0:0:0:
52,168,54058,1,0,0:0:0:0:
132,140,54215,2,0,P|162:224|250:245,1,175,2|2,0:0|0:0,0:0:0:0:
496,32,55636,6,0,P|452:48|384:40,1,105
448,168,56584,1,0,0:0:0:0:
416,244,56742,2,0,P|407:271|404:292,1,35,2|0,0:0|0:0,0:0:0:0:
332,316,57058,2,0,P|323:288|320:268,1,35,2|0,0:0|0:0,0:0:0:0:
244,252,57373,2,0,P|248:195|272:124,1,105,2|0,0:0|0:0,0:0:0:0:
344,160,58005,6,0,P|212:264|316:88,1,560,2|2,0:0|0:0,0:0:0:0:
376,80,60689,6,0,B|420:112|420:112|422:162,1,105,8|2,1:3|0:0,0:0:0:0:
424,204,61005,1,2,3:2:0:0:
468,276,61163,2,0,B|488:296|488:296|404:284,1,105,8|2,1:3|0:0,0:0:0:0:
372,296,61479,1,2,3:2:0:0:
336,376,61636,2,0,B|328:384|328:384|444:372|444:372|436:380,1,140,8|0,1:3|1:0,0:0:0:0:
0,188,63215,6,0,B|32:232|32:232|82:234,1,105,8|2,1:3|0:0,0:0:0:0:
124,236,63531,1,0,3:0:0:0:
196,280,63689,2,0,B|216:300|216:300|204:216,1,105,8|2,1:3|0:0,0:0:0:0:
216,184,64005,1,2,3:2:0:0:
296,148,64162,2,0,B|304:140|304:140|292:256|292:256|300:248,1,140,8|0,1:3|1:0,0:0:0:0:
476,80,65742,6,0,L|496:4,1,70,0|0,3:0|1:0,0:0:0:0:
392,80,66058,2,0,L|412:4,1,70,0|0,3:0|3:0,0:0:0:0:
308,84,66374,2,0,L|328:8,1,70,0|0,3:0|3:0,0:0:0:0:
224,84,66690,2,0,L|244:8,1,70,0|0,3:0|3:0,0:0:0:0:
242,17,66926,1,0,3:0:0:0:
242,17,67005,6,0,L|166:-3,1,70,0|0,3:0|3:0,0:0:0:0:
76,52,67321,2,0,L|152:72,1,70,0|0,3:0|3:0,0:0:0:0:
216,168,67637,2,0,L|140:148,1,70,0|0,3:0|3:0,0:0:0:0:
51,203,67953,2,0,L|127:223,1,70,0|0,3:0|3:0,0:0:0:0:
118,221,68189,1,0,3:0:0:0:
118,221,68268,6,0,P|125:233|129:254,3,35,0|0|0|0,3:0|3:0|3:0|3:0,0:0:0:0:
168,272,68584,2,0,P|174:283|178:304,3,35,0|0|0|0,3:0|3:0|3:0|3:0,0:0:0:0:
216,320,68900,6,0,P|228:327|249:331,3,35,0|0|0|0,3:0|3:0|3:0|3:0,0:0:0:0:
268,371,69216,2,0,P|279:377|300:381,3,35,0|0|0|0,3:0|3:0|3:0|3:0,0:0:0:0:
336,356,69531,1,0,0:0:0:0:
512,40,70479,6,0,P|464:62|412:65,1,105,4|0,0:3|0:0,0:0:0:0:
371,51,70794,6,0,P|313:31|319:143,1,210,0|0,1:0|0:0,0:0:0:0:
306,139,71347,1,0,0:0:0:0:
306,139,71426,2,0,P|279:165|219:157,1,70,0|0,1:0|0:0,0:0:0:0:
180,120,71742,2,0,P|206:93|266:101,1,70,0|0,1:0|0:0,0:0:0:0:
306,139,72058,6,0,P|363:119|358:231,1,210,0|0,1:0|3:0,0:0:0:0:
296,260,72689,2,0,P|314:201|253:198,1,140,0|0,1:2|1:0,0:0:0:0:
224,28,73321,6,0,P|244:86|132:80,1,210,0|0,1:0|0:0,0:0:0:0:
136,93,73874,1,0,0:0:0:0:
136,93,73953,2,0,P|110:120|118:180,1,70,0|0,1:0|0:0,0:0:0:0:
155,219,74269,2,0,P|182:193|174:133,1,70,0|0,1:0|0:0,0:0:0:0:
136,93,74585,6,0,P|156:36|44:41,1,210,0|0,1:0|3:0,0:0:0:0:
20,108,75216,2,0,L|28:196,2,70,8|8|2,1:3|1:3|0:2,0:0:0:0:
83,292,75847,6,0,P|90:227|154:218,1,140,0|0,1:0|1:0,0:0:0:0:
232,184,76321,2,0,P|232:160|240:140,2,35,0|0|0,0:0|0:0|1:0,0:0:0:0:
228,268,76636,1,0,0:0:0:0:
304,232,76794,2,0,P|348:232|382:219,1,70,0|0,1:0|0:0,0:0:0:0:
444,272,77110,6,0,P|437:337|373:346,1,140,0|0,1:0|1:0,0:0:0:0:
296,316,77584,1,0,3:0:0:0:
304,232,77742,2,0,P|297:167|233:158,1,140,0|0,1:0|3:0,0:0:0:0:
160,200,78215,1,0,3:0:0:0:
160,200,78294,1,0,3:0:0:0:
160,200,78373,6,0,P|95:193|86:129,1,140,0|0,1:0|1:0,0:0:0:0:
8,56,78847,2,0,P|12:68|16:104,2,35,0|0|0,0:0|0:0|1:0,0:0:0:0:
76,8,79162,1,0,0:0:0:0:
152,40,79320,2,0,P|186:40|220:32,1,70,0|0,1:0|0:0,0:0:0:0:
320,8,79636,6,0,P|311:24|308:56,12,35,0|0|0|0|0|0|0|0|0|0|0|0|4,3:0|3:0|3:0|3:0|3:0|3:0|3:0|3:0|3:0|3:0|3:0|3:0|0:3,0:0:0:0:
404,168,80900,6,0,P|412:200|412:244,2,70,4|2|8,1:0|0:0|0:1,0:0:0:0:
332,212,81373,1,2,0:0:0:0:
413,237,81531,6,0,P|414:292|424:343,2,105,0|2|2,1:0|0:0|0:0,0:0:0:0:
332,212,82163,6,0,P|300:204|256:204,2,70,0|2|8,1:0|0:0|0:1,0:0:0:0:
288,284,82636,1,2,0:0:0:0:
263,203,82794,6,0,P|208:202|157:192,2,105,0|2|2,1:0|0:0|3:2,0:0:0:0:
308,132,83426,6,0,P|323:99|358:68,2,70,0|2|8,1:0|0:0|0:1,0:0:0:0:
392,144,83900,1,2,0:0:0:0:
346,75,84058,6,0,L|218:75,2,105,0|2|2,1:0|0:0|0:0,0:0:0:0:
428,72,84689,6,0,P|452:46|466:15,2,70,0|2|8,1:0|0:0|0:1,0:0:0:0:
392,144,85163,1,2,0:0:0:0:
412,224,85321,6,0,L|430:299,2,70,8|8|2,1:3|1:3|0:2,0:0:0:0:
232,355,85952,6,0,P|199:368|164:367,1,70,0|2,1:0|0:0,0:0:0:0:
116,296,86268,2,0,P|148:283|183:284,1,70,8|2,0:0|0:0,0:0:0:0:
228,212,86584,2,0,L|240:140,1,70,0|2,1:0|0:0,0:0:0:0:
156,132,86900,2,0,L|144:204,1,70,0|2,0:0|0:0,0:0:0:0:
72,164,87215,6,0,L|2:152,1,70,0|2,1:0|0:0,0:0:0:0:
8,68,87531,2,0,L|77:79,1,70,8|2,0:0|0:0,0:0:0:0:
156,132,87847,2,0,P|154:97|166:64,1,70,0|2,1:0|0:0,0:0:0:0:
250,75,88163,2,0,P|251:109|239:142,1,70,0|0,0:0|3:0,0:0:0:0:
239,143,88400,1,0,3:0:0:0:
239,143,88479,6,0,L|321:173,2,70,0|2|8,1:0|3:2|3:1,0:0:0:0:
191,211,88952,1,2,3:2:0:0:
248,272,89110,2,0,L|329:301,2,70,0|2|0,3:0|3:2|0:0,0:0:0:0:
220,380,89583,1,0,3:0:0:0:
220,380,89663,1,0,3:0:0:0:
220,380,89742,6,0,P|213:368|209:347,3,35,0|2|2|2,3:0|3:2|3:2|3:2,0:0:0:0:
170,329,90058,2,0,P|164:318|160:297,3,35,0|2|2|0,3:2|3:2|3:2|3:2,0:0:0:0:
122,281,90374,6,0,P|110:274|89:270,3,35,0|2|2|0,3:0|3:2|3:2|3:2,0:0:0:0:
70,230,90690,2,0,P|59:224|38:220,3,35,0|2|2|0,3:2|3:2|3:2|3:2,0:0:0:0:
2,245,91005,6,0,P|8:285|8:324,1,77.0000023498536,6|2,1:0|0:0,0:0:0:0:
77,372,91321,2,0,B|164:384|136:324|222:340,1,154.000004699707,8|0,0:1|1:0,0:0:0:0:
252,260,91794,2,0,P|240:248|228:220,2,38.5000011749268,2|0|8,0:0|0:0|0:1,0:0:0:0:
304,328,92110,6,0,P|384:320|440:392,1,154.000004699707,2|2,0:0|0:0,0:0:0:0:
492,296,92584,2,0,P|496:224|436:256,2,154.000004699707,8|0|8,0:1|1:0|0:1,0:0:0:0:
504,184,93373,1,0,3:3:0:0:
504,184,93452,1,0,3:3:0:0:
504,184,93531,6,0,P|498:144|498:105,1,77.0000023498536,0|2,1:0|0:0,0:0:0:0:
448,36,93847,2,0,P|359:65|356:136,1,154.000004699707,8|0,0:1|1:0,0:0:0:0:
304,188,94320,2,0,P|268:199|228:202,1,77.0000023498536,0|8,0:0|0:1,0:0:0:0:
160,152,94636,6,0,P|80:160|24:88,1,154.000004699707,2|2,0:2|0:0,0:0:0:0:
108,80,95110,2,0,P|103:41|86:7,2,77.0000023498536,8|2|0,0:1|0:0|1:0,0:0:0:0:
30,112,95584,1,0,3:3:0:0:
80,180,95742,1,0,1:0:0:0:
4,220,95900,1,0,3:3:0:0:
4,220,95979,1,0,3:3:0:0:
4,220,96058,6,0,P|4:258|10:296,1,77.0000023498536,6|2,1:0|0:0,0:0:0:0:
4,380,96374,2,0,P|68:356|164:352,1,154.000004699707,8|0,0:1|1:0,0:0:0:0:
164,264,96847,2,0,P|155:246|142:232,2,38.5000011749268,2|0|8,0:0|0:0|0:1,0:0:0:0:
232,316,97163,6,0,P|312:324|368:252,1,154.000004699707,2|2,0:0|0:0,0:0:0:0:
440,308,97637,2,0,P|444:380|384:348,2,154.000004699707,8|0|8,0:1|1:0|0:1,0:0:0:0:
428,224,98426,1,0,3:3:0:0:
428,224,98505,1,0,3:3:0:0:
428,224,98584,6,0,P|422:184|422:145,1,77.0000023498536,0|2,1:0|0:0,0:0:0:0:
396,64,98900,2,0,P|487:81|499:152,1,154.000004699707,8|0,0:1|1:0,0:0:0:0:
512,215,99373,2,0,P|506:234|503:253,2,38.5000011749268,0|0|8,0:0|3:0|0:1,0:0:0:0:
428,224,99689,6,0,P|356:232|292:288,1,154.000004699707,2|2,0:0|0:0,0:0:0:0:
232,224,100163,2,0,P|224:188|210:151,2,77.0000023498536,8|2|2,0:1|0:0|1:0,0:0:0:0:
216,308,100637,1,0,3:3:0:0:
148,256,100795,1,8,0:1:0:0:
116,180,100952,2,0,P|92:192|72:204,2,38.5000011749268,0|0|4,3:3|3:0|1:0,0:0:0:0:
85,103,101268,6,0,P|93:60|136:3,1,115.50000352478,2|0,0:1|0:0,0:0:0:0:
184,3,101584,2,0,P|217:34|244:99,1,115.50000352478,2|0,0:1|0:0,0:0:0:0:
219,139,101900,2,0,P|176:154|105:146,1,115.50000352478,2|0,0:1|0:0,0:0:0:0:
85,103,102216,6,0,P|93:60|136:3,1,115.50000352478,2|0,0:1|0:0,0:0:0:0:
184,3,102532,2,0,P|217:34|244:99,1,115.50000352478,2|0,0:1|0:0,0:0:0:0:
219,139,102848,2,0,P|176:154|105:146,1,115.50000352478,2|0,0:1|0:0,0:0:0:0:
85,103,103163,5,2,0:1:0:0:
49,27,103321,2,2,P|5:39|0:104,1,115.50000352478,8|0,0:0|0:0,0:1:0:0:
8,144,103637,1,0,1:0:0:0:
52,216,103794,6,0,P|95:252|151:266,1,115.50000352478,2|0,0:1|0:0,0:0:0:0:
152,315,104110,2,0,P|99:334|59:375,1,115.50000352478,2|0,0:1|0:0,0:0:0:0:
16,350,104426,2,0,P|25:294|9:239,1,115.50000352478,2|0,0:1|0:0,0:0:0:0:
52,216,104742,6,0,P|95:252|151:266,1,115.50000352478,2|0,0:1|0:0,0:0:0:0:
152,315,105058,2,0,P|99:334|59:375,1,115.50000352478,2|0,0:1|0:0,0:0:0:0:
16,350,105374,2,0,P|25:294|9:239,1,115.50000352478,2|0,0:1|0:0,0:0:0:0:
52,216,105689,5,2,0:1:0:0:
112,160,105847,2,2,P|128:108|72:124,1,115.50000352478,8|0,0:0|0:0,0:1:0:0:
40,92,106163,6,0,L|20:16,1,77.0000023498536,0|0,1:0|3:3,0:0:0:0:
104,17,106479,2,0,L|124:92,1,77.0000023498536,8|0,0:1|3:3,0:0:0:0:
208,96,106795,2,0,L|188:20,1,77.0000023498536,0|0,1:0|3:3,0:0:0:0:
272,21,107111,2,0,L|292:96,1,77.0000023498536,8|0,0:1|3:3,0:0:0:0:
292,96,107347,1,0,3:3:0:0:
292,96,107426,6,0,L|368:76,1,77.0000023498536,0|0,1:0|3:3,0:0:0:0:
385,159,107742,2,0,L|459:139,1,77.0000023498536,8|0,0:1|3:0,0:0:0:0:
320,255,108058,2,0,L|396:235,1,77.0000023498536,0|0,3:0|3:0,0:0:0:0:
425,318,108374,2,0,L|499:298,1,77.0000023498536,10|8,3:1|3:1,0:0:0:0:
499,297,108610,1,0,3:0:0:0:
499,297,108689,6,0,B|522:224|522:224|474:164,1,154.000004699707,2|2,1:0|1:0,0:0:0:0:
292,200,109321,2,0,B|269:273|269:273|317:333,1,154.000004699707,2|2,1:0|1:0,0:0:0:0:
156,376,109952,6,0,L|184:288,1,77.0000023498536,2|2,1:0|1:0,0:0:0:0:
96,280,110268,2,0,L|68:368,1,77.0000023498536,2|2,1:0|1:0,0:0:0:0:
8,296,110584,5,2,1:0:0:0:
40,216,110742,1,2,1:0:0:0:
72,136,110900,1,2,1:0:0:0:
124,204,111058,1,2,1:0:0:0:
172,272,111215,6,0,B|204:316|204:316|254:318,1,105,8|2,1:3|0:0,0:0:0:0:
296,320,111531,1,2,3:2:0:0:
368,364,111689,2,0,B|388:384|388:384|376:300,1,105,8|2,1:3|0:0,0:0:0:0:
388,268,112005,1,0,3:0:0:0:
468,232,112162,2,0,B|476:224|476:224|464:340|464:340|472:332,1,140,8|0,1:3|1:0,0:0:0:0:
337,12,113741,6,0,B|293:44|293:44|291:94,1,105,8|2,1:3|0:0,0:0:0:0:
289,136,114057,1,2,3:2:0:0:
245,208,114215,2,0,B|225:228|225:228|309:216,1,105,8|2,1:3|0:0,0:0:0:0:
341,228,114531,1,0,3:0:0:0:
377,308,114688,2,0,B|385:316|385:316|269:304|269:304|277:312,1,140,8|0,1:3|1:0,0:0:0:0:
36,80,116268,6,0,L|16:4,1,70,0|0,1:0|3:0,0:0:0:0:
120,80,116584,2,0,L|100:4,1,70,0|0,3:0|3:0,0:0:0:0:
204,84,116900,2,0,L|184:8,1,70,0|0,1:0|3:0,0:0:0:0:
288,84,117216,2,0,L|268:8,1,70,0|0,3:0|3:0,0:0:0:0:
270,17,117452,1,0,3:0:0:0:
270,17,117531,6,0,L|346:-3,1,70,0|0,1:0|3:0,0:0:0:0:
436,52,117847,2,0,L|360:72,1,70,0|0,3:0|3:0,0:0:0:0:
296,168,118163,2,0,L|372:148,1,70,0|0,1:0|3:0,0:0:0:0:
496,200,118479,2,0,L|420:220,1,70,0|0,3:0|3:0,0:0:0:0:
429,218,118715,1,0,3:0:0:0:
430,217,118794,6,0,P|423:229|419:250,3,35,0|0|0|0,3:0|3:0|3:0|3:0,0:0:0:0:
379,269,119110,2,0,P|373:280|369:301,3,35,0|0|0|0,3:0|3:0|3:0|3:0,0:0:0:0:
331,317,119426,6,0,P|319:324|298:328,3,35,0|0|0|0,3:0|3:0|3:0|3:0,0:0:0:0:
279,368,119742,2,0,P|268:374|247:378,3,35,0|0|0|0,3:0|3:0|3:0|3:0,0:0:0:0:
211,353,120057,1,0,0:0:0:0:
0,40,121005,6,0,P|48:62|100:65,1,105
140,52,121321,1,8,1:3:0:0:
