osu file format v14

[General]
AudioFilename: audio.mp3
AudioLeadIn: 0
PreviewTime: 80742
Countdown: 0
SampleSet: Soft
StackLeniency: 0.7
Mode: 0
LetterboxInBreaks: 0
WidescreenStoryboard: 1

[Editor]
DistanceSpacing: 0.9
BeatDivisor: 4
GridSize: 4
TimelineZoom: 1

[Metadata]
Title:GOODTEK
TitleUnicode:GOODTEK
Artist:EBIMAYO
ArtistUnicode:EBIMAYO
Creator:yf_bmp
Version:Beginner
Source:大血戦 -THE BMS OF FIGHTERS ULTIMATE-
Tags:GOODPUMP pumpcore hardcore GOODMEN BOFU2015 daikessen BMS MUSYNX Muse Dash 同步音律喵賽克 CHUNITHM Arcaea Dance Rail Phigros Groove Coaster EZ2ON REBOOT SOUND VOLTEX EXCEED GEAR SDVX 6 electronic instrumental sorairokarasu TtmnZk Maboyu AliomLoung Doomsday
BeatmapID:3432908
BeatmapSetID:1680421

[Difficulty]
HPDrainRate:3.3
CircleSize:2
OverallDifficulty:3.3
ApproachRate:3.5
SliderMultiplier:1
SliderTickRate:0.5

[Events]
//Background and Video events
Video,-100,"o.mp4"
0,0,"bg.jpg",0,0
//Break Periods
//Storyboard Layer 0 (Background)
//Storyboard Layer 1 (Fail)
//Storyboard Layer 2 (Pass)
//Storyboard Layer 3 (Foreground)
//Storyboard Layer 4 (Overlay)
//Storyboard Sound Samples

[TimingPoints]
58,315.789473684211,4,2,2,60,1,0
58,-111.111111111111,4,2,2,60,0,0
10163,-111.111111111111,4,2,1,70,0,0
15690,-111.111111111111,4,2,1,40,0,0
16479,-111.111111111111,4,2,1,45,0,0
17111,-111.111111111111,4,2,1,50,0,0
18058,-111.111111111111,4,2,1,55,0,0
18374,-111.111111111111,4,2,1,60,0,0
18690,-111.111111111111,4,2,1,65,0,0
19006,-111.111111111111,4,2,1,70,0,0
19085,-111.111111111111,4,2,1,5,0,0
19163,-111.111111111111,4,2,1,80,0,0
19321,-111.111111111111,4,2,1,5,0,0
19400,-111.111111111111,4,2,1,80,0,0
19558,-111.111111111111,4,2,1,5,0,0
19637,-111.111111111111,4,2,1,80,0,0
19716,-111.111111111111,4,2,1,5,0,0
19795,-111.111111111111,4,2,1,80,0,0
19874,-111.111111111111,4,2,1,5,0,0
19953,-111.111111111111,4,2,1,80,0,0
20111,-111.111111111111,4,2,1,5,0,0
20269,-111.111111111111,4,2,1,70,0,0
22479,-111.111111111111,4,2,1,80,0,0
24295,-111.111111111111,4,2,1,5,0,0
24374,-111.111111111111,4,2,1,70,0,0
29348,-111.111111111111,4,2,1,5,0,0
29427,-111.111111111111,4,2,1,70,0,0
29663,-111.111111111111,4,2,1,5,0,0
29742,-111.111111111111,4,2,1,70,0,0
38506,-111.111111111111,4,2,1,30,0,0
38585,-111.111111111111,4,2,1,70,0,0
38663,-111.111111111111,4,2,1,30,0,0
38742,-111.111111111111,4,2,1,70,0,0
38821,-111.111111111111,4,2,1,30,0,0
38900,-111.111111111111,4,2,1,70,0,0
38979,-111.111111111111,4,2,1,35,0,0
39058,-111.111111111111,4,2,1,70,0,0
39137,-111.111111111111,4,2,1,35,0,0
39216,-111.111111111111,4,2,1,40,0,0
39532,-111.111111111111,4,2,1,50,0,0
39848,-111.111111111111,4,2,1,60,0,0
40163,-111.111111111111,4,2,1,70,0,0
40479,-111.111111111111,4,2,1,80,0,0
42611,-111.111111111111,4,2,1,5,0,0
42690,-111.111111111111,4,2,1,80,0,0
44821,-111.111111111111,4,2,1,5,0,0
44900,-111.111111111111,4,2,1,80,0,0
45453,-111.111111111111,4,2,1,5,0,0
45532,-111.111111111111,4,2,1,80,0,0
47663,-111.111111111111,4,2,1,5,0,0
47742,-111.111111111111,4,2,1,80,0,0
49874,-111.111111111111,4,2,1,5,0,0
49953,-111.111111111111,4,2,1,80,0,0
50506,-111.111111111111,4,2,1,5,0,0
50585,-111.111111111111,4,2,2,60,0,0
60689,-100,4,2,1,70,0,0
61953,-100,4,2,2,70,0,0
63216,-100,4,2,1,70,0,0
64479,-100,4,2,2,70,0,0
65427,-100,4,2,1,70,0,0
67637,-100,4,2,1,80,0,0
70716,-100,4,2,1,5,0,0
70795,-100,4,2,1,70,0,0
75216,-100,4,2,1,50,0,0
75532,-100,4,2,1,70,0,0
75690,-100,4,2,1,5,0,0
75848,-100,4,2,1,70,0,0
79637,-100,4,2,1,25,0,0
79953,-100,4,2,1,35,0,0
80269,-100,4,2,1,50,0,0
80427,-100,4,2,1,60,0,0
80585,-100,4,2,1,70,0,0
89506,-100,4,2,1,60,0,0
90058,-100,4,2,1,65,0,0
90374,-100,4,2,1,70,0,0
90690,-100,4,2,1,75,0,0
91005,-100,4,2,1,75,0,1
109479,-100,4,2,1,25,0,1
109637,-100,4,2,1,75,0,1
109795,-100,4,2,1,30,0,1
109953,-100,4,2,1,75,0,1
110032,-100,4,2,1,35,0,1
110111,-100,4,2,1,75,0,1
110190,-100,4,2,1,40,0,1
110269,-100,4,2,1,75,0,1
110348,-100,4,2,1,45,0,1
110427,-100,4,2,1,75,0,1
110506,-100,4,2,1,50,0,1
110585,-100,4,2,1,75,0,1
110663,-100,4,2,1,55,0,1
110742,-100,4,2,1,75,0,1
110821,-100,4,2,1,60,0,1
110900,-100,4,2,1,75,0,1
110979,-100,4,2,1,65,0,1
111058,-100,4,2,1,75,0,1
111137,-100,4,2,1,70,0,1
111215,-100,4,2,1,70,0,0
112479,-100,4,2,2,70,0,0
113742,-100,4,2,1,70,0,0
115006,-100,4,2,2,70,0,0
115953,-100,4,2,1,70,0,0

[Colours]
Combo1 : 240,189,36
Combo2 : 83,169,12
Combo3 : 71,103,228
Combo4 : 220,58,46

[HitObjects]
120,376,58,6,0,B|147:217|147:217|0:261,2,314.999990386963,4|2|2,2:0|2:0|2:0,0:0:0:0:
36,344,2585,5,2,2:0:0:0:
256,60,3848,1,2,2:0:0:0:
392,376,5110,6,0,B|364:217|364:217|512:261,2,314.999990386963,2|2|2,2:0|2:0|2:0,0:0:0:0:
476,344,7636,5,2,2:0:0:0:
256,60,8900,1,2,2:0:0:0:
36,344,10163,5,0,1:0:0:0:
121,372,10479,1,0,3:3:0:0:
174,299,10794,1,0,1:0:0:0:
122,226,11110,1,0,3:0:0:0:
36,254,11426,2,0,L|28:144,1,89.9999972534181,0|0,1:0|3:0,0:0:0:0:
24,76,12058,2,0,L|134:84,1,89.9999972534181,0|0,1:0|3:0,0:0:0:0:
203,92,12689,5,0,1:0:0:0:
255,19,13005,1,0,3:0:0:0:
341,47,13320,1,0,1:0:0:0:
341,136,13636,1,0,3:0:0:0:
255,164,13952,2,0,L|313:257,1,89.9999972534181,0|0,1:0|3:0,0:0:0:0:
352,316,14584,2,0,L|445:257,1,89.9999972534181,0|8,1:0|3:1,0:0:0:0:
484,196,15215,6,0,P|480:158|448:114,1,89.9999972534181,0|8,1:0|0:1,0:0:0:0:
359,106,15847,2,0,P|362:143|394:187,1,89.9999972534181,0|8,1:0|3:1,0:0:0:0:
316,232,16479,2,0,L|220:240,1,89.9999972534181,0|8,1:0|3:1,0:0:0:0:
216,328,17110,2,0,L|120:336,1,89.9999972534181,0|8,1:0|3:1,0:0:0:0:
36,344,17742,5,0,1:0:0:0:
76,264,18058,1,8,3:1:0:0:
20,192,18373,1,0,3:0:0:0:
60,112,18689,1,0,3:2:0:0:
4,40,19006,1,2,0:0:0:0:
360,80,20269,6,0,P|264:16|220:56,1,179.999994506836,0|0,1:0|1:0,0:0:0:0:
140,68,21216,1,0,3:3:0:0:
204,132,21531,2,0,P|300:196|344:156,1,179.999994506836,0|0,1:0|1:0,0:0:0:0:
220,304,22794,6,0,P|124:368|80:328,1,179.999994506836,0|0,1:0|1:0,0:0:0:0:
0,356,23741,1,0,3:3:0:0:
32,272,24058,2,0,P|175:175|242:235,1,269.999991760254,8|2,0:2|3:2,0:0:0:0:
308,168,25321,6,0,P|330:54|390:52,1,179.999994506836,0|0,1:0|1:0,0:0:0:0:
454,3,26268,1,8,3:2:0:0:
455,93,26583,2,0,P|432:206|372:208,1,179.999994506836,0|0,1:0|1:0,0:0:0:0:
208,180,27847,6,0,P|94:202|92:262,1,179.999994506836,0|0,1:0|1:0,0:0:0:0:
72,336,28794,1,8,3:2:0:0:
156,308,29110,2,0,B|200:308|200:308|223:269,1,89.9999972534181,8|8,1:3|1:3,0:0:0:0:
292,212,29742,2,0,L|352:212,2,44.999998626709,8|8|2,1:3|1:3|0:0,0:0:0:0:
336,340,30531,6,0,P|380:340|436:324,1,89.9999972534181,2|2,0:1|0:1,0:0:0:0:
476,256,31163,2,0,P|476:212|460:156,1,89.9999972534181,2|2,0:1|0:1,0:0:0:0:
396,112,31794,2,0,P|352:112|296:128,1,89.9999972534181,2|2,0:1|0:1,0:0:0:0:
292,212,32426,2,0,P|270:218|248:220,1,44.999998626709,2|8,0:1|0:2,0:0:0:0:
169,124,33058,6,0,P|125:124|69:140,1,89.9999972534181,2|2,0:1|0:1,0:0:0:0:
29,208,33690,2,0,P|29:252|45:308,1,89.9999972534181,2|2,0:1|0:1,0:0:0:0:
109,352,34321,2,0,P|153:352|209:336,1,89.9999972534181,2|2,0:1|0:1,0:0:0:0:
212,251,34953,2,2,P|212:226|203:195,1,44.999998626709,2|8,3:1|3:2,0:1:0:0:
169,124,35427,6,0,B|128:144|128:144|84:135,1,89.9999972534181,0|0,1:0|3:3,0:0:0:0:
72,48,36058,2,0,B|113:28|113:28|156:36,1,89.9999972534181,0|0,1:0|3:3,0:0:0:0:
240,68,36690,2,0,L|288:152,1,89.9999972534181,0|0,1:0|3:3,0:0:0:0:
364,104,37321,2,0,L|316:20,1,89.9999972534181,0|2,1:0|3:1,0:0:0:0:
408,0,37952,6,0,B|451:13|451:13|440:55,1,89.9999972534181,0|0,1:0|1:0,0:0:0:0:
444,148,38584,2,0,B|433:190|433:190|476:203,1,89.9999972534181,0|0,1:0|1:0,0:0:0:0:
508,288,39215,5,0,1:0:0:0:
420,280,39531,1,0,3:0:0:0:
368,352,39847,1,0,3:0:0:0:
300,292,40163,1,0,3:0:0:0:
212,304,40479,6,2,B|109:290|76:194|150:208|116:112|14:98,1,314.999990386963,4|2,0:2|0:1,0:1:0:0:
108,4,42058,1,2,0:1:0:0:
180,56,42374,1,2,0:1:0:0:
204,188,42847,6,2,B|291:176|320:94|256:105|285:23|373:11,1,269.999991760254,2|2,0:1|0:1,0:1:0:0:
444,64,44110,2,2,B|457:136|399:181|391:127|334:171|347:243,1,224.999993133545,2|2,0:1|0:1,0:1:0:0:
276,76,45531,6,2,B|179:36|103:103|174:128|96:194|1:155,1,314.999990386963,2|2,0:1|0:1,0:1:0:0:
56,280,47110,1,2,0:1:0:0:
144,260,47426,1,2,0:1:0:0:
244,168,47900,6,2,B|326:134|391:191|330:212|396:268|478:235,1,269.999991760254,2|2,0:1|0:1,0:1:0:0:
512,152,49163,2,2,B|486:83|414:75|435:124|363:116|337:47,1,224.999993133545,2|2,0:1|0:1,0:1:0:0:
160,4,50584,6,0,P|180:88|184:192,1,179.999994506836,4|2,0:0|0:0,0:0:0:0:
120,244,51532,2,0,L|56:232,1,44.999998626709,0|2,0:0|0:0,0:0:0:0:
28,364,52163,1,0,0:0:0:0:
116,380,52479,2,0,P|164:376|228:348,1,89.9999972534181,2|0,0:0|0:0,0:0:0:0:
247,372,52952,6,0,P|292:298|362:222,1,179.999994506836,2|0,0:0|0:0,0:0:0:0:
436,188,53900,2,0,L|500:200,2,44.999998626709,2|0|2,0:0|0:0|0:0,0:0:0:0:
340,108,54689,1,0,0:0:0:0:
264,40,55005,2,0,P|305:28|348:0,1,89.9999972534181,2|0,0:0|0:0,0:0:0:0:
432,28,55637,6,0,P|488:45|512:116,2,134.999995880127
412,68,56742,2,0,L|372:152,1,89.9999972534181,2|2,0:0|0:0,0:0:0:0:
300,200,57373,2,0,P|239:213|183:153,1,134.999995880127,2|0,0:0|0:0,0:0:0:0:
128,100,58163,6,0,L|168:16,1,89.9999972534181,0|2,0:0|0:0,0:0:0:0:
76,4,58794,2,0,L|36:88,1,89.9999972534181
40,176,59426,2,0,L|78:257,1,89.9999972534181,0|2,0:0|0:0,0:0:0:0:
170,241,60057,2,0,L|131:159,1,89.9999972534181
220,136,60689,6,0,B|234:61|234:61|160:72,2,150,8|8|8,1:3|1:3|1:3,0:0:0:0:
16,380,63215,6,0,B|1:305|1:305|75:316,2,150,8|8|8,1:3|1:3|1:3,0:0:0:0:
220,136,65742,6,0,P|272:128|320:104,1,100,0|0,3:0|3:0,0:0:0:0:
380,172,66373,2,0,P|360:221|357:274,1,100,0|0,3:0|3:0,0:0:0:0:
268,292,67005,2,0,P|235:250|190:221,1,100,0|0,3:0|3:0,0:0:0:0:
220,136,67636,2,0,P|272:128|320:104,1,100,0|0,3:0|3:0,0:0:0:0:
256,192,68269,12,2,69532,0:0:0:0:
0,244,70795,6,0,B|15:270|15:270|99:247|99:247|114:274,1,150,0|0,1:0|0:0,0:0:0:0:
136,316,71427,2,0,B|224:316|224:316|240:332|240:332|328:332,1,200,0|0,1:0|1:0,0:0:0:0:
372,252,72374,1,0,1:0:0:0:
452,296,72690,2,0,B|468:248|468:248|450:201,1,100,0|0,1:2|1:0,0:0:0:0:
500,124,73321,6,0,B|484:97|484:97|400:120|400:120|385:93,1,150,0|0,1:0|0:0,0:0:0:0:
364,52,73953,2,0,B|275:52|275:52|259:35|259:35|171:35,1,200,0|0,1:0|1:0,0:0:0:0:
128,116,74900,1,0,1:0:0:0:
40,143,75216,2,0,B|31:120|31:120|40:96,2,50,8|8|2,1:3|1:3|0:2,0:0:0:0:
108,204,75847,6,0,B|81:219|81:219|104:303|104:303|77:318,1,150,0|0,1:0|0:0,0:0:0:0:
36,344,76479,2,0,B|124:344|124:344|140:360|140:360|228:360,1,200,0|0,1:0|1:0,0:0:0:0:
288,288,77427,1,0,1:0:0:0:
196,272,77742,2,0,B|180:224|180:224|197:177,1,100,0|0,1:0|3:0,0:0:0:0:
288,168,78373,6,0,B|261:152|261:152|284:68|284:68|257:53,1,150,0|0,1:0|0:0,0:0:0:0:
216,28,79005,2,0,B|304:28|304:28|320:11|320:11|408:11,1,200,0|0,1:0|3:0,0:0:0:0:
508,272,80585,1,4,0:3:0:0:
500,180,80900,6,0,L|460:128,2,50,4|2|8,1:0|0:0|0:1,0:0:0:0:
424,232,81531,2,0,L|384:180,2,50,0|2|8,1:0|0:0|0:1,0:0:0:0:
428,324,82163,2,0,B|387:353|387:353|339:341,1,100,0|8,1:0|0:1,0:0:0:0:
292,264,82794,2,0,B|225:264|225:264|213:276|213:276|147:276,1,150,0|2,1:0|3:2,0:0:0:0:
120,240,83426,6,0,L|89:200,2,50,0|2|8,1:0|0:0|0:1,0:0:0:0:
192,184,84058,2,0,L|161:144,2,50,0|2|8,1:0|0:0|0:1,0:0:0:0:
280,152,84689,2,0,B|304:108|304:108|285:62,1,100,0|8,1:0|0:1,0:0:0:0:
204,16,85322,2,0,L|168:52,2,50,8|8|2,1:3|1:3|0:2,0:0:0:0:
84,12,85952,6,0,P|40:28|8:84,1,100,0|8,1:0|0:0,0:0:0:0:
0,164,86584,2,0,P|16:208|72:240,1,100,0|8,1:0|0:0,0:0:0:0:
152,252,87215,2,0,P|196:236|228:180,1,100,0|8,1:0|0:0,0:0:0:0:
236,100,87847,2,0,P|220:56|120:16,1,150,0|0,1:0|3:0,0:0:0:0:
88,28,88480,6,0,L|76:136,1,100,0|8,1:0|3:1,0:0:0:0:
116,207,89110,2,0,L|128:315,1,100,0|8,3:0|3:1,0:0:0:0:
209,347,89742,5,0,1:0:0:0:
298,355,90058,1,0,3:0:0:0:
353,283,90374,1,0,3:0:0:0:
420,344,90690,1,0,3:0:0:0:
508,324,91006,6,2,B|516:208|516:208|460:168|460:168|468:52,1,300,6|8,1:0|0:1,0:1:0:0:
413,39,92111,2,2,B|341:19|341:19|289:75,1,150,2|10,0:0|0:1,0:1:0:0:
285,167,92900,2,0,L|169:183,1,100,2|10,1:0|0:1,0:0:0:0:
153,227,93373,6,2,B|159:130|159:130|113:97|113:97|119:1,1,250,0|0,3:3|1:0,0:1:0:0:
62,9,94321,2,0,L|2:17,2,50,2|8|2,0:1|0:1|0:1,0:0:0:0:
36,148,95111,1,8,0:1:0:0:
64,236,95427,2,2,P|68:320|20:376,1,150,2|0,1:2|3:3,0:1:0:0:
0,320,96058,6,2,B|116:312|116:312|156:368|156:368|272:360,1,300,6|8,1:0|0:1,0:1:0:0:
256,306,97163,2,2,B|236:234|236:234|292:182,1,150,2|10,0:0|0:1,0:1:0:0:
384,180,97952,2,0,L|400:64,1,100,2|8,1:0|0:1,0:0:0:0:
452,64,98426,6,2,B|355:70|355:70|322:24|322:24|226:30,1,250,0|0,3:3|1:0,0:1:0:0:
171,32,99373,2,0,L|144:88,2,50,2|8|2,0:1|0:1|0:1,0:0:0:0:
36,24,100163,1,8,0:1:0:0:
16,112,100479,2,2,P|12:196|60:252,1,150,2|0,1:2|3:0,0:1:0:0:
104,244,101111,5,4,1:0:0:0:
100,336,101427,1,8,0:2:0:0:
180,380,101742,1,0,1:1:0:0:
256,328,102058,2,0,L|292:264,2,50,8|2|0,0:0|0:1|1:0,0:0:0:0:
336,372,102689,1,8,0:0:0:0:
424,368,103005,2,0,L|488:332,2,50,0|2|8,1:0|0:1|0:0,0:0:0:0:
376,292,103636,5,0,1:0:0:0:
380,200,103952,1,8,0:2:0:0:
300,156,104267,1,0,1:1:0:0:
224,208,104583,2,0,L|188:272,2,50,8|2|0,0:0|0:1|1:0,0:0:0:0:
144,164,105214,1,8,0:0:0:0:
184,84,105530,2,0,L|220:20,2,50,0|2|8,1:0|0:1|0:0,0:0:0:0:
92,88,106163,6,0,B|50:62|50:62|2:78,1,100,0|8,1:0|0:1,0:0:0:0:
39,161,106794,2,0,B|27:277,1,100,0|8,1:0|0:1,0:0:0:0:
88,328,107426,1,0,1:0:0:0:
169,292,107742,1,8,0:1:0:0:
238,351,108057,1,0,1:0:0:0:
320,315,108373,1,10,0:1:0:0:
389,373,108689,6,0,L|470:306,1,100,2|2,1:0|1:0,0:0:0:0:
456,219,109321,2,0,L|444:115,1,100,2|2,1:0|1:0,0:0:0:0:
404,40,109953,2,0,B|408:15|408:15|427:0,2,50,2|2|2,1:0|1:0|1:0,0:0:0:0:
352,114,110584,2,0,B|327:110|327:110|310:92,2,50,2|2|2,1:0|1:0|1:0,0:0:0:0:
356,206,111216,6,0,B|300:234|300:234|296:258|296:258|236:286,2,150,8|8|8,1:3|1:3|1:3,0:0:0:0:
433,156,112479,2,0,L|461:84,2,50,0|0|2,1:0|1:0|3:3,0:0:0:0:
352,114,113111,2,0,L|308:86,1,50,0|0,0:0|1:0,0:0:0:0:
188,220,113742,6,0,B|160:276|160:276|136:280|136:280|108:340,2,150,8|8|8,1:3|1:3|1:3,0:0:0:0:
236,140,115005,2,0,L|308:112,2,50,0|0|2,1:0|1:0|0:3,0:0:0:0:
144,140,115636,2,0,L|72:168,2,50,2|2|4,0:3|0:3|0:3,0:0:0:0:
84,68,116268,6,0,B|112:24|112:24|156:48,1,100,0|0,1:0|3:0,0:0:0:0:
244,36,116900,2,0,B|286:58|286:58|314:14,1,100,0|0,1:0|3:0,0:0:0:0:
384,80,117531,2,0,B|394:129|394:129|371:174,1,100,0|0,1:0|3:0,0:0:0:0:
320,252,118163,2,0,B|309:301|309:301|332:346,1,100,0|0,1:0|3:0,0:0:0:0:
256,192,118795,12,2,120058,0:0:0:0:
256,192,121321,5,8,1:3:0:0:
