osu file format v14

[General]
AudioFilename: audio.mp3
AudioLeadIn: 0
PreviewTime: 93429
Countdown: 0
SampleSet: Normal
StackLeniency: 0.7
Mode: 0
LetterboxInBreaks: 1
WidescreenStoryboard: 1

[Editor]
DistanceSpacing: 1
BeatDivisor: 4
GridSize: 8
TimelineZoom: 1.6

[Metadata]
Title:GOODTEK (shadow_bling remix)
TitleUnicode:GOODTEK (shadow_bling remix)
Artist:EBIMAYO
ArtistUnicode:EBIMAYO
Creator:Xenodia
Version:ULTRATEK
Source:
Tags:hardcore remix synthesizer
BeatmapID:3846869
BeatmapSetID:1869704

[Difficulty]
HPDrainRate:5
CircleSize:4
OverallDifficulty:8.2
ApproachRate:9.2
SliderMultiplier:2.2
SliderTickRate:1

[Events]
//Background and Video events
0,0,"GOODTEK BLUE.png",0,0
//Break Periods
//Storyboard Layer 0 (Background)
//Storyboard Layer 1 (Fail)
//Storyboard Layer 2 (Pass)
//Storyboard Layer 3 (Foreground)
//Storyboard Layer 4 (Overlay)
//Storyboard Sound Samples

[TimingPoints]
1321.09463394235,324.324324324324,4,1,0,100,1,0
11699,-100,4,1,0,100,0,0
20780,-250,4,1,0,100,0,0
22077,-83.3333333333333,4,1,0,100,0,0
41537,-250,4,1,0,100,0,0
42834,-100,4,1,0,80,0,0
63591,-76.9230769230769,4,1,0,100,0,0
72672,-250,4,1,0,100,0,0
73969,-62.5,4,1,0,100,0,0
83050,-250,4,1,0,100,0,0
84348,-62.5,4,1,0,100,0,0
93429,-250,4,1,0,100,0,0
94726,-83.3333333333333,4,1,0,100,0,1
112888,-100,4,1,0,100,0,1
115483,-100,4,1,0,100,0,0

[Colours]
Combo1 : 109,102,255
Combo2 : 255,89,89
Combo3 : 250,255,45
Combo4 : 89,255,102

[HitObjects]
143,80,1321,5,0,0:0:0:0:
390,272,1483,1,0,0:0:0:0:
354,41,1645,1,0,0:0:0:0:
182,335,1807,1,0,0:0:0:0:
443,131,1969,1,0,0:0:0:0:
69,108,2131,1,0,0:0:0:0:
353,253,2294,1,0,0:0:0:0:
223,45,2456,5,0,0:0:0:0:
149,342,2618,1,0,0:0:0:0:
406,109,2780,1,0,0:0:0:0:
55,175,2942,1,0,0:0:0:0:
415,266,3104,1,0,0:0:0:0:
160,74,3267,1,0,0:0:0:0:
285,352,3429,1,0,0:0:0:0:
302,41,3591,1,0,0:0:0:0:
136,294,3753,1,0,0:0:0:0:
425,221,3915,5,0,0:0:0:0:
381,82,4077,1,0,0:0:0:0:
237,122,4240,1,0,0:0:0:0:
286,271,4402,1,0,0:0:0:0:
425,221,4564,1,0,0:0:0:0:
381,82,4726,1,0,0:0:0:0:
237,122,4889,1,0,0:0:0:0:
286,271,5051,1,0,0:0:0:0:
425,221,5212,5,0,0:0:0:0:
381,82,5374,1,0,0:0:0:0:
237,122,5537,1,0,0:0:0:0:
286,271,5699,1,0,0:0:0:0:
425,221,5861,1,0,0:0:0:0:
381,82,6023,1,0,0:0:0:0:
237,122,6186,1,0,0:0:0:0:
286,271,6348,1,0,0:0:0:0:
59,219,6510,5,0,0:0:0:0:
268,24,6672,1,0,0:0:0:0:
225,359,6834,1,0,0:0:0:0:
471,114,6996,1,0,0:0:0:0:
140,141,7158,1,0,0:0:0:0:
404,299,7321,1,0,0:0:0:0:
213,44,7483,1,0,0:0:0:0:
144,333,7645,5,0,0:0:0:0:
368,162,7807,1,0,0:0:0:0:
143,13,7969,1,0,0:0:0:0:
261,364,8131,1,0,0:0:0:0:
375,56,8294,1,0,0:0:0:0:
80,228,8456,1,0,0:0:0:0:
503,208,8618,1,0,0:0:0:0:
144,92,8780,1,0,0:0:0:0:
362,301,8942,1,0,0:0:0:0:
144,249,9104,5,0,0:0:0:0:
72,108,9267,1,0,0:0:0:0:
218,39,9429,1,0,0:0:0:0:
291,179,9591,1,0,0:0:0:0:
144,249,9753,1,0,0:0:0:0:
72,108,9916,1,0,0:0:0:0:
218,39,10078,1,0,0:0:0:0:
291,179,10240,1,0,0:0:0:0:
144,249,10402,5,0,0:0:0:0:
72,108,10565,1,0,0:0:0:0:
218,39,10727,1,0,0:0:0:0:
291,179,10889,1,0,0:0:0:0:
144,249,11051,1,0,0:0:0:0:
72,108,11212,1,0,0:0:0:0:
218,39,11376,1,0,0:0:0:0:
291,179,11538,1,0,0:0:0:0:
165,359,11699,5,8,0:0:0:0:
154,45,11861,1,0,0:0:0:0:
417,280,12023,1,8,0:0:0:0:
57,146,12185,1,0,0:0:0:0:
424,74,12348,1,8,0:0:0:0:
168,283,12510,1,0,0:0:0:0:
293,30,12672,1,8,0:0:0:0:
351,359,12834,5,0,0:0:0:0:
154,62,12996,1,8,0:0:0:0:
377,227,13158,1,0,0:0:0:0:
84,184,13321,1,8,0:0:0:0:
494,114,13483,1,0,0:0:0:0:
145,296,13645,1,8,0:0:0:0:
316,47,13807,1,0,0:0:0:0:
287,361,13969,1,8,0:0:0:0:
179,12,14131,1,0,0:0:0:0:
411,312,14294,6,0,L|383:256,1,55,8|0,0:0|0:0,0:0:0:0:
98,71,14456,2,0,L|175:125,1,55
437,140,14618,2,0,L|351:169,1,55,8|0,0:0|0:0,0:0:0:0:
149,296,14780,2,0,L|157:216,1,55
313,28,14942,2,0,L|276:77,1,55,8|0,0:0|0:0,0:0:0:0:
300,374,15104,2,0,L|273:292,1,55
19,118,15267,2,0,L|100:97,1,55,8|0,0:0|0:0,0:0:0:0:
503,256,15429,2,0,L|431:242,1,55
179,23,15591,6,0,L|182:79,1,55,8|0,0:0|0:0,0:0:0:0:
145,377,15753,2,0,L|160:310,1,55
421,68,15915,2,0,L|385:138,1,55,8|0,0:0|0:0,0:0:0:0:
62,228,16077,2,0,L|149:221,1,55
476,312,16240,2,0,L|403:315,1,55,8|0,0:0|0:0,0:0:0:0:
61,106,16402,2,0,L|122:130,1,55
443,165,16564,2,0,L|373:149,1,55,8|0,0:0|0:0,0:0:0:0:
95,269,16726,2,0,L|163:257,1,55
328,289,16888,5,8,0:0:0:0:
225,62,17050,1,0,0:0:0:0:
86,338,17212,1,8,0:0:0:0:
494,275,17375,1,0,0:0:0:0:
395,21,17537,1,8,0:0:0:0:
104,86,17699,1,0,0:0:0:0:
235,369,17861,1,8,0:0:0:0:
290,93,18023,5,0,0:0:0:0:
108,319,18185,1,8,0:0:0:0:
45,25,18348,1,0,0:0:0:0:
390,254,18510,1,8,0:0:0:0:
154,152,18672,1,0,0:0:0:0:
484,95,18834,1,8,0:0:0:0:
305,323,18996,1,0,0:0:0:0:
303,18,19158,1,8,0:0:0:0:
122,251,19321,1,0,0:0:0:0:
420,237,19483,5,2,0:0:0:0:
435,193,19564,1,2,0:0:0:0:
422,147,19645,1,2,0:0:0:0:
380,121,19726,1,2,0:0:0:0:
330,131,19807,1,2,0:0:0:0:
297,169,19888,1,2,0:0:0:0:
265,208,19969,1,2,0:0:0:0:
214,216,20050,1,2,0:0:0:0:
149,201,20131,1,2,0:0:0:0:
102,148,20212,1,2,0:0:0:0:
112,75,20294,1,2,0:0:0:0:
164,23,20375,1,2,0:0:0:0:
239,20,20456,1,2,0:0:0:0:
305,55,20537,1,2,0:0:0:0:
352,112,20618,1,2,0:0:0:0:
400,172,20699,1,2,0:0:0:0:
449,237,20780,6,0,B|424:322|424:322|384:296|384:296|341:341|266:348,1,264,4|0,0:0|0:0,0:0:0:0:
122,238,22077,6,0,L|74:185,1,65.9999979858399
180,26,22240,2,0,L|188:113,1,65.9999979858399
278,204,22402,1,8,0:0:0:0:
319,190,22483,1,0,0:0:0:0:
363,178,22564,1,0,0:0:0:0:
409,167,22645,1,0,0:0:0:0:
459,155,22726,2,0,L|473:90,1,65.9999979858399
269,10,22888,2,0,L|317:74,1,65.9999979858399
154,125,23050,2,0,B|117:185|117:185|180:309,1,197.99999395752,8|0,0:0|0:0,0:0:0:0:
287,359,23375,6,0,L|376:335,1,65.9999979858399
490,190,23537,2,0,L|407:214,1,65.9999979858399
327,95,23699,1,8,0:0:0:0:
279,83,23780,1,0,0:0:0:0:
230,66,23861,1,0,0:0:0:0:
182,50,23942,1,0,0:0:0:0:
133,30,24023,2,0,L|84:74,1,65.9999979858399
25,249,24185,2,0,L|93:232,1,65.9999979858399
223,184,24348,2,0,B|282:220|282:220|299:303|385:272,1,197.99999395752,8|0,0:0|0:0,0:0:0:0:
448,187,24672,6,0,L|426:111,1,65.9999979858399
334,301,24834,2,0,L|346:379,1,65.9999979858399
255,93,24996,1,8,0:0:0:0:
202,91,25077,1,0,0:0:0:0:
154,116,25158,1,0,0:0:0:0:
130,169,25240,1,0,0:0:0:0:
150,226,25321,2,0,L|190:297,1,65.9999979858399
26,262,25483,2,0,L|-13:180,1,65.9999979858399
271,181,25645,2,0,B|336:159|336:159|370:218|370:218|463:218,1,197.99999395752,8|0,0:0|0:0,0:0:0:0:
465,107,25969,6,0,L|506:45,1,65.9999979858399
316,18,26131,2,0,L|330:92,1,65.9999979858399
205,109,26294,1,8,0:0:0:0:
186,157,26375,1,0,0:0:0:0:
171,205,26456,1,0,0:0:0:0:
158,258,26537,1,0,0:0:0:0:
139,312,26618,2,0,L|227:314,1,65.9999979858399
132,81,26780,2,0,L|58:80,1,65.9999979858399
371,262,26942,2,0,L|453:264,1,65.9999979858399,8|0,0:0|0:0,0:0:0:0:
390,46,27104,2,0,L|282:43,1,65.9999979858399
136,148,27267,6,0,L|69:170,1,65.9999979858399
162,364,27429,2,0,L|239:339,1,65.9999979858399
282,98,27591,1,8,0:0:0:0:
336,106,27672,1,0,0:0:0:0:
383,133,27753,1,0,0:0:0:0:
412,181,27834,1,0,0:0:0:0:
425,239,27915,2,0,L|434:327,1,65.9999979858399
282,364,28077,2,0,L|272:296,1,65.9999979858399
186,82,28240,2,0,B|125:106|125:106|152:184|89:228,1,197.99999395752,8|0,0:0|0:0,0:0:0:0:
136,360,28564,6,0,L|203:338,1,65.9999979858399
299,62,28726,2,0,L|233:112,1,65.9999979858399
410,138,28888,1,8,0:0:0:0:
427,183,28969,1,0,0:0:0:0:
444,234,29050,1,0,0:0:0:0:
467,282,29131,1,0,0:0:0:0:
485,338,29212,2,0,L|404:337,1,65.9999979858399
236,159,29375,2,0,L|321:160,1,65.9999979858399
119,287,29537,2,0,P|58:325|80:228,1,197.99999395752,8|0,0:0|0:0,0:0:0:0:
149,93,29861,6,0,L|201:44,1,65.9999979858399
372,129,30023,2,0,L|376:204,1,65.9999979858399
246,265,30185,1,8,0:0:0:0:
204,290,30266,1,0,0:0:0:0:
156,298,30347,1,0,0:0:0:0:
108,287,30428,1,0,0:0:0:0:
64,255,30510,2,0,L|73:181,1,65.9999979858399
198,34,30672,2,0,L|223:96,1,65.9999979858399
337,344,30834,2,0,B|399:320|399:320|443:193,1,197.99999395752,8|0,0:0|0:0,0:0:0:0:
322,24,31158,5,2,0:0:0:0:
139,311,31321,1,2,0:0:0:0:
416,123,31483,1,2,0:0:0:0:
58,151,31645,1,2,0:0:0:0:
420,290,31807,1,2,0:0:0:0:
159,52,31969,1,2,0:0:0:0:
278,345,32131,1,2,0:0:0:0:
310,76,32456,5,0,0:0:0:0:
267,54,32537,1,0,0:0:0:0:
216,69,32618,1,0,0:0:0:0:
191,115,32699,1,0,0:0:0:0:
163,179,32780,1,8,0:0:0:0:
102,205,32861,1,0,0:0:0:0:
34,191,32942,1,0,0:0:0:0:
10,120,33023,1,0,0:0:0:0:
61,63,33104,2,0,L|130:31,1,65.9999979858399
112,275,33267,2,0,L|32:308,1,65.9999979858399,8|0,0:0|0:0,0:0:0:0:
220,185,33429,2,0,B|283:162|283:162|337:201|337:201|407:179,1,197.99999395752,8|0,0:0|0:0,0:0:0:0:
453,93,33753,5,0,0:0:0:0:
437,46,33834,1,0,0:0:0:0:
387,25,33915,1,0,0:0:0:0:
329,41,33996,1,0,0:0:0:0:
299,103,34077,1,8,0:0:0:0:
326,165,34158,1,0,0:0:0:0:
372,221,34240,1,0,0:0:0:0:
364,296,34321,1,0,0:0:0:0:
309,352,34402,2,0,L|241:363,1,65.9999979858399
112,167,34564,2,0,L|197:184,1,65.9999979858399,8|0,0:0|0:0,0:0:0:0:
487,234,34726,2,0,L|413:246,1,65.9999979858399,8|0,0:0|0:0,0:0:0:0:
245,49,34888,2,0,L|317:63,1,65.9999979858399
197,227,35050,5,0,0:0:0:0:
166,268,35131,1,0,0:0:0:0:
111,284,35212,1,0,0:0:0:0:
50,264,35294,1,0,0:0:0:0:
22,200,35375,1,8,0:0:0:0:
32,129,35456,1,0,0:0:0:0:
95,88,35537,1,0,0:0:0:0:
169,90,35618,1,0,0:0:0:0:
237,122,35699,2,0,L|302:165,1,65.9999979858399
481,130,35861,2,0,L|440:68,1,65.9999979858399,8|0,0:0|0:0,0:0:0:0:
384,226,36023,2,0,B|405:289|405:289|325:285|278:350,1,197.99999395752,8|0,0:0|0:0,0:0:0:0:
196,296,36348,5,0,0:0:0:0:
148,263,36429,1,0,0:0:0:0:
148,206,36510,1,0,0:0:0:0:
190,169,36591,1,0,0:0:0:0:
251,150,36672,1,8,0:0:0:0:
281,83,36753,1,0,0:0:0:0:
245,18,36834,1,0,0:0:0:0:
172,12,36915,1,0,0:0:0:0:
105,50,36996,2,0,L|48:85,1,65.9999979858399
153,115,37158,2,0,L|105:206,1,65.9999979858399,8|0,0:0|0:0,0:0:0:0:
250,307,37321,2,0,L|262:224,1,65.9999979858399,8|0,0:0|0:0,0:0:0:0:
320,346,37483,2,0,L|358:289,1,65.9999979858399
341,100,37645,5,0,0:0:0:0:
371,59,37726,1,0,0:0:0:0:
435,42,37807,1,0,0:0:0:0:
495,77,37888,1,0,0:0:0:0:
501,144,37969,1,8,0:0:0:0:
473,212,38050,1,0,0:0:0:0:
406,247,38131,1,0,0:0:0:0:
333,270,38212,1,0,0:0:0:0:
259,263,38294,2,0,L|177:250,1,65.9999979858399
317,76,38456,2,0,L|394:85,1,65.9999979858399,8|0,0:0|0:0,0:0:0:0:
142,135,38618,2,0,P|142:67|95:139,1,197.99999395752,8|0,0:0|0:0,0:0:0:0:
42,227,38942,5,0,0:0:0:0:
26,276,39023,1,0,0:0:0:0:
50,322,39104,1,0,0:0:0:0:
113,350,39185,1,0,0:0:0:0:
182,335,39267,1,8,0:0:0:0:
224,280,39348,1,0,0:0:0:0:
247,208,39429,1,0,0:0:0:0:
302,155,39510,1,0,0:0:0:0:
379,136,39591,2,0,L|451:129,1,65.9999979858399
351,321,39753,2,0,L|273:330,1,65.9999979858399,8|0,0:0|0:0,0:0:0:0:
251,58,39915,2,0,L|338:75,1,65.9999979858399,8|0,0:0|0:0,0:0:0:0:
481,246,40077,2,0,L|396:231,1,65.9999979858399
239,183,40240,5,0,0:0:0:0:
187,215,40321,1,0,0:0:0:0:
171,270,40402,1,0,0:0:0:0:
204,318,40483,1,0,0:0:0:0:
258,346,40564,1,8,0:0:0:0:
330,331,40645,1,0,0:0:0:0:
394,292,40726,1,0,0:0:0:0:
444,234,40807,1,0,0:0:0:0:
463,154,40888,2,0,L|416:99,1,65.9999979858399
459,81,41050,2,0,L|373:63,1,65.9999979858399,8|0,0:0|0:0,0:0:0:0:
404,18,41212,2,0,B|274:57|274:57|325:96,1,197.99999395752,8|0,0:0|0:0,0:0:0:0:
328,194,41537,6,0,B|293:278|293:278|214:238|214:238|180:277|127:266,1,264,4|0,0:0|0:0,0:0:0:0:
115,138,42834,6,0,P|77:86|179:58,1,165
219,45,43158,1,0,0:0:0:0:
455,248,43321,1,0,0:0:0:0:
118,276,43483,1,2,0:0:0:0:
368,40,43645,1,0,0:0:0:0:
304,334,43807,1,0,0:0:0:0:
266,295,43888,1,0,0:0:0:0:
222,256,43969,1,0,0:0:0:0:
177,217,44050,1,0,0:0:0:0:
131,174,44131,6,0,B|178:145|178:145|197:89|197:89|251:81,1,165
326,74,44456,1,0,0:0:0:0:
103,333,44618,1,0,0:0:0:0:
442,174,44780,1,2,0:0:0:0:
78,79,44942,1,0,0:0:0:0:
298,370,45104,1,0,0:0:0:0:
339,321,45185,1,0,0:0:0:0:
360,261,45266,1,0,0:0:0:0:
355,201,45347,1,0,0:0:0:0:
316,150,45429,6,0,B|289:101|289:101|236:139|172:123,1,165
95,106,45753,1,0,0:0:0:0:
252,360,45915,1,0,0:0:0:0:
389,62,46077,1,2,0:0:0:0:
45,221,46240,1,0,0:0:0:0:
449,276,46402,1,0,0:0:0:0:
421,218,46483,1,0,0:0:0:0:
360,195,46564,1,0,0:0:0:0:
319,143,46645,1,0,0:0:0:0:
255,148,46726,6,0,B|199:143|199:143|253:246,1,165
303,326,47050,1,0,0:0:0:0:
32,169,47212,1,2,0:0:0:0:
423,108,47375,1,2,0:0:0:0:
101,296,47537,1,0,0:0:0:0:
215,45,47699,1,0,0:0:0:0:
261,89,47780,1,0,0:0:0:0:
304,130,47861,1,0,0:0:0:0:
351,169,47942,1,0,0:0:0:0:
403,209,48023,6,0,B|406:265|406:265|325:340,1,165
224,319,48348,1,0,0:0:0:0:
70,124,48510,1,0,0:0:0:0:
432,125,48672,1,2,0:0:0:0:
95,339,48834,1,0,0:0:0:0:
247,42,48996,1,0,0:0:0:0:
276,93,49077,1,0,0:0:0:0:
305,143,49158,1,0,0:0:0:0:
340,193,49240,1,0,0:0:0:0:
374,248,49321,6,0,B|333:295|333:295|250:232,1,165
167,162,49645,1,0,0:0:0:0:
282,359,49807,1,0,0:0:0:0:
339,73,49969,1,2,0:0:0:0:
106,284,50131,1,0,0:0:0:0:
442,216,50294,1,0,0:0:0:0:
410,168,50375,1,0,0:0:0:0:
352,150,50456,1,0,0:0:0:0:
295,170,50537,1,0,0:0:0:0:
270,222,50618,6,0,B|213:201|213:201|189:160|189:160|201:100,1,165
258,25,50942,1,0,0:0:0:0:
371,317,51104,1,0,0:0:0:0:
62,106,51267,1,2,0:0:0:0:
448,114,51429,1,0,0:0:0:0:
65,203,51591,1,0,0:0:0:0:
99,255,51672,1,0,0:0:0:0:
152,289,51753,1,0,0:0:0:0:
215,300,51834,1,0,0:0:0:0:
275,287,51915,6,0,B|289:216|389:261|402:189,1,165
421,72,52240,1,0,0:0:0:0:
126,205,52402,1,2,0:0:0:0:
465,320,52564,1,2,0:0:0:0:
210,45,52726,1,0,0:0:0:0:
192,333,52888,1,0,0:0:0:0:
257,342,52969,1,0,0:0:0:0:
308,307,53050,1,0,0:0:0:0:
371,314,53131,1,0,0:0:0:0:
431,294,53212,6,0,B|460:246|460:246|421:194,1,110
119,61,53537,2,0,B|81:107|81:107|124:159,1,110,8|0,0:0|0:0,0:0:0:0:
279,85,53861,1,0,0:0:0:0:
173,326,54023,1,0,0:0:0:0:
421,309,54185,1,8,0:0:0:0:
462,271,54267,1,0,0:0:0:0:
474,212,54348,1,0,0:0:0:0:
466,150,54429,1,0,0:0:0:0:
428,101,54510,6,0,P|385:56|320:53,1,110
138,212,54834,2,0,P|143:284|199:344,1,110,8|0,0:0|0:0,0:0:0:0:
353,123,55158,1,0,0:0:0:0:
298,340,55321,1,0,0:0:0:0:
78,135,55483,1,8,0:0:0:0:
96,83,55564,1,0,0:0:0:0:
140,50,55645,1,0,0:0:0:0:
200,51,55726,1,0,0:0:0:0:
260,62,55807,6,0,P|312:83|277:114,1,110
163,285,56131,2,0,P|124:324|177:340,1,110,8|0,0:0|0:0,0:0:0:0:
430,250,56456,1,0,0:0:0:0:
268,47,56618,1,0,0:0:0:0:
69,213,56780,1,8,0:0:0:0:
72,270,56861,1,0,0:0:0:0:
79,324,56942,1,0,0:0:0:0:
125,360,57023,1,0,0:0:0:0:
173,322,57104,6,0,L|269:242,1,110
365,47,57429,2,0,L|253:134,1,110,8|0,0:0|0:0,0:0:0:0:
93,214,57753,2,0,B|39:238|39:238|105:246,1,110
378,142,58077,2,0,B|436:155|436:155|369:176,1,110,8|0,0:0|0:0,0:0:0:0:
152,104,58402,6,0,P|197:40|228:38,1,110
384,301,58726,2,0,P|359:358|303:374,1,110,8|0,0:0|0:0,0:0:0:0:
147,339,59050,1,0,0:0:0:0:
43,166,59212,1,0,0:0:0:0:
160,56,59375,1,8,0:0:0:0:
214,45,59456,1,0,0:0:0:0:
262,78,59537,1,0,0:0:0:0:
308,118,59618,1,0,0:0:0:0:
366,132,59699,6,0,B|419:115|419:115|445:61,1,110
240,296,60023,2,0,B|217:350|217:350|146:375,1,110,8|0,0:0|0:0,0:0:0:0:
52,172,60348,1,0,0:0:0:0:
176,38,60510,1,0,0:0:0:0:
286,167,60672,1,8,0:0:0:0:
313,214,60753,1,0,0:0:0:0:
366,233,60834,1,0,0:0:0:0:
427,226,60915,1,0,0:0:0:0:
471,178,60996,6,0,L|489:123,1,55,2|0,0:0|0:0,0:0:0:0:
320,25,61158,2,0,L|295:101,1,55
372,357,61321,2,0,L|343:289,1,55,2|0,0:0|0:0,0:0:0:0:
138,192,61483,2,0,L|160:264,1,55
294,131,61645,2,0,L|304:68,1,55,2|0,0:0|0:0,0:0:0:0:
55,217,61807,2,0,L|44:291,1,55
152,69,61969,2,0,L|164:10,1,55,2|0,0:0|0:0,0:0:0:0:
305,264,62131,2,0,L|293:344,1,55
368,66,62294,5,2,0:0:0:0:
332,40,62375,1,2,0:0:0:0:
288,39,62456,1,2,0:0:0:0:
249,65,62537,1,2,0:0:0:0:
229,118,62618,1,2,0:0:0:0:
245,177,62699,1,2,0:0:0:0:
250,245,62780,1,2,0:0:0:0:
210,304,62861,1,2,0:0:0:0:
146,328,62942,1,4,0:0:0:0:
114,316,63023,1,4,0:0:0:0:
146,328,63104,1,4,0:0:0:0:
114,316,63185,1,4,0:0:0:0:
146,328,63267,1,4,0:0:0:0:
114,316,63348,1,4,0:0:0:0:
146,328,63429,1,4,0:0:0:0:
114,316,63510,1,4,0:0:0:0:
146,328,63591,6,0,L|228:303,1,71.4999967269899
307,135,63753,2,0,L|222:160,1,71.4999967269899
389,253,63915,2,0,L|492:284,1,71.4999967269899,8|0,0:0|0:0,0:0:0:0:
176,47,64077,2,0,L|90:26,1,71.4999967269899
64,187,64240,1,0,0:0:0:0:
46,257,64321,1,0,0:0:0:0:
87,315,64402,1,0,0:0:0:0:
161,319,64483,1,0,0:0:0:0:
232,277,64564,1,8,0:0:0:0:
329,42,64726,1,0,0:0:0:0:
443,181,64888,6,0,L|477:258,1,71.4999967269899
274,363,65050,2,0,L|287:280,1,71.4999967269899
87,55,65212,2,0,L|108:128,1,71.4999967269899,8|0,0:0|0:0,0:0:0:0:
308,155,65375,2,0,L|330:75,1,71.4999967269899
74,161,65537,1,0,0:0:0:0:
63,231,65618,1,0,0:0:0:0:
122,267,65699,1,0,0:0:0:0:
133,336,65780,1,0,0:0:0:0:
197,364,65861,1,8,0:0:0:0:
462,235,66023,1,0,0:0:0:0:
303,93,66185,6,0,L|262:0,1,71.4999967269899
183,262,66348,2,0,L|164:333,1,71.4999967269899
79,104,66510,2,0,L|112:184,1,71.4999967269899,8|0,0:0|0:0,0:0:0:0:
288,372,66672,2,0,L|296:280,1,71.4999967269899
379,84,66834,1,0,0:0:0:0:
439,125,66915,1,0,0:0:0:0:
472,188,66996,1,0,0:0:0:0:
470,258,67077,1,0,0:0:0:0:
448,329,67158,1,8,0:0:0:0:
112,184,67321,1,0,0:0:0:0:
311,55,67483,6,0,L|389:35,1,71.4999967269899
185,337,67645,2,0,L|85:318,1,71.4999967269899
40,92,67807,2,0,L|115:102,1,71.4999967269899,8|0,0:0|0:0,0:0:0:0:
455,275,67969,2,0,L|357:242,1,71.4999967269899
122,235,68131,1,0,0:0:0:0:
62,219,68212,1,0,0:0:0:0:
41,150,68294,1,0,0:0:0:0:
78,79,68375,1,0,0:0:0:0:
152,61,68456,1,8,0:0:0:0:
303,357,68618,1,0,0:0:0:0:
388,70,68780,5,0,0:0:0:0:
181,291,68942,1,0,0:0:0:0:
448,189,69104,1,8,0:0:0:0:
70,188,69267,1,0,0:0:0:0:
220,63,69429,1,0,0:0:0:0:
407,330,69591,1,0,0:0:0:0:
213,289,69753,1,8,0:0:0:0:
359,67,69915,1,0,0:0:0:0:
124,99,70077,5,0,0:0:0:0:
421,225,70240,1,0,0:0:0:0:
222,39,70402,1,8,0:0:0:0:
162,333,70564,1,0,0:0:0:0:
327,142,70726,1,0,0:0:0:0:
362,358,70888,1,0,0:0:0:0:
57,136,71050,1,8,0:0:0:0:
245,24,71212,1,0,0:0:0:0:
156,199,71375,5,2,0:0:0:0:
150,244,71456,1,2,0:0:0:0:
178,287,71537,1,2,0:0:0:0:
229,296,71618,1,2,0:0:0:0:
285,261,71699,1,2,0:0:0:0:
301,194,71780,1,2,0:0:0:0:
342,136,71861,1,2,0:0:0:0:
411,118,71942,1,2,0:0:0:0:
472,155,72023,1,2,0:0:0:0:
496,225,72104,1,2,0:0:0:0:
485,295,72185,1,2,0:0:0:0:
422,334,72267,1,2,0:0:0:0:
342,338,72348,1,2,0:0:0:0:
268,306,72429,1,2,0:0:0:0:
212,250,72510,1,2,0:0:0:0:
176,174,72591,1,2,0:0:0:0:
141,91,72672,6,0,B|165:53|165:53|201:80|201:80|244:74|244:74|281:51|281:51|313:88|313:88|290:123,1,264,4|0,0:0|0:0,0:0:0:0:
89,125,73969,5,8,0:0:0:0:
84,187,74050,1,0,0:0:0:0:
125,236,74131,2,0,L|212:254,1,88
302,80,74294,1,8,0:0:0:0:
348,45,74375,1,0,0:0:0:0:
408,64,74456,2,0,L|458:155,1,88
388,324,74618,2,0,L|291:306,1,88,8|0,0:0|0:0,0:0:0:0:
79,99,74780,2,0,L|190:115,1,88
431,159,74942,2,0,L|293:177,1,88,8|0,0:0|0:0,0:0:0:0:
86,310,75104,2,0,L|211:268,1,88
336,133,75267,5,8,0:0:0:0:
320,70,75348,1,0,0:0:0:0:
272,34,75429,2,0,L|168:69,1,88
61,204,75591,1,8,0:0:0:0:
101,253,75672,1,0,0:0:0:0:
165,239,75753,2,0,L|253:287,1,88
449,159,75915,1,8,0:0:0:0:
136,367,76077,1,0,0:0:0:0:
100,89,76240,1,8,0:0:0:0:
136,43,76321,1,0,0:0:0:0:
195,23,76402,1,0,0:0:0:0:
254,37,76483,1,0,0:0:0:0:
304,75,76564,5,8,0:0:0:0:
274,130,76645,1,0,0:0:0:0:
242,183,76726,2,0,L|303:255,1,88
28,153,76888,1,8,0:0:0:0:
38,213,76969,1,0,0:0:0:0:
45,276,77050,2,0,L|142:302,1,88
440,107,77212,2,0,L|350:135,1,88,8|0,0:0|0:0,0:0:0:0:
102,207,77375,2,0,L|186:247,1,88
442,314,77537,2,0,L|329:285,1,88,8|0,0:0|0:0,0:0:0:0:
55,68,77699,2,0,L|160:76,1,88
328,35,77861,5,8,0:0:0:0:
365,83,77942,1,0,0:0:0:0:
342,139,78023,2,0,L|280:206,1,88
102,290,78185,1,8,0:0:0:0:
55,256,78267,1,0,0:0:0:0:
46,200,78348,2,0,L|80:117,1,88
219,42,78510,1,4,0:0:0:0:
334,364,78672,1,4,0:0:0:0:
454,100,78834,1,4,0:0:0:0:
336,249,79158,5,8,0:0:0:0:
274,271,79240,1,0,0:0:0:0:
225,244,79321,2,0,L|129:197,1,88
147,45,79483,1,8,0:0:0:0:
201,21,79564,1,0,0:0:0:0:
259,38,79645,2,0,L|292:124,1,88
74,288,79807,2,0,L|182:274,1,88,8|0,0:0|0:0,0:0:0:0:
422,128,79969,2,0,L|335:106,1,88
41,129,80131,2,0,L|154:146,1,88,8|0,0:0|0:0,0:0:0:0:
467,255,80294,2,0,L|353:287,1,88
210,205,80456,5,8,0:0:0:0:
165,158,80537,1,0,0:0:0:0:
192,109,80618,2,0,L|275:49,1,88
432,172,80780,1,8,0:0:0:0:
433,229,80861,1,0,0:0:0:0:
400,280,80942,2,0,L|294:322,1,88
65,248,81104,1,8,0:0:0:0:
276,34,81267,1,0,0:0:0:0:
311,353,81429,1,8,0:0:0:0:
255,353,81510,1,0,0:0:0:0:
225,301,81591,1,0,0:0:0:0:
260,256,81672,1,0,0:0:0:0:
325,253,81753,5,8,0:0:0:0:
374,226,81834,1,0,0:0:0:0:
426,196,81915,2,0,L|451:92,1,88
203,27,82077,1,8,0:0:0:0:
155,62,82158,1,0,0:0:0:0:
109,101,82240,2,0,L|163:189,1,88
469,292,82402,2,0,L|366:276,1,88,8|0,0:0|0:0,0:0:0:0:
59,270,82564,2,0,L|169:254,1,88
441,122,82726,2,0,L|320:141,1,88,8|0,0:0|0:0,0:0:0:0:
73,117,82888,2,0,L|181:143,1,88
334,218,83050,6,0,B|374:198|374:198|390:245|374:301|323:329|276:333|231:312,1,264,4|0,0:0|0:0,0:0:0:0:
76,77,84348,6,0,L|162:111,1,88,8|0,0:0|0:0,0:0:0:0:
429,173,84510,2,0,L|336:182,1,88
84,292,84672,2,0,L|194:262,1,88,8|0,0:0|0:0,0:0:0:0:
453,71,84834,2,0,L|363:81,1,88
69,158,84996,2,0,L|182:173,1,88,8|0,0:0|0:0,0:0:0:0:
448,307,85158,2,0,L|310:292,1,88
91,69,85321,2,0,L|185:90,1,88,8|0,0:0|0:0,0:0:0:0:
468,182,85483,2,0,L|357:199,1,88
54,350,85645,6,0,L|148:332,1,88,8|0,0:0|0:0,0:0:0:0:
383,65,85807,2,0,L|276:71,1,88
27,130,85969,2,0,L|137:133,1,88,8|0,0:0|0:0,0:0:0:0:
482,297,86131,2,0,L|385:277,1,88
124,240,86294,1,2,0:0:0:0:
196,29,86456,1,2,0:0:0:0:
335,355,86618,1,2,0:0:0:0:
414,119,86780,1,2,0:0:0:0:
96,26,86942,6,0,L|110:114,1,88,8|0,0:0|0:0,0:0:0:0:
227,368,87104,2,0,L|244:269,1,88
349,25,87267,2,0,L|368:120,1,88,8|0,0:0|0:0,0:0:0:0:
148,310,87429,2,0,L|170:191,1,88
208,58,87591,2,0,L|222:186,1,88,8|0,0:0|0:0,0:0:0:0:
417,337,87753,2,0,L|413:237,1,88
312,22,87915,2,0,L|302:124,1,88,8|0,0:0|0:0,0:0:0:0:
92,365,88077,2,0,L|98:257,1,88
123,52,88240,6,0,L|112:163,1,88,8|0,0:0|0:0,0:0:0:0:
240,334,88402,2,0,L|231:224,1,88
432,28,88564,2,0,L|428:136,1,88,8|0,0:0|0:0,0:0:0:0:
382,365,88726,2,0,L|373:269,1,88
297,57,88888,1,2,0:0:0:0:
66,177,89050,1,2,0:0:0:0:
456,208,89212,1,2,0:0:0:0:
210,345,89375,1,2,0:0:0:0:
75,79,89537,6,0,L|161:98,1,88,8|0,0:0|0:0,0:0:0:0:
432,264,89699,2,0,L|324:239,1,88
54,286,89861,2,0,L|178:273,1,88,8|0,0:0|0:0,0:0:0:0:
441,46,90023,2,0,L|350:56,1,88
101,178,90185,2,0,L|211:183,1,88,8|0,0:0|0:0,0:0:0:0:
459,152,90348,2,0,L|365:146,1,88
91,79,90510,2,0,L|188:89,1,88,8|0,0:0|0:0,0:0:0:0:
392,331,90672,2,0,L|294:320,1,88
68,288,90834,6,0,L|164:269,1,88,8|0,0:0|0:0,0:0:0:0:
386,70,90996,2,0,L|291:74,1,88
46,137,91158,2,0,L|154:153,1,88,8|0,0:0|0:0,0:0:0:0:
464,224,91321,2,0,L|345:229,1,88
98,50,91483,2,0,L|218:75,1,88,8|0,0:0|0:0,0:0:0:0:
372,137,91645,2,0,L|275:154,1,88
77,345,91807,2,0,L|193:339,1,88,8|0,0:0|0:0,0:0:0:0:
447,281,91969,2,0,L|338:283,1,88
93,240,92131,5,2,0:0:0:0:
69,192,92212,1,2,0:0:0:0:
88,134,92294,1,2,0:0:0:0:
147,109,92375,1,2,0:0:0:0:
212,123,92456,1,2,0:0:0:0:
239,184,92537,1,2,0:0:0:0:
233,254,92618,1,2,0:0:0:0:
247,322,92699,1,2,0:0:0:0:
308,361,92780,1,2,0:0:0:0:
378,354,92861,1,2,0:0:0:0:
445,320,92942,1,2,0:0:0:0:
474,248,93023,1,2,0:0:0:0:
462,173,93104,1,2,0:0:0:0:
417,109,93185,1,2,0:0:0:0:
348,74,93267,1,2,0:0:0:0:
273,66,93348,1,2,0:0:0:0:
199,84,93429,6,0,B|115:117|115:117|172:180|172:180|119:251,1,264,4|0,0:0|0:0,0:0:0:0:
301,321,94726,6,0,L|405:153,1,197.99999395752
216,22,95050,2,0,L|202:93,1,65.9999979858399,8|0,0:0|0:0,0:0:0:0:
101,336,95212,2,0,L|155:276,1,65.9999979858399
281,62,95375,2,0,B|354:175|354:175|421:198,1,197.99999395752
361,367,95699,2,0,L|300:319,1,65.9999979858399,8|0,0:0|0:0,0:0:0:0:
158,262,95861,1,0,0:0:0:0:
200,194,95942,1,0,0:0:0:0:
278,207,96023,6,0,B|391:134|391:134|390:68,1,197.99999395752
256,29,96348,2,0,L|184:71,1,65.9999979858399,8|0,0:0|0:0,0:0:0:0:
15,208,96510,2,0,L|79:171,1,65.9999979858399
162,275,96672,2,0,P|251:349|352:356,1,197.99999395752
449,248,96996,2,0,L|406:199,1,65.9999979858399,8|0,0:0|0:0,0:0:0:0:
363,19,97158,2,0,L|360:90,1,65.9999979858399
304,343,97321,5,0,0:0:0:0:
224,44,97483,1,0,0:0:0:0:
145,308,97645,1,8,0:0:0:0:
367,84,97807,1,0,0:0:0:0:
39,214,97969,2,0,B|86:259|86:259|234:239,1,197.99999395752
437,160,98294,2,0,L|348:145,1,65.9999979858399,8|0,0:0|0:0,0:0:0:0:
369,341,98456,2,0,L|300:295,1,65.9999979858399
194,101,98618,6,0,B|149:50|149:50|152:214,1,197.99999395752
184,350,98942,1,8,0:0:0:0:
320,35,99104,1,0,0:0:0:0:
379,83,99185,1,0,0:0:0:0:
411,155,99267,2,0,B|414:228|367:285|289:200|235:278,1,197.99999395752
103,325,99591,1,8,0:0:0:0:
19,131,99753,1,0,0:0:0:0:
80,77,99834,1,0,0:0:0:0:
153,31,99915,6,0,B|220:47|220:47|320:169,1,197.99999395752
183,364,100240,2,0,L|149:242,1,65.9999979858399,8|0,0:0|0:0,0:0:0:0:
296,25,100402,2,0,L|245:104,1,65.9999979858399
445,155,100564,2,0,B|467:220|467:220|406:277|321:265,1,197.99999395752
36,206,100888,1,8,0:0:0:0:
62,136,100969,1,0,0:0:0:0:
125,97,101050,2,0,L|197:93,1,65.9999979858399
311,85,101212,6,0,P|389:144|405:282,1,197.99999395752
256,362,101537,2,0,L|206:305,1,65.9999979858399,8|0,0:0|0:0,0:0:0:0:
138,72,101699,2,0,L|192:131,1,65.9999979858399
353,40,101861,2,0,B|410:71|410:71|410:135|410:135|349:185,1,197.99999395752
131,148,102185,1,8,0:0:0:0:
63,178,102267,1,0,0:0:0:0:
42,252,102348,1,0,0:0:0:0:
74,322,102429,1,0,0:0:0:0:
140,364,102510,5,0,0:0:0:0:
428,182,102672,1,0,0:0:0:0:
33,101,102834,1,8,0:0:0:0:
353,331,102996,1,0,0:0:0:0:
100,213,103158,2,0,B|135:157|135:157|285:116,1,197.99999395752
476,40,103483,2,0,L|393:59,1,65.9999979858399,8|0,0:0|0:0,0:0:0:0:
384,263,103645,2,0,L|313:259,1,65.9999979858399
194,98,103807,6,0,B|137:62|137:62|43:155,1,197.99999395752,2|0,0:0|0:0,0:0:0:0:
98,341,104131,2,0,P|166:368|306:323,1,197.99999395752,2|0,0:0|0:0,0:0:0:0:
381,169,104456,2,0,B|361:104|361:104|422:86|422:86|444:157,1,197.99999395752,2|0,0:0|0:0,0:0:0:0:
320,282,104780,2,0,B|226:288|289:150|166:156,1,197.99999395752,2|0,0:0|0:0,0:0:0:0:
57,50,105104,6,0,L|79:119,1,65.9999979858399
384,102,105267,1,0,0:0:0:0:
34,148,105429,2,0,L|80:194,1,65.9999979858399,8|0,0:0|0:0,0:0:0:0:
384,102,105591,1,0,0:0:0:0:
52,242,105753,2,0,L|121:264,1,65.9999979858399
384,102,105915,1,0,0:0:0:0:
94,324,106077,2,0,L|173:311,1,65.9999979858399,8|0,0:0|0:0,0:0:0:0:
384,102,106240,1,0,0:0:0:0:
109,157,106402,5,0,0:0:0:0:
409,240,106564,1,0,0:0:0:0:
68,99,106726,1,8,0:0:0:0:
448,133,106888,1,0,0:0:0:0:
92,315,107050,1,0,0:0:0:0:
478,298,107212,1,0,0:0:0:0:
34,205,107375,1,8,0:0:0:0:
414,177,107537,1,0,0:0:0:0:
337,27,107699,6,0,L|256:50,1,65.9999979858399
227,338,107861,1,0,0:0:0:0:
69,98,108023,2,0,L|150:63,1,65.9999979858399,8|0,0:0|0:0,0:0:0:0:
227,338,108185,1,0,0:0:0:0:
321,84,108348,2,0,L|256:111,1,65.9999979858399
227,338,108510,1,0,0:0:0:0:
55,155,108591,2,0,L|135:120,1,65.9999979858399,0|8,0:0|0:0,0:0:0:0:
227,338,108834,1,0,0:0:0:0:
261,45,108996,5,0,0:0:0:0:
350,329,109158,1,0,0:0:0:0:
380,54,109321,1,8,0:0:0:0:
174,362,109483,1,0,0:0:0:0:
165,27,109645,1,0,0:0:0:0:
100,297,109807,1,0,0:0:0:0:
241,65,109969,1,8,0:0:0:0:
305,364,110131,1,0,0:0:0:0:
357,37,110294,6,0,P|426:72|408:197,1,197.99999395752
118,359,110618,2,0,L|100:289,1,65.9999979858399,8|0,0:0|0:0,0:0:0:0:
145,22,110780,2,0,L|166:100,1,65.9999979858399
272,360,110942,2,0,B|325:315|389:301|389:301|359:265|314:268,1,197.99999395752
89,190,111267,1,8,0:0:0:0:
105,117,111348,1,0,0:0:0:0:
170,77,111429,1,0,0:0:0:0:
245,76,111510,1,0,0:0:0:0:
320,112,111591,6,0,B|442:168|442:168|435:98,1,197.99999395752
210,182,111915,2,0,L|144:208,1,65.9999979858399,8|0,0:0|0:0,0:0:0:0:
377,331,112077,2,0,L|455:300,1,65.9999979858399
77,280,112240,2,0,P|26:222|42:96,1,197.99999395752
280,61,112564,1,8,0:0:0:0:
326,122,112645,1,0,0:0:0:0:
368,181,112726,1,0,0:0:0:0:
409,241,112807,1,0,0:0:0:0:
453,309,112888,6,0,L|387:321,1,55,2|0,0:0|0:0,0:0:0:0:
67,121,113212,2,0,L|127:114,1,55,2|0,0:0|0:0,0:0:0:0:
458,154,113537,2,0,L|390:158,1,55,2|0,0:0|0:0,0:0:0:0:
49,225,113861,2,0,L|119:231,1,55,2|0,0:0|0:0,0:0:0:0:
443,254,114185,5,4,0:0:0:0:
71,153,114348,1,4,0:0:0:0:
488,118,114510,1,4,0:0:0:0:
123,259,114672,1,4,0:0:0:0:
422,184,114834,1,4,0:0:0:0:
10,99,114996,1,4,0:0:0:0:
430,306,115158,1,4,0:0:0:0:
20,284,115321,1,4,0:0:0:0:
458,212,115483,1,4,0:0:0:0:
