osu file format v14

[General]
AudioFilename: audio.mp3
AudioLeadIn: 0
PreviewTime: 93429
Countdown: 0
SampleSet: Normal
StackLeniency: 0.7
Mode: 0
LetterboxInBreaks: 1
WidescreenStoryboard: 1

[Editor]
DistanceSpacing: 1
BeatDivisor: 4
GridSize: 8
TimelineZoom: 1.6

[Metadata]
Title:GOODTEK (shadow_bling remix)
TitleUnicode:GOODTEK (shadow_bling remix)
Artist:EBIMAYO
ArtistUnicode:EBIMAYO
Creator:Xenodia
Version:HYPERTEK
Source:
Tags:hardcore remix synthesizer
BeatmapID:3846867
BeatmapSetID:1869704

[Difficulty]
HPDrainRate:4.5
CircleSize:4
OverallDifficulty:7.7
ApproachRate:9
SliderMultiplier:1.8
SliderTickRate:1

[Events]
//Background and Video events
0,0,"GOODTEK BLUE.png",0,0
//Break Periods
//Storyboard Layer 0 (Background)
//Storyboard Layer 1 (Fail)
//Storyboard Layer 2 (Pass)
//Storyboard Layer 3 (Foreground)
//Storyboard Layer 4 (Overlay)
//Storyboard Sound Samples

[TimingPoints]
1321.09463394235,324.324324324324,4,1,0,100,1,0
11699,-100,4,1,0,100,0,0
20780,-250,4,1,0,100,0,0
22077,-83.3333333333333,4,1,0,100,0,0
41537,-250,4,1,0,100,0,0
42834,-100,4,1,0,80,0,0
63591,-76.9230769230769,4,1,0,100,0,0
72672,-250,4,1,0,100,0,0
73969,-62.5,4,1,0,100,0,0
83050,-250,4,1,0,100,0,0
84348,-62.5,4,1,0,100,0,0
93429,-250,4,1,0,100,0,0
94726,-83.3333333333333,4,1,0,100,0,1
112888,-100,4,1,0,100,0,1
115483,-100,4,1,0,100,0,0

[Colours]
Combo1 : 109,102,255
Combo2 : 255,89,89
Combo3 : 250,255,45
Combo4 : 89,255,102

[HitObjects]
85,234,1321,5,0,0:0:0:0:
138,290,1483,1,0,0:0:0:0:
213,287,1645,1,0,0:0:0:0:
257,226,1807,1,0,0:0:0:0:
227,157,1969,1,0,0:0:0:0:
233,83,2131,1,0,0:0:0:0:
298,40,2294,1,0,0:0:0:0:
360,98,2456,5,0,0:0:0:0:
426,231,2618,1,0,0:0:0:0:
395,92,2780,1,0,0:0:0:0:
406,234,2942,1,0,0:0:0:0:
425,93,3104,1,0,0:0:0:0:
378,230,3267,1,0,0:0:0:0:
448,105,3429,1,0,0:0:0:0:
354,216,3591,1,0,0:0:0:0:
460,130,3753,1,0,0:0:0:0:
287,126,3915,6,0,L|196:146,1,90
341,273,4240,2,0,L|462:290,1,90
150,320,4564,2,0,L|47:281,1,90
297,63,4888,2,0,L|404:54,1,90
131,141,5212,6,0,P|134:189|160:226,1,90
357,279,5537,2,0,P|393:239|396:186,1,90
240,57,5861,2,0,P|286:35|344:45,1,90
203,241,6185,2,0,P|160:273|151:327,1,90
336,360,6510,5,0,0:0:0:0:
405,320,6672,1,0,0:0:0:0:
416,242,6834,1,0,0:0:0:0:
368,186,6996,1,0,0:0:0:0:
318,126,7158,1,0,0:0:0:0:
290,52,7321,1,0,0:0:0:0:
218,19,7483,1,0,0:0:0:0:
137,36,7645,5,0,0:0:0:0:
184,177,7807,1,0,0:0:0:0:
169,33,7969,1,0,0:0:0:0:
148,179,8131,1,0,0:0:0:0:
193,41,8294,1,0,0:0:0:0:
120,171,8456,1,0,0:0:0:0:
220,64,8618,1,0,0:0:0:0:
98,144,8780,1,0,0:0:0:0:
234,92,8942,1,0,0:0:0:0:
161,229,9104,6,0,L|216:311,1,90
417,160,9429,2,0,L|452:77,1,90
262,63,9753,2,0,L|149:40,1,90
62,172,10077,2,0,L|160:194,1,90
330,293,10402,6,0,B|362:260|362:260|357:205,1,90
216,74,10726,2,0,B|172:81|172:81|149:129,1,90
362,125,11050,2,0,B|408:121|408:121|454:146,1,90
176,269,11375,2,0,B|163:314|163:314|117:286,1,90
79,217,11699,5,8,0:0:0:0:
79,141,11861,1,8,0:0:0:0:
126,84,12023,1,8,0:0:0:0:
200,82,12185,1,8,0:0:0:0:
252,131,12348,1,8,0:0:0:0:
306,182,12510,1,8,0:0:0:0:
381,167,12672,1,8,0:0:0:0:
421,93,12834,5,8,0:0:0:0:
275,45,12996,1,8,0:0:0:0:
410,57,13158,1,8,0:0:0:0:
256,79,13321,1,8,0:0:0:0:
395,89,13483,1,8,0:0:0:0:
215,71,13645,1,8,0:0:0:0:
357,67,13807,1,8,0:0:0:0:
196,116,13969,1,8,0:0:0:0:
335,104,14131,1,8,0:0:0:0:
165,149,14294,6,8,L|40:168,1,90,8|8,0:0|0:0,0:0:0:0:
350,208,14618,2,8,L|461:223,1,90,8|8,0:0|0:0,0:0:0:0:
117,56,14942,2,8,L|218:45,1,90,8|8,0:0|0:0,0:0:0:0:
336,286,15267,2,8,L|199:298,1,90,8|8,0:0|0:0,0:0:0:0:
340,94,15591,6,8,P|392:134|395:183,1,90,8|8,0:0|0:0,0:0:0:0:
185,367,15915,2,8,P|140:336|123:286,1,90,8|8,0:0|0:0,0:0:0:0:
183,152,16240,2,8,P|169:110|121:85,1,90,8|8,0:0|0:0,0:0:0:0:
352,309,16564,2,8,P|404:280|416:232,1,90,8|8,0:0|0:0,0:0:0:0:
321,88,16888,5,8,0:0:0:0:
264,43,17050,1,8,0:0:0:0:
192,39,17212,1,8,0:0:0:0:
132,83,17375,1,8,0:0:0:0:
133,155,17537,1,8,0:0:0:0:
145,228,17699,1,8,0:0:0:0:
130,299,17861,1,8,0:0:0:0:
58,326,18023,5,8,0:0:0:0:
234,273,18185,1,8,0:0:0:0:
65,289,18348,1,8,0:0:0:0:
278,309,18510,1,8,0:0:0:0:
89,308,18672,1,8,0:0:0:0:
291,272,18834,1,8,0:0:0:0:
142,284,18996,1,8,0:0:0:0:
331,289,19158,1,8,0:0:0:0:
163,312,19321,1,8,0:0:0:0:
392,250,19483,6,8,L|428:205,1,45,8|8,0:0|0:0,0:0:0:0:
250,208,19645,2,8,L|187:192,1,45
333,113,19807,2,8,L|341:170,1,45,8|8,0:0|0:0,0:0:0:0:
120,108,19969,2,8,L|65:99,1,45
147,200,20131,1,8,0:0:0:0:
151,228,20212,1,8,0:0:0:0:
166,256,20294,1,8,0:0:0:0:
190,279,20375,1,8,0:0:0:0:
220,294,20456,1,8,0:0:0:0:
254,300,20537,1,8,0:0:0:0:
287,296,20618,1,8,0:0:0:0:
320,287,20699,1,10,0:0:0:0:
349,271,20780,6,0,B|427:194|427:194|402:170|402:170|391:91,1,216,2|0,0:0|0:0,0:0:0:0:
300,63,22077,6,0,P|227:52|135:77,1,161.999995056153
105,93,22402,1,8,0:0:0:0:
260,189,22564,1,0,0:0:0:0:
260,189,22645,1,0,0:0:0:0:
260,189,22726,1,0,0:0:0:0:
83,308,22888,2,0,L|13:329,1,53.9999983520508
246,363,23050,2,0,L|373:292,1,107.999996704102,8|0,0:0|0:0,0:0:0:0:
392,189,23375,6,0,B|435:229|435:229|458:150|414:81,1,161.999995056153
421,78,23699,1,8,0:0:0:0:
247,95,23861,1,0,0:0:0:0:
247,95,23942,1,0,0:0:0:0:
247,95,24023,1,0,0:0:0:0:
72,71,24185,2,0,L|33:26,1,53.9999983520508
69,205,24348,2,0,B|70:260|70:260|113:301,1,107.999996704102,8|0,0:0|0:0,0:0:0:0:
309,255,24672,6,0,B|320:311|320:311|227:366,1,161.999995056153
190,373,24996,1,8,0:0:0:0:
130,154,25158,1,0,0:0:0:0:
131,115,25240,1,0,0:0:0:0:
153,86,25321,1,0,0:0:0:0:
340,131,25483,1,0,0:0:0:0:
376,147,25564,1,0,0:0:0:0:
416,170,25645,2,0,B|464:198|464:198|419:226,1,107.999996704102,8|0,0:0|0:0,0:0:0:0:
161,268,25969,6,0,L|103:284,1,53.9999983520508
305,318,26131,2,0,L|354:341,1,53.9999983520508
246,154,26294,1,8,0:0:0:0:
284,154,26375,1,0,0:0:0:0:
310,127,26456,2,0,L|383:39,1,107.999996704102
125,32,26780,1,0,0:0:0:0:
45,173,26942,2,0,P|13:223|26:288,1,107.999996704102,8|0,0:0|0:0,0:0:0:0:
154,324,27267,6,0,P|249:283|276:224,1,161.999995056153
282,192,27591,1,8,0:0:0:0:
384,336,27753,1,0,0:0:0:0:
384,336,27834,1,0,0:0:0:0:
384,336,27915,1,0,0:0:0:0:
157,185,28077,2,0,L|113:221,1,53.9999983520508
202,56,28240,2,0,L|83:2,1,107.999996704102,8|0,0:0|0:0,0:0:0:0:
32,124,28564,6,0,B|11:174|11:174|57:201|57:201|55:263,1,161.999995056153
53,299,28888,1,8,0:0:0:0:
227,174,29050,1,0,0:0:0:0:
227,174,29131,1,0,0:0:0:0:
227,174,29212,1,0,0:0:0:0:
371,333,29375,2,0,L|412:373,1,53.9999983520508
421,221,29537,2,0,L|358:95,1,107.999996704102,8|0,0:0|0:0,0:0:0:0:
254,51,29861,6,0,B|191:38|197:125|85:93,1,161.999995056153
61,86,30185,1,8,0:0:0:0:
85,269,30348,1,0,0:0:0:0:
99,297,30429,1,0,0:0:0:0:
127,317,30510,1,0,0:0:0:0:
246,178,30672,1,0,0:0:0:0:
278,164,30753,1,0,0:0:0:0:
315,150,30834,2,0,L|426:225,1,107.999996704102,8|0,0:0|0:0,0:0:0:0:
303,303,31158,5,2,0:0:0:0:
202,130,31321,1,2,0:0:0:0:
402,266,31483,1,2,0:0:0:0:
286,85,31645,1,2,0:0:0:0:
127,240,31807,1,2,0:0:0:0:
385,129,31969,1,2,0:0:0:0:
160,155,32131,1,2,0:0:0:0:
305,231,32456,6,0,P|297:306|209:344,1,161.999995056153
176,347,32780,1,8,0:0:0:0:
445,282,32942,1,0,0:0:0:0:
445,282,33023,1,0,0:0:0:0:
445,282,33104,1,0,0:0:0:0:
119,150,33185,2,0,L|38:155,1,53.9999983520508
218,64,33429,2,0,L|370:62,1,107.999996704102,8|0,0:0|0:0,0:0:0:0:
360,191,33753,6,0,B|336:240|336:240|212:264,1,161.999995056153
181,269,34077,1,8,0:0:0:0:
56,136,34240,1,0,0:0:0:0:
46,89,34321,1,0,0:0:0:0:
70,51,34402,1,0,0:0:0:0:
288,73,34564,2,0,L|360:122,1,53.9999983520508
189,187,34726,2,0,L|117:226,1,53.9999983520508,8|0,0:0|0:0,0:0:0:0:
281,336,34888,2,0,L|270:253,1,53.9999983520508
434,207,35050,6,0,P|492:157|429:148,1,161.999995056153
396,144,35375,1,8,0:0:0:0:
231,239,35537,1,0,0:0:0:0:
191,264,35618,1,0,0:0:0:0:
166,303,35699,1,0,0:0:0:0:
72,151,35861,1,0,0:0:0:0:
58,108,35942,1,0,0:0:0:0:
48,65,36023,2,0,P|88:20|153:31,1,107.999996704102,8|0,0:0|0:0,0:0:0:0:
301,163,36348,6,0,L|336:222,1,53.9999983520508
400,78,36510,2,0,L|325:63,1,53.9999983520508
161,181,36672,2,0,L|150:115,1,53.9999983520508,8|0,0:0|0:0,0:0:0:0:
190,297,36834,2,0,B|274:369|274:369|324:336,1,161.999995056153
360,310,37158,1,0,0:0:0:0:
406,282,37240,1,0,0:0:0:0:
454,255,37321,1,8,0:0:0:0:
359,85,37483,1,0,0:0:0:0:
114,142,37645,6,0,B|68:170|68:170|83:231|169:238,1,161.999995056153
192,237,37969,1,8,0:0:0:0:
272,54,38131,1,0,0:0:0:0:
272,54,38212,1,0,0:0:0:0:
272,54,38294,1,0,0:0:0:0:
421,165,38456,2,0,L|456:210,1,53.9999983520508
304,300,38618,2,0,L|193:383,1,107.999996704102,8|0,0:0|0:0,0:0:0:0:
104,240,38942,6,0,P|74:180|138:126,1,161.999995056153
182,122,39267,1,8,0:0:0:0:
335,222,39429,1,0,0:0:0:0:
363,254,39510,1,0,0:0:0:0:
398,290,39591,1,0,0:0:0:0:
357,52,39753,1,0,0:0:0:0:
186,250,39915,2,0,B|148:290|148:290|144:228,1,107.999996704102,8|0,0:0|0:0,0:0:0:0:
223,109,40240,6,0,B|275:89|275:89|306:137|306:137|376:143,1,161.999995056153
403,146,40564,1,8,0:0:0:0:
295,296,40726,1,0,0:0:0:0:
269,333,40807,1,0,0:0:0:0:
229,347,40888,1,0,0:0:0:0:
93,214,41050,1,0,0:0:0:0:
77,178,41131,1,0,0:0:0:0:
60,137,41212,2,0,L|107:80,1,53.9999983520508,8|0,0:0|0:0,0:0:0:0:
244,194,41375,2,0,L|182:156,1,53.9999983520508
371,84,41537,6,0,B|499:112|364:204|375:260,1,216,2|0,0:0|0:0,0:0:0:0:
202,328,42834,6,0,B|70:362|70:362|84:305,1,180
116,195,43321,1,0,0:0:0:0:
30,101,43483,1,0,0:0:0:0:
100,6,43645,1,0,0:0:0:0:
212,38,43807,1,0,0:0:0:0:
235,152,43969,2,0,L|284:163,1,45
365,119,44131,6,0,P|374:58|342:29,1,90
221,232,44456,2,0,P|254:285|313:294,1,90
146,106,44780,2,0,P|90:131|69:177,1,90
199,213,45104,1,0,0:0:0:0:
246,384,45267,1,0,0:0:0:0:
361,293,45429,6,0,L|406:285,1,45
333,184,45591,2,0,L|291:160,1,45
447,140,45753,1,0,0:0:0:0:
242,29,45915,1,0,0:0:0:0:
84,121,46077,2,0,L|122:98,1,45
239,171,46240,2,0,L|163:159,1,45
78,253,46402,1,0,0:0:0:0:
123,367,46564,1,0,0:0:0:0:
280,328,46726,6,0,P|376:332|412:208,1,225
413,181,47212,1,0,0:0:0:0:
208,56,47375,1,0,0:0:0:0:
186,74,47456,1,0,0:0:0:0:
164,92,47537,1,0,0:0:0:0:
116,205,47699,1,0,0:0:0:0:
252,238,47861,1,0,0:0:0:0:
354,134,48023,6,0,B|370:46|370:46|282:13,1,180
121,49,48510,1,0,0:0:0:0:
90,181,48672,1,0,0:0:0:0:
214,145,48834,1,0,0:0:0:0:
241,287,48996,1,0,0:0:0:0:
375,330,49158,2,0,L|422:329,1,45
455,269,49321,6,0,L|355:203,1,90
320,113,49645,2,0,L|420:120,1,90
240,232,49969,2,0,L|162:156,1,90
183,60,50294,1,0,0:0:0:0:
66,238,50456,1,0,0:0:0:0:
228,338,50618,6,0,L|251:383,1,45
304,264,50780,2,0,L|294:206,1,45
437,303,50942,1,0,0:0:0:0:
247,139,51104,1,0,0:0:0:0:
320,66,51267,2,0,L|365:55,1,45
109,109,51429,2,0,L|82:62,1,45
63,221,51591,1,0,0:0:0:0:
220,222,51753,1,0,0:0:0:0:
283,109,51915,6,0,B|372:80|372:80|470:213,1,225
483,229,52402,1,0,0:0:0:0:
379,348,52564,1,0,0:0:0:0:
343,333,52645,1,0,0:0:0:0:
306,317,52726,1,0,0:0:0:0:
184,200,52888,1,0,0:0:0:0:
78,375,53050,1,0,0:0:0:0:
30,252,53212,6,0,P|9:189|31:133,1,90,2|0,0:0|0:0,0:0:0:0:
151,61,53537,2,0,P|227:62|259:94,1,90,2|0,0:0|0:0,0:0:0:0:
259,333,53861,2,0,P|195:305|182:271,1,90,2|0,0:0|0:0,0:0:0:0:
364,101,54185,1,2,0:0:0:0:
177,178,54348,1,0,0:0:0:0:
375,235,54510,6,0,L|484:255,1,90,2|0,0:0|0:0,0:0:0:0:
223,113,54834,2,0,L|101:112,1,90,2|0,0:0|0:0,0:0:0:0:
32,246,55158,2,0,L|137:273,1,90,2|0,0:0|0:0,0:0:0:0:
302,313,55483,1,2,0:0:0:0:
231,169,55645,1,0,0:0:0:0:
401,150,55807,6,0,L|434:109,1,45,2|0,0:0|0:0,0:0:0:0:
269,47,55969,2,0,L|212:42,1,45
83,102,56131,1,2,0:0:0:0:
256,216,56294,1,0,0:0:0:0:
66,286,56456,2,0,L|56:339,1,45,2|0,0:0|0:0,0:0:0:0:
205,360,56618,2,0,L|205:312,1,45
232,124,56780,1,2,0:0:0:0:
365,272,56942,1,0,0:0:0:0:
419,135,57104,6,0,B|380:47|380:47|350:75|350:75|260:43,1,225,2|0,0:0|0:0,0:0:0:0:
227,31,57591,1,0,0:0:0:0:
98,130,57753,1,2,0:0:0:0:
74,162,57834,1,0,0:0:0:0:
85,207,57915,1,0,0:0:0:0:
260,205,58077,1,2,0:0:0:0:
190,355,58240,1,0,0:0:0:0:
368,312,58402,6,0,B|408:288|408:288|420:228,1,90,2|0,0:0|0:0,0:0:0:0:
248,120,58726,2,0,B|211:93|211:93|213:34,1,90,2|0,0:0|0:0,0:0:0:0:
138,219,59050,2,0,B|109:256|109:256|44:268,1,90,2|0,0:0|0:0,0:0:0:0:
226,365,59375,1,2,0:0:0:0:
264,152,59537,1,0,0:0:0:0:
373,234,59699,6,0,P|426:241|455:289,1,90,2|0,0:0|0:0,0:0:0:0:
122,212,60023,2,0,P|91:165|126:119,1,90,2|0,0:0|0:0,0:0:0:0:
304,34,60348,2,0,P|341:80|320:120,1,90,2|0,0:0|0:0,0:0:0:0:
277,324,60672,1,2,0:0:0:0:
190,158,60834,1,0,0:0:0:0:
430,157,60996,5,4,0:0:0:0:
157,258,61158,1,4,0:0:0:0:
256,49,61321,1,4,0:0:0:0:
305,359,61483,1,4,0:0:0:0:
96,115,61645,1,4,0:0:0:0:
358,271,61807,1,4,0:0:0:0:
25,225,61969,1,4,0:0:0:0:
329,138,62131,1,4,0:0:0:0:
146,262,62294,5,8,0:0:0:0:
136,218,62375,1,8,0:0:0:0:
138,169,62456,1,8,0:0:0:0:
164,128,62537,1,8,0:0:0:0:
207,101,62618,1,8,0:0:0:0:
261,95,62699,1,8,0:0:0:0:
312,110,62780,1,8,0:0:0:0:
363,111,62861,1,8,0:0:0:0:
409,94,62942,2,2,L|449:40,1,45
277,218,63104,2,2,L|227:246,1,45
424,264,63267,2,2,L|473:276,1,45
239,60,63429,2,2,L|211:24,1,45
175,195,63591,6,0,L|146:246,1,58.4999973220826
330,90,63753,2,0,L|325:23,1,58.4999973220826
157,67,63915,1,8,0:0:0:0:
208,362,64077,1,0,0:0:0:0:
340,160,64240,1,0,0:0:0:0:
394,156,64321,1,0,0:0:0:0:
443,174,64402,1,0,0:0:0:0:
477,214,64483,1,0,0:0:0:0:
479,266,64564,1,8,0:0:0:0:
76,317,64726,1,0,0:0:0:0:
172,122,64888,6,0,L|197:66,1,58.4999973220826
314,307,65050,2,0,L|347:372,1,58.4999973220826
29,238,65212,1,8,0:0:0:0:
366,47,65375,1,0,0:0:0:0:
241,173,65537,1,0,0:0:0:0:
234,205,65618,1,0,0:0:0:0:
230,234,65699,1,0,0:0:0:0:
225,261,65780,1,0,0:0:0:0:
220,292,65861,1,8,0:0:0:0:
401,363,66023,1,0,0:0:0:0:
446,157,66185,6,0,L|462:88,1,58.4999973220826
116,157,66348,2,0,L|94:221,1,58.4999973220826
371,277,66510,1,8,0:0:0:0:
24,154,66672,1,0,0:0:0:0:
348,51,66834,1,0,0:0:0:0:
305,58,66915,1,0,0:0:0:0:
268,83,66996,1,0,0:0:0:0:
243,116,67077,1,0,0:0:0:0:
237,164,67158,1,8,0:0:0:0:
478,235,67321,1,0,0:0:0:0:
189,357,67483,6,0,L|127:362,1,58.4999973220826
149,146,67645,2,0,L|85:131,1,58.4999973220826
394,45,67807,1,8,0:0:0:0:
421,276,67969,1,0,0:0:0:0:
119,248,68131,1,0,0:0:0:0:
98,226,68212,1,0,0:0:0:0:
78,200,68294,1,0,0:0:0:0:
60,175,68375,1,0,0:0:0:0:
42,150,68456,1,8,0:0:0:0:
220,28,68618,1,0,0:0:0:0:
218,301,68780,5,8,0:0:0:0:
378,69,68942,1,0,0:0:0:0:
82,180,69104,1,8,0:0:0:0:
424,202,69267,1,0,0:0:0:0:
133,76,69429,1,8,0:0:0:0:
272,356,69591,1,0,0:0:0:0:
314,42,69753,1,8,0:0:0:0:
136,290,69915,1,0,0:0:0:0:
423,118,70077,5,8,0:0:0:0:
27,150,70240,1,0,0:0:0:0:
407,235,70402,1,8,0:0:0:0:
122,73,70564,1,0,0:0:0:0:
285,335,70726,1,8,0:0:0:0:
288,12,70888,1,0,0:0:0:0:
83,363,71050,1,8,0:0:0:0:
466,103,71212,1,0,0:0:0:0:
200,61,71375,5,8,0:0:0:0:
156,51,71456,1,8,0:0:0:0:
110,58,71537,1,8,0:0:0:0:
79,88,71618,1,8,0:0:0:0:
69,129,71699,1,8,0:0:0:0:
74,173,71780,1,8,0:0:0:0:
104,208,71861,1,8,0:0:0:0:
146,224,71942,1,8,0:0:0:0:
189,227,72023,1,8,0:0:0:0:
234,211,72104,1,8,0:0:0:0:
267,182,72185,1,8,0:0:0:0:
306,158,72267,1,8,0:0:0:0:
352,160,72348,1,8,0:0:0:0:
395,178,72429,1,8,0:0:0:0:
426,214,72510,1,8,0:0:0:0:
431,259,72591,1,8,0:0:0:0:
413,299,72672,6,0,B|358:348|358:348|332:323|332:323|292:342|251:311|262:273,1,216,2|0,0:0|0:0,0:0:0:0:
257,183,73969,5,0,0:0:0:0:
21,268,74131,1,0,0:0:0:0:
96,93,74294,1,4,0:0:0:0:
207,349,74456,1,0,0:0:0:0:
361,110,74618,1,0,0:0:0:0:
361,110,74699,1,0,0:0:0:0:
361,110,74780,2,0,L|440:94,1,72
502,252,74942,1,4,0:0:0:0:
502,252,75023,1,0,0:0:0:0:
502,252,75104,2,0,L|424:267,1,72
310,341,75267,6,0,P|245:268|275:212,1,144
390,32,75591,2,0,P|393:117|341:137,1,144,4|0,0:0|0:0,0:0:0:0:
102,271,75915,2,0,P|178:234|181:159,1,144
177,40,76240,1,4,0:0:0:0:
177,40,76321,1,0,0:0:0:0:
177,40,76402,2,0,L|96:78,1,72
40,152,76564,5,0,0:0:0:0:
134,318,76726,1,0,0:0:0:0:
260,203,76888,1,4,0:0:0:0:
362,368,77050,1,0,0:0:0:0:
489,161,77212,1,0,0:0:0:0:
489,161,77294,1,0,0:0:0:0:
489,161,77375,2,0,L|458:92,1,72
308,43,77537,1,4,0:0:0:0:
308,43,77618,1,0,0:0:0:0:
308,43,77699,2,0,L|274:119,1,72
288,279,77861,6,0,B|358:299|358:299|409:242,1,144
208,54,78185,2,0,B|182:121|182:121|230:191,1,144,4|0,0:0|0:0,0:0:0:0:
191,329,78510,1,0,0:0:0:0:
335,131,78672,1,0,0:0:0:0:
98,84,78834,1,4,0:0:0:0:
230,236,79158,5,0,0:0:0:0:
475,104,79321,1,0,0:0:0:0:
449,292,79483,1,4,0:0:0:0:
312,39,79645,1,0,0:0:0:0:
143,86,79807,1,0,0:0:0:0:
143,86,79888,1,0,0:0:0:0:
143,86,79969,2,0,L|92:142,1,72
120,298,80131,1,4,0:0:0:0:
120,298,80212,1,0,0:0:0:0:
120,298,80294,2,0,L|177:229,1,72
276,73,80456,6,0,P|357:72|398:123,1,144
458,272,80780,2,0,P|385:317|306:310,1,144,4|0,0:0|0:0,0:0:0:0:
147,363,81104,2,0,P|184:282|170:233,1,144
82,99,81429,1,4,0:0:0:0:
82,99,81510,1,0,0:0:0:0:
82,99,81591,2,0,L|162:120,1,72
368,178,81753,5,0,0:0:0:0:
296,35,81915,1,0,0:0:0:0:
128,157,82077,1,4,0:0:0:0:
179,312,82240,1,0,0:0:0:0:
318,368,82402,1,0,0:0:0:0:
318,368,82483,1,0,0:0:0:0:
318,368,82564,2,0,L|415:331,1,72
100,301,82726,1,4,0:0:0:0:
100,301,82807,1,0,0:0:0:0:
100,301,82888,2,0,L|7:285,1,72
175,213,83050,6,0,B|173:155|218:138|290:214|343:203|339:140,1,216,2|0,0:0|0:0,0:0:0:0:
238,48,84348,5,4,0:0:0:0:
214,327,84510,1,0,0:0:0:0:
81,91,84672,1,4,0:0:0:0:
320,236,84834,1,0,0:0:0:0:
119,242,84996,1,4,0:0:0:0:
119,242,85077,1,0,0:0:0:0:
119,242,85158,2,0,L|196:214,1,72
378,82,85321,1,4,0:0:0:0:
378,82,85402,1,0,0:0:0:0:
378,82,85483,2,0,L|342:171,1,72
303,315,85645,5,4,0:0:0:0:
165,71,85807,1,0,0:0:0:0:
87,236,85969,1,4,0:0:0:0:
434,103,86131,1,0,0:0:0:0:
313,261,86294,2,0,P|394:308|454:279,1,144,4|0,0:0|0:0,0:0:0:0:
275,37,86618,2,0,P|213:75|190:154,1,144,4|0,0:0|0:0,0:0:0:0:
368,167,86942,5,4,0:0:0:0:
163,330,87104,1,0,0:0:0:0:
163,43,87267,1,4,0:0:0:0:
324,280,87429,1,0,0:0:0:0:
143,194,87591,1,4,0:0:0:0:
143,194,87672,1,0,0:0:0:0:
143,194,87753,2,0,L|70:163,1,72
290,59,87915,1,4,0:0:0:0:
290,59,87996,1,0,0:0:0:0:
290,59,88077,2,0,L|398:114,1,72
444,202,88240,5,4,0:0:0:0:
119,135,88402,1,0,0:0:0:0:
322,313,88564,1,4,0:0:0:0:
271,37,88726,1,0,0:0:0:0:
132,324,88888,1,4,0:0:0:0:
392,124,89050,1,0,0:0:0:0:
154,208,89212,1,4,0:0:0:0:
421,238,89375,1,0,0:0:0:0:
188,88,89537,5,8,0:0:0:0:
188,88,89618,1,0,0:0:0:0:
188,88,89699,2,0,L|105:131,1,72
319,312,89861,1,8,0:0:0:0:
319,312,89942,1,0,0:0:0:0:
319,312,90023,2,0,L|351:221,1,72
113,217,90185,1,8,0:0:0:0:
113,217,90267,1,0,0:0:0:0:
113,217,90348,2,0,L|191:199,1,72
386,85,90510,1,8,0:0:0:0:
386,85,90591,1,0,0:0:0:0:
386,85,90672,2,0,L|326:152,1,72
171,84,90834,5,8,0:0:0:0:
171,84,90915,1,0,0:0:0:0:
171,84,90996,2,0,L|249:43,1,72
175,323,91158,1,8,0:0:0:0:
175,323,91240,1,0,0:0:0:0:
175,323,91321,2,0,L|78:300,1,72
338,153,91483,1,8,0:0:0:0:
338,153,91564,1,0,0:0:0:0:
338,153,91645,2,0,L|432:132,1,72
357,364,91807,1,8,0:0:0:0:
357,364,91888,1,0,0:0:0:0:
357,364,91969,2,0,L|313:294,1,72
193,198,92131,5,8,0:0:0:0:
150,217,92212,1,8,0:0:0:0:
101,214,92294,1,8,0:0:0:0:
60,185,92375,1,8,0:0:0:0:
48,136,92456,1,8,0:0:0:0:
61,86,92537,1,8,0:0:0:0:
100,57,92618,1,8,0:0:0:0:
150,58,92699,1,8,0:0:0:0:
200,43,92780,1,8,0:0:0:0:
243,15,92861,1,8,0:0:0:0:
289,12,92942,1,8,0:0:0:0:
333,32,93023,1,8,0:0:0:0:
364,71,93104,1,8,0:0:0:0:
374,116,93185,1,8,0:0:0:0:
368,162,93267,1,8,0:0:0:0:
342,202,93348,1,8,0:0:0:0:
298,216,93429,6,0,P|249:233|328:299,1,216,2|0,0:0|0:0,0:0:0:0:
442,189,94726,5,0,0:0:0:0:
309,45,94888,1,0,0:0:0:0:
106,84,95050,2,0,P|76:152|96:197,1,107.999996704102,8|0,0:0|0:0,0:0:0:0:
122,243,95294,1,0,0:0:0:0:
122,243,95375,1,0,0:0:0:0:
277,117,95537,1,0,0:0:0:0:
401,244,95699,2,0,B|385:299|385:299|336:345,1,107.999996704102,8|0,0:0|0:0,0:0:0:0:
297,365,95942,5,0,0:0:0:0:
297,365,96023,1,0,0:0:0:0:
94,243,96185,1,0,0:0:0:0:
346,161,96348,1,8,0:0:0:0:
181,299,96510,1,0,0:0:0:0:
210,83,96672,1,0,0:0:0:0:
352,301,96834,1,0,0:0:0:0:
109,153,96996,1,8,0:0:0:0:
345,109,97158,1,0,0:0:0:0:
377,121,97240,1,0,0:0:0:0:
410,135,97321,6,0,P|405:192|352:229,1,107.999996704102
63,232,97645,2,0,P|100:181|150:166,1,107.999996704102,8|0,0:0|0:0,0:0:0:0:
319,13,97969,2,0,P|316:71|276:120,1,107.999996704102
88,94,98294,1,8,0:0:0:0:
435,230,98456,1,0,0:0:0:0:
128,211,98618,5,2,0:0:0:0:
116,237,98699,1,0,0:0:0:0:
118,265,98780,1,0,0:0:0:0:
135,293,98861,1,0,0:0:0:0:
158,311,98942,2,0,P|220:309|257:283,1,107.999996704102,8|0,0:0|0:0,0:0:0:0:
322,50,99267,1,2,0:0:0:0:
341,73,99348,1,0,0:0:0:0:
359,93,99429,1,0,0:0:0:0:
379,116,99510,1,0,0:0:0:0:
401,138,99591,2,0,P|416:206|391:251,1,107.999996704102,8|0,0:0|0:0,0:0:0:0:
216,167,99915,5,0,0:0:0:0:
248,358,100077,1,0,0:0:0:0:
84,312,100240,2,0,B|37:281|37:281|22:223,1,107.999996704102,8|0,0:0|0:0,0:0:0:0:
17,182,100483,1,0,0:0:0:0:
17,182,100564,1,0,0:0:0:0:
115,35,100726,1,0,0:0:0:0:
256,156,100888,2,0,P|329:166|371:137,1,107.999996704102,8|0,0:0|0:0,0:0:0:0:
399,121,101131,5,0,0:0:0:0:
399,121,101212,1,0,0:0:0:0:
92,182,101375,1,0,0:0:0:0:
352,255,101537,1,8,0:0:0:0:
189,50,101699,1,0,0:0:0:0:
216,329,101861,1,0,0:0:0:0:
291,84,102023,1,0,0:0:0:0:
107,236,102185,1,8,0:0:0:0:
435,186,102348,5,0,0:0:0:0:
435,186,102429,1,0,0:0:0:0:
435,186,102510,2,0,P|438:258|407:292,1,107.999996704102
51,121,102834,2,0,P|103:89|155:94,1,107.999996704102,8|0,0:0|0:0,0:0:0:0:
334,367,103158,2,0,L|357:306,1,53.9999983520508
146,216,103321,2,0,L|118:276,1,53.9999983520508
423,229,103483,1,8,0:0:0:0:
157,340,103645,1,0,0:0:0:0:
250,93,103807,6,0,P|181:55|127:64,1,107.999996704102,2|0,0:0|0:0,0:0:0:0:
336,250,104131,2,0,P|412:271|471:239,1,107.999996704102,8|0,0:0|0:0,0:0:0:0:
28,224,104456,1,2,0:0:0:0:
472,160,104780,1,2,0:0:0:0:
55,140,105104,5,0,0:0:0:0:
161,18,105267,1,0,0:0:0:0:
154,226,105429,2,0,P|178:282|231:314,1,107.999996704102,8|0,0:0|0:0,0:0:0:0:
267,322,105672,1,0,0:0:0:0:
267,322,105753,1,0,0:0:0:0:
493,199,105915,1,0,0:0:0:0:
274,112,106077,2,0,L|215:102,1,53.9999983520508,8|0,0:0|0:0,0:0:0:0:
319,46,106240,2,0,L|387:54,1,53.9999983520508
151,60,106402,5,0,0:0:0:0:
23,238,106564,1,0,0:0:0:0:
240,207,106726,2,0,B|266:258|266:258|231:310,1,107.999996704102,8|0,0:0|0:0,0:0:0:0:
201,343,106969,1,0,0:0:0:0:
201,343,107050,1,0,0:0:0:0:
458,265,107212,1,0,0:0:0:0:
120,140,107375,2,0,L|176:177,1,53.9999983520508,8|0,0:0|0:0,0:0:0:0:
192,234,107537,2,0,L|131:192,1,53.9999983520508
349,161,107699,6,0,P|393:116|389:64,1,107.999996704102
69,19,108023,2,0,P|68:81|97:139,1,107.999996704102,8|0,0:0|0:0,0:0:0:0:
394,303,108348,2,0,P|357:345|290:367,1,107.999996704102
131,273,108672,1,8,0:0:0:0:
361,91,108834,1,0,0:0:0:0:
186,45,108996,5,2,0:0:0:0:
153,56,109077,1,0,0:0:0:0:
125,78,109158,1,0,0:0:0:0:
109,106,109240,1,0,0:0:0:0:
103,142,109321,2,0,L|208:190,1,107.999996704102,8|0,0:0|0:0,0:0:0:0:
325,334,109645,1,2,0:0:0:0:
355,320,109726,1,0,0:0:0:0:
385,306,109807,1,0,0:0:0:0:
417,291,109888,1,0,0:0:0:0:
444,281,109969,2,0,P|452:221|418:149,1,107.999996704102,8|0,0:0|0:0,0:0:0:0:
185,45,110294,5,0,0:0:0:0:
57,162,110456,1,0,0:0:0:0:
240,200,110618,2,0,P|240:269|204:296,1,107.999996704102,8|0,0:0|0:0,0:0:0:0:
167,317,110861,1,0,0:0:0:0:
167,317,110942,1,0,0:0:0:0:
484,124,111104,1,0,0:0:0:0:
400,358,111267,2,0,B|361:318|361:318|368:253,1,107.999996704102,8|0,0:0|0:0,0:0:0:0:
372,223,111510,5,0,0:0:0:0:
372,223,111591,1,0,0:0:0:0:
184,29,111753,1,0,0:0:0:0:
485,75,111915,2,0,B|435:52|435:52|373:89,1,107.999996704102,8|0,0:0|0:0,0:0:0:0:
351,107,112158,1,0,0:0:0:0:
351,107,112240,1,0,0:0:0:0:
234,363,112402,1,0,0:0:0:0:
65,226,112564,2,0,P|58:171|106:127,1,107.999996704102,8|0,0:0|0:0,0:0:0:0:
133,114,112807,5,0,0:0:0:0:
133,114,112888,1,2,0:0:0:0:
133,114,112969,1,0,0:0:0:0:
415,223,113212,1,2,0:0:0:0:
415,223,113294,1,0,0:0:0:0:
286,48,113537,1,2,0:0:0:0:
286,48,113618,1,0,0:0:0:0:
171,349,113861,1,2,0:0:0:0:
171,349,113942,1,0,0:0:0:0:
396,104,114185,5,4,0:0:0:0:
95,204,114348,1,4,0:0:0:0:
359,269,114510,1,4,0:0:0:0:
170,76,114672,1,4,0:0:0:0:
245,331,114834,1,4,0:0:0:0:
335,41,114996,1,4,0:0:0:0:
91,274,115158,1,4,0:0:0:0:
405,173,115321,1,4,0:0:0:0:
158,147,115483,1,4,0:0:0:0:
