osu file format v14

[General]
AudioFilename: audio.mp3
AudioLeadIn: 0
PreviewTime: 93429
Countdown: 0
SampleSet: Normal
StackLeniency: 0.7
Mode: 0
LetterboxInBreaks: 1
WidescreenStoryboard: 1

[Editor]
DistanceSpacing: 1
BeatDivisor: 4
GridSize: 8
TimelineZoom: 1.6

[Metadata]
Title:GOODTEK (shadow_bling remix)
TitleUnicode:GOODTEK (shadow_bling remix)
Artist:EBIMAYO
ArtistUnicode:EBIMAYO
Creator:Xenodia
Version:GREATTEK
Source:
Tags:hardcore remix synthesizer
BeatmapID:3846866
BeatmapSetID:1869704

[Difficulty]
HPDrainRate:3
CircleSize:3.6
OverallDifficulty:6
ApproachRate:8
SliderMultiplier:1.3
SliderTickRate:1

[Events]
//Background and Video events
0,0,"GOODTEK BLUE.png",0,0
//Break Periods
//Storyboard Layer 0 (Background)
//Storyboard Layer 1 (Fail)
//Storyboard Layer 2 (Pass)
//Storyboard Layer 3 (Foreground)
//Storyboard Layer 4 (Overlay)
//Storyboard Sound Samples

[TimingPoints]
1321.09463394235,324.324324324324,4,1,0,100,1,0
11699,-100,4,1,0,100,0,0
20780,-200,4,1,0,100,0,0
22077,-83.3333333333333,4,1,0,100,0,0
41537,-200,4,1,0,100,0,0
42834,-100,4,1,0,80,0,0
63591,-83.3333333333333,4,1,0,100,0,0
72672,-200,4,1,0,100,0,0
73969,-66.6666666666667,4,1,0,100,0,0
83050,-200,4,1,0,100,0,0
84348,-66.6666666666667,4,1,0,100,0,0
93429,-200,4,1,0,100,0,0
94726,-83.3333333333333,4,1,0,100,0,1
112888,-100,4,1,0,100,0,1
115483,-100,4,1,0,100,0,0

[Colours]
Combo1 : 109,102,255
Combo2 : 255,89,89
Combo3 : 250,255,45
Combo4 : 89,255,102

[HitObjects]
330,148,1321,6,0,P|354:194|345:224,6,65
226,106,2456,6,0,P|191:101|147:118,8,65
201,199,3915,6,0,L|167:261,7,65
280,255,5212,6,0,L|270:328,7,65
369,190,6510,6,0,P|408:170|425:142,6,65
355,73,7645,6,0,P|309:52|278:61,8,65
206,108,9104,6,0,L|232:176,7,65
120,157,10402,6,0,L|124:232,7,65
213,285,11699,5,8,0:0:0:0:
257,305,11861,1,8,0:0:0:0:
307,305,12023,1,8,0:0:0:0:
352,287,12185,1,8,0:0:0:0:
384,248,12348,1,8,0:0:0:0:
397,199,12510,1,8,0:0:0:0:
391,149,12672,1,8,0:0:0:0:
359,113,12834,6,8,L|293:66,8,65
317,185,14294,5,8,0:0:0:0:
282,219,14456,1,8,0:0:0:0:
245,252,14618,1,8,0:0:0:0:
211,284,14780,1,8,0:0:0:0:
166,296,14942,1,8,0:0:0:0:
118,285,15104,1,8,0:0:0:0:
87,246,15267,1,8,0:0:0:0:
75,198,15429,1,8,0:0:0:0:
82,152,15591,6,8,L|102:73,7,65
186,77,16888,5,8,0:0:0:0:
232,98,17050,1,8,0:0:0:0:
275,117,17212,1,8,0:0:0:0:
321,136,17375,1,8,0:0:0:0:
360,120,17537,1,8,0:0:0:0:
370,168,17699,1,8,0:0:0:0:
414,139,17861,1,8,0:0:0:0:
424,189,18023,1,8,0:0:0:0:
403,269,18185,6,8,L|328:304,7,65
278,239,19483,6,8,L|251:198,3,32.5
206,230,19807,2,8,L|205:191,3,32.5
152,200,20131,2,8,L|168:167,3,32.5
120,136,20456,2,8,L|152:115,3,32.5
127,71,20780,6,0,B|180:32|180:32|208:17|241:9|263:12|287:33|294:68,1,195,4|0,0:0|0:0,0:0:0:0:
234,146,22077,6,0,P|197:192|145:200,2,77.999997619629,0|0|8,0:0|0:0|0:0,0:0:0:0:
353,96,22564,1,0,0:0:0:0:
353,96,22645,1,0,0:0:0:0:
353,96,22726,1,0,0:0:0:0:
404,204,22888,2,0,B|417:246|417:246|375:288,1,77.999997619629,0|8,0:0|0:0,0:0:0:0:
248,300,23375,6,0,P|251:340|282:373,2,77.999997619629,0|0|8,0:0|0:0|0:0,0:0:0:0:
248,173,23861,1,0,0:0:0:0:
248,173,23942,1,0,0:0:0:0:
248,173,24023,1,0,0:0:0:0:
145,221,24185,2,0,P|98:216|76:177,1,77.999997619629,0|8,0:0|0:0,0:0:0:0:
152,84,24672,6,0,P|150:38|191:17,2,77.999997619629,0|0|8,0:0|0:0|0:0,0:0:0:0:
259,122,25158,1,0,0:0:0:0:
259,122,25240,1,0,0:0:0:0:
259,122,25321,1,0,0:0:0:0:
308,5,25483,2,0,P|344:28|347:0,1,77.999997619629,0|8,0:0|0:0,0:0:0:0:
417,137,25969,6,0,L|496:175,2,77.999997619629,0|0|8,0:0|0:0|0:0,0:0:0:0:
348,217,26456,1,0,0:0:0:0:
348,217,26537,1,0,0:0:0:0:
348,217,26618,1,0,0:0:0:0:
254,285,26780,2,0,B|240:324|240:324|208:289,2,77.999997619629,0|8|0,0:0|0:0|0:0,0:0:0:0:
132,237,27267,6,0,P|92:200|83:162,2,77.999997619629,0|0|8,0:0|0:0|0:0,0:0:0:0:
129,72,27753,1,0,0:0:0:0:
129,72,27834,1,0,0:0:0:0:
129,72,27915,1,0,0:0:0:0:
210,160,28077,2,0,P|218:118|251:135,1,77.999997619629,0|8,0:0|0:0,0:0:0:0:
346,67,28564,6,0,L|422:45,2,77.999997619629,0|0|8,0:0|0:0|0:0,0:0:0:0:
320,182,29050,1,0,0:0:0:0:
320,182,29131,1,0,0:0:0:0:
320,182,29212,1,0,0:0:0:0:
426,155,29375,2,0,P|459:208|450:248,1,77.999997619629,0|8,0:0|0:0,0:0:0:0:
334,285,29861,6,0,B|324:327|324:327|362:361,2,77.999997619629,0|0|8,0:0|0:0|0:0,0:0:0:0:
237,212,30348,1,0,0:0:0:0:
237,212,30429,1,0,0:0:0:0:
237,212,30510,1,0,0:0:0:0:
127,293,30672,2,0,P|80:274|59:224,1,77.999997619629,0|8,0:0|0:0,0:0:0:0:
113,173,31158,5,2,0:0:0:0:
165,77,31321,1,2,0:0:0:0:
237,151,31483,1,2,0:0:0:0:
231,249,31645,1,2,0:0:0:0:
330,293,31807,1,2,0:0:0:0:
387,196,31969,1,2,0:0:0:0:
352,100,32131,1,2,0:0:0:0:
216,152,32456,6,0,B|182:176|182:176|128:173,2,77.999997619629,0|0|8,0:0|0:0|0:0,0:0:0:0:
196,53,32942,1,0,0:0:0:0:
196,53,33023,1,0,0:0:0:0:
196,53,33104,1,0,0:0:0:0:
307,17,33267,2,0,P|346:53|333:90,1,77.999997619629,0|8,0:0|0:0,0:0:0:0:
386,157,33753,6,0,L|491:136,2,77.999997619629,0|0|8,0:0|0:0|0:0,0:0:0:0:
263,197,34240,1,0,0:0:0:0:
263,197,34321,1,0,0:0:0:0:
263,197,34402,1,0,0:0:0:0:
190,105,34564,2,0,B|168:72|168:72|145:115,1,77.999997619629,0|8,0:0|0:0,0:0:0:0:
74,171,35050,6,0,P|24:204|27:248,2,77.999997619629,0|0|8,0:0|0:0|0:0,0:0:0:0:
192,223,35537,1,0,0:0:0:0:
192,223,35618,1,0,0:0:0:0:
192,223,35699,1,0,0:0:0:0:
148,301,35861,2,0,B|155:342|155:342|207:377,1,77.999997619629,0|8,0:0|0:0,0:0:0:0:
322,305,36348,6,0,L|410:296,2,77.999997619629,0|0|8,0:0|0:0|0:0,0:0:0:0:
415,201,36834,1,0,0:0:0:0:
415,201,36915,1,0,0:0:0:0:
415,201,36996,1,0,0:0:0:0:
334,132,37158,2,0,B|328:93|328:93|363:116,2,77.999997619629,0|8|0,0:0|0:0|0:0,0:0:0:0:
268,220,37645,6,0,P|237:254|194:255,2,77.999997619629,0|0|8,0:0|0:0|0:0,0:0:0:0:
221,125,38131,1,0,0:0:0:0:
221,125,38212,1,0,0:0:0:0:
221,125,38294,1,0,0:0:0:0:
300,56,38456,2,0,P|346:41|399:64,1,77.999997619629,0|8,0:0|0:0,0:0:0:0:
422,209,38942,6,0,B|451:176|451:176|494:171,2,77.999997619629,0|0|8,0:0|0:0|0:0,0:0:0:0:
363,298,39429,1,0,0:0:0:0:
363,298,39510,1,0,0:0:0:0:
363,298,39591,1,0,0:0:0:0:
223,237,39753,2,0,P|189:256|184:228,1,77.999997619629,0|8,0:0|0:0,0:0:0:0:
133,359,40240,6,0,P|118:322|72:316,2,77.999997619629,0|0|8,0:0|0:0|0:0,0:0:0:0:
238,319,40726,1,0,0:0:0:0:
238,319,40807,1,0,0:0:0:0:
238,319,40888,1,0,0:0:0:0:
149,215,41050,2,0,B|134:178|134:178|166:143,1,77.999997619629,0|8,0:0|0:0,0:0:0:0:
296,87,41537,6,0,B|340:140|308:184|324:220|362:235|400:211,1,195,4|0,0:0|0:0,0:0:0:0:
212,145,42834,6,0,B|81:128|81:128|52:186|52:186|100:233,1,260,8|0,0:0|0:0,0:0:0:0:
190,285,43807,1,0,0:0:0:0:
316,216,43969,6,0,P|367:167|365:90,1,130,8|0,0:0|0:0,0:0:0:0:
337,282,44456,2,0,P|380:258|401:230,1,65,8|0,0:0|0:0,0:0:0:0:
319,343,44780,2,0,P|371:342|408:322,1,65,8|0,0:0|0:0,0:0:0:0:
228,206,45104,1,0,0:0:0:0:
139,302,45267,6,0,P|60:243|86:138,1,195,8|0,0:0|0:0,0:0:0:0:
175,51,45915,1,0,0:0:0:0:
234,122,46077,1,0,0:0:0:0:
313,73,46240,1,0,0:0:0:0:
379,151,46402,1,0,0:0:0:0:
361,243,46564,6,0,P|318:316|203:325,1,195,8|0,0:0|0:0,0:0:0:0:
88,289,47375,2,0,P|99:233|126:214,1,65,8|0,0:0|0:0,0:0:0:0:
185,167,47699,2,0,P|180:221|157:248,1,65
286,270,48023,6,0,B|416:247|416:247|386:203|391:162|438:135,1,260,8|0,0:0|0:0,0:0:0:0:
313,42,48996,1,0,0:0:0:0:
206,21,49158,6,0,P|185:81|214:144,1,130,8|0,0:0|0:0,0:0:0:0:
122,77,49644,2,0,P|125:134|145:160,1,65,8|0,0:0|0:0,0:0:0:0:
60,138,49969,2,0,P|73:178|101:206,1,65,8|0,0:0|0:0,0:0:0:0:
199,216,50294,1,0,0:0:0:0:
153,314,50456,6,0,B|202:358|202:358|330:315,1,195,8|0,0:0|0:0,0:0:0:0:
439,278,51104,1,0,0:0:0:0:
380,204,51267,1,0,0:0:0:0:
408,115,51429,1,0,0:0:0:0:
344,41,51591,1,0,0:0:0:0:
262,96,51753,6,0,P|175:92|132:184,1,195,8|0,0:0|0:0,0:0:0:0:
160,271,52402,1,0,0:0:0:0:
240,339,52564,2,0,B|267:363|267:363|359:320,1,130,8|0,0:0|0:0,0:0:0:0:
395,231,53050,1,0,0:0:0:0:
362,125,53212,6,0,P|345:89|303:70,1,65
231,29,53537,2,0,P|237:77|270:103,1,65,2|0,0:0|0:0,0:0:0:0:
154,143,53861,2,0,P|184:183|219:193,1,65
269,232,54185,1,2,0:0:0:0:
302,306,54348,1,0,0:0:0:0:
384,323,54510,6,0,L|471:301,1,65
403,230,54834,2,0,L|477:206,1,65,2|0,0:0|0:0,0:0:0:0:
401,140,55158,2,0,L|466:108,1,65
338,75,55483,1,2,0:0:0:0:
247,114,55645,1,0,0:0:0:0:
166,66,55807,6,0,P|124:70|97:97,1,65
75,163,56131,1,2,0:0:0:0:
75,163,56294,1,0,0:0:0:0:
94,245,56456,2,0,P|149:258|174:241,1,65
218,191,56780,1,2,0:0:0:0:
218,191,56942,1,0,0:0:0:0:
313,226,57104,6,0,P|343:183|353:273,1,195,4|0,0:0|0:0,0:0:0:0:
214,296,57753,2,0,B|185:355|185:355|119:364|119:364|151:292,1,195,4|0,0:0|0:0,0:0:0:0:
163,190,58402,6,0,P|137:161|91:160,1,65
30,150,58726,1,2,0:0:0:0:
66,68,58888,1,0,0:0:0:0:
155,36,59050,2,0,L|212:-2,1,65
295,37,59374,2,0,L|224:84,1,65,2|0,0:0|0:0,0:0:0:0:
207,160,59699,5,0,0:0:0:0:
207,160,59861,1,0,0:0:0:0:
151,237,60023,2,0,L|217:297,1,65,2|0,0:0|0:0,0:0:0:0:
378,317,60348,1,0,0:0:0:0:
378,317,60510,1,0,0:0:0:0:
437,234,60672,2,0,L|370:176,1,65,2|0,0:0|0:0,0:0:0:0:
277,121,60996,6,2,B|224:111|193:178|135:144,3,130
97,216,62294,5,2,0:0:0:0:
147,120,62456,1,2,0:0:0:0:
208,274,62618,1,2,0:0:0:0:
249,157,62780,1,2,0:0:0:0:
325,225,62942,2,0,P|405:206|367:117,1,195,4|0,0:0|0:0,0:0:0:0:
260,62,63591,6,0,P|218:66|174:85,1,77.999997619629
69,151,63915,2,0,P|116:183|157:182,1,77.999997619629,8|0,0:0|0:0,0:0:0:0:
245,248,64240,2,0,P|234:294|198:319,1,77.999997619629
337,359,64564,1,8,0:0:0:0:
420,322,64726,1,0,0:0:0:0:
440,236,64888,6,0,P|432:190|470:156,1,77.999997619629
401,82,65212,2,0,P|357:68|322:85,1,77.999997619629,8|0,0:0|0:0,0:0:0:0:
223,146,65537,2,0,P|265:172|309:159,1,77.999997619629
212,271,65861,1,8,0:0:0:0:
129,296,66023,1,0,0:0:0:0:
72,200,66185,6,0,B|57:163|57:163|78:119,1,77.999997619629
155,40,66510,2,0,B|192:56|192:56|218:108,1,77.999997619629,8|0,0:0|0:0,0:0:0:0:
296,216,66834,2,0,B|333:200|333:200|344:147,1,77.999997619629
386,77,67158,1,8,0:0:0:0:
467,110,67321,1,0,0:0:0:0:
464,201,67483,6,0,B|453:239|453:239|484:273,1,77.999997619629
373,325,67807,2,0,B|335:320|335:320|298:355,1,77.999997619629,8|0,0:0|0:0,0:0:0:0:
224,273,68131,2,0,B|192:252|192:252|189:200,1,77.999997619629
105,145,68456,1,8,0:0:0:0:
134,53,68618,1,0,0:0:0:0:
233,21,68780,6,0,P|284:45|303:82,1,77.999997619629,8|0,0:0|0:0,0:0:0:0:
229,243,69104,2,0,P|216:194|235:173,1,77.999997619629,8|0,0:0|0:0,0:0:0:0:
431,130,69429,2,0,P|408:167|375:176,1,77.999997619629,8|0,0:0|0:0,0:0:0:0:
132,133,69753,2,0,P|169:118|213:137,1,77.999997619629,8|0,0:0|0:0,0:0:0:0:
246,337,70077,6,0,P|245:296|218:269,1,77.999997619629,8|0,0:0|0:0,0:0:0:0:
316,90,70402,2,0,P|299:132|268:148,1,77.999997619629,8|0,0:0|0:0,0:0:0:0:
99,160,70726,2,0,P|131:189|170:178,1,77.999997619629,8|0,0:0|0:0,0:0:0:0:
350,269,71050,2,0,P|314:243|276:255,1,77.999997619629,8|0,0:0|0:0,0:0:0:0:
187,119,71375,6,8,L|208:164,3,38.9999988098145
247,79,71699,2,8,L|249:127,3,38.9999988098145
310,59,72023,2,8,L|304:108,3,38.9999988098145
373,53,72348,2,8,L|360:93,3,38.9999988098145
420,101,72672,6,0,B|369:222|369:222|333:217|307:251,1,195,4|0,0:0|0:0,0:0:0:0:
221,167,73969,6,0,P|167:154|119:179,1,97.50000371933,4|0,0:0|0:0,0:0:0:0:
92,267,74294,1,4,0:0:0:0:
92,267,74375,1,0,0:0:0:0:
92,267,74456,1,0,0:0:0:0:
170,343,74618,2,0,B|213:370|213:370|218:317,1,97.50000371933,4|0,0:0|0:0,0:0:0:0:
309,342,74942,2,0,B|336:233,1,97.50000371933,4|0,0:0|0:0,0:0:0:0:
264,179,75267,6,0,B|216:186|216:186|166:154,1,97.50000371933,4|0,0:0|0:0,0:0:0:0:
65,103,75591,1,4,0:0:0:0:
65,103,75672,1,0,0:0:0:0:
65,103,75753,1,0,0:0:0:0:
177,15,75915,2,0,P|180:68|209:49,1,97.50000371933,4|0,0:0|0:0,0:0:0:0:
287,98,76240,1,4,0:0:0:0:
383,86,76402,1,0,0:0:0:0:
443,170,76564,6,0,B|461:216|461:216|431:260,1,97.50000371933,4|0,0:0|0:0,0:0:0:0:
352,316,76888,1,4,0:0:0:0:
352,316,76969,1,0,0:0:0:0:
352,316,77050,1,0,0:0:0:0:
243,276,77212,2,0,P|214:322|209:380,1,97.50000371933,4|0,0:0|0:0,0:0:0:0:
160,220,77537,2,0,P|128:259|115:312,1,97.50000371933,4|0,0:0|0:0,0:0:0:0:
76,157,77861,6,0,B|66:109|66:109|133:77,1,97.50000371933,4|0,0:0|0:0,0:0:0:0:
206,65,78185,1,4,0:0:0:0:
206,65,78267,1,0,0:0:0:0:
206,65,78348,1,0,0:0:0:0:
298,101,78510,2,0,P|325:146|305:207,1,97.50000371933,4|0,0:0|0:0,0:0:0:0:
160,285,78834,2,0,P|220:306|263:283,1,97.50000371933,4|0,0:0|0:0,0:0:0:0:
170,187,79158,6,0,B|151:141|151:141|183:95,1,97.50000371933,4|0,0:0|0:0,0:0:0:0:
240,31,79483,1,4,0:0:0:0:
240,31,79564,1,0,0:0:0:0:
240,31,79645,1,0,0:0:0:0:
328,77,79807,2,0,P|375:111|419:105,1,97.50000371933,4|0,0:0|0:0,0:0:0:0:
488,174,80131,2,0,L|426:264,1,97.50000371933,4|0,0:0|0:0,0:0:0:0:
341,323,80456,6,0,P|282:283|272:243,1,97.50000371933,4|0,0:0|0:0,0:0:0:0:
270,173,80780,1,4,0:0:0:0:
270,173,80861,1,0,0:0:0:0:
270,173,80942,1,0,0:0:0:0:
197,85,81104,2,0,B|148:71|148:71|94:92,1,97.50000371933,4|0,0:0|0:0,0:0:0:0:
19,139,81429,1,4,0:0:0:0:
48,231,81591,1,0,0:0:0:0:
150,240,81753,6,0,P|204:232|224:197,1,97.50000371933,4|0,0:0|0:0,0:0:0:0:
243,103,82077,1,4,0:0:0:0:
243,103,82158,1,0,0:0:0:0:
243,103,82240,1,0,0:0:0:0:
341,141,82402,2,0,L|444:149,1,97.50000371933,4|0,0:0|0:0,0:0:0:0:
385,247,82726,2,0,L|284:238,1,97.50000371933,4|0,0:0|0:0,0:0:0:0:
221,323,83050,6,0,B|164:296|164:296|180:264|164:216|112:212|86:245,1,195,4|0,0:0|0:0,0:0:0:0:
55,154,84348,6,0,P|35:90|69:61,1,97.50000371933,4|0,0:0|0:0,0:0:0:0:
143,24,84672,1,4,0:0:0:0:
143,24,84753,1,0,0:0:0:0:
143,24,84834,1,0,0:0:0:0:
272,53,84996,2,0,B|273:101|273:101|235:140,1,97.50000371933,4|0,0:0|0:0,0:0:0:0:
138,193,85321,2,0,P|155:243|219:266,1,97.50000371933,4|0,0:0|0:0,0:0:0:0:
278,344,85645,6,0,P|333:322|353:280,1,97.50000371933,4|0,0:0|0:0,0:0:0:0:
400,186,85969,1,4,0:0:0:0:
400,186,86050,1,0,0:0:0:0:
400,186,86131,1,0,0:0:0:0:
309,84,86294,1,4,0:0:0:0:
234,41,86456,1,0,0:0:0:0:
199,134,86618,1,4,0:0:0:0:
116,96,86780,1,0,0:0:0:0:
44,164,86942,6,0,P|25:224|64:268,1,97.50000371933,4|0,0:0|0:0,0:0:0:0:
146,274,87267,1,4,0:0:0:0:
146,274,87348,1,0,0:0:0:0:
146,274,87429,1,0,0:0:0:0:
275,261,87591,2,0,B|291:306|291:306|259:356,1,97.50000371933,4|0,0:0|0:0,0:0:0:0:
225,173,87915,2,0,L|276:84,1,97.50000371933,4|0,0:0|0:0,0:0:0:0:
338,13,88240,6,0,P|389:22|428:71,1,97.50000371933,4|0,0:0|0:0,0:0:0:0:
437,150,88564,1,4,0:0:0:0:
437,150,88645,1,0,0:0:0:0:
437,150,88726,1,0,0:0:0:0:
271,123,88888,1,4,0:0:0:0:
198,157,89050,1,0,0:0:0:0:
196,234,89212,1,4,0:0:0:0:
263,274,89375,1,0,0:0:0:0:
350,215,89537,6,0,P|400:173|457:200,1,97.50000371933,4|0,0:0|0:0,0:0:0:0:
487,264,89861,1,4,0:0:0:0:
487,264,89942,1,0,0:0:0:0:
487,264,90023,1,0,0:0:0:0:
437,123,90185,2,0,L|394:29,1,97.50000371933,4|0,0:0|0:0,0:0:0:0:
321,123,90510,2,0,L|241:40,1,97.50000371933,4|0,0:0|0:0,0:0:0:0:
133,29,90834,6,0,P|74:56|47:108,1,97.50000371933,4|0,0:0|0:0,0:0:0:0:
64,179,91158,1,4,0:0:0:0:
64,179,91240,1,0,0:0:0:0:
64,179,91321,1,0,0:0:0:0:
170,141,91483,1,4,0:0:0:0:
256,175,91645,1,0,0:0:0:0:
194,261,91807,1,4,0:0:0:0:
264,318,91969,1,0,0:0:0:0:
363,288,92131,6,8,L|410:256,3,48.750001859665
448,194,92456,2,8,L|391:236,3,48.750001859665
328,218,92780,2,8,L|389:181,3,48.750001859665
413,124,93104,2,8,L|355:165,3,48.750001859665
304,135,93429,6,0,P|296:76|192:110,1,195,4|0,0:0|0:0,0:0:0:0:
160,194,94726,6,0,P|188:228|233:248,1,77.999997619629
137,97,95050,2,0,P|88:105|60:133,1,77.999997619629,8|0,0:0|0:0,0:0:0:0:
264,104,95375,2,0,P|321:97|347:58,1,77.999997619629
433,106,95699,1,8,0:0:0:0:
429,181,95861,1,0,0:0:0:0:
362,218,96023,6,0,P|308:241|278:235,1,77.999997619629
364,319,96348,2,0,P|419:322|450:298,1,77.999997619629,8|0,0:0|0:0,0:0:0:0:
234,368,96672,2,0,P|197:318|199:267,1,77.999997619629
150,224,96996,1,8,0:0:0:0:
69,238,97158,1,0,0:0:0:0:
24,166,97321,6,0,B|29:126|29:126|61:76,1,77.999997619629
170,18,97645,2,0,B|184:60|184:60|159:97,1,77.999997619629,8|0,0:0|0:0,0:0:0:0:
248,145,97969,2,0,B|289:154|289:154|353:130,1,77.999997619629
418,141,98294,1,8,0:0:0:0:
449,208,98456,1,0,0:0:0:0:
416,277,98618,6,0,L|336:325,1,77.999997619629
203,320,98942,2,0,L|273:248,1,77.999997619629,8|0,0:0|0:0,0:0:0:0:
309,99,99267,2,0,L|327:188,1,77.999997619629
175,230,99591,2,0,L|193:149,1,77.999997619629,8|0,0:0|0:0,0:0:0:0:
219,71,99915,6,0,P|234:35|295:22,1,77.999997619629
356,57,100240,2,0,P|373:97|358:144,1,77.999997619629,8|0,0:0|0:0,0:0:0:0:
234,156,100564,2,0,P|170:171|159:201,1,77.999997619629
133,282,100888,1,8,0:0:0:0:
181,343,101050,1,0,0:0:0:0:
259,364,101212,6,0,L|336:334,1,77.999997619629
461,260,101537,2,0,L|352:238,1,77.999997619629,8|0,0:0|0:0,0:0:0:0:
303,116,101861,2,0,L|324:216,1,77.999997619629
227,226,102185,1,8,0:0:0:0:
150,216,102348,1,0,0:0:0:0:
74,207,102510,6,0,B|67:161|67:161|100:116,1,77.999997619629
174,66,102834,2,0,B|214:69|214:69|244:109,1,77.999997619629,8|0,0:0|0:0,0:0:0:0:
234,287,103158,2,0,B|195:264|195:264|186:221,1,77.999997619629
301,145,103483,1,8,0:0:0:0:
378,116,103645,1,0,0:0:0:0:
448,158,103807,6,0,P|472:194|464:242,1,77.999997619629,2|0,0:0|0:0,0:0:0:0:
359,274,104131,2,0,P|374:325|418:343,1,77.999997619629,2|0,0:0|0:0,0:0:0:0:
231,214,104456,2,0,L|150:210,1,77.999997619629,2|0,0:0|0:0,0:0:0:0:
164,317,104780,2,0,L|256:318,1,77.999997619629,2|0,0:0|0:0,0:0:0:0:
339,271,105104,6,0,B|371:247|371:247|363:298,1,77.999997619629
468,168,105429,2,0,B|468:209|468:209|426:168,1,77.999997619629,8|0,0:0|0:0,0:0:0:0:
337,85,105753,2,0,B|377:72|377:72|353:123,1,77.999997619629
240,163,106077,1,8,0:0:0:0:
240,163,106158,1,0,0:0:0:0:
240,163,106240,1,0,0:0:0:0:
170,74,106402,6,0,P|121:61|76:70,1,77.999997619629
15,143,106726,2,0,P|35:182|69:184,1,77.999997619629,8|0,0:0|0:0,0:0:0:0:
101,288,107050,2,0,P|132:259|138:221,1,77.999997619629
238,183,107375,1,8,0:0:0:0:
238,183,107456,1,0,0:0:0:0:
238,183,107537,1,0,0:0:0:0:
321,251,107699,6,0,B|333:291|333:291|306:328,1,77.999997619629
416,327,108023,2,0,B|450:350|450:350|502:348,1,77.999997619629,8|0,0:0|0:0,0:0:0:0:
475,237,108348,2,0,B|478:198|478:198|450:154,1,77.999997619629
375,108,108672,1,8,0:0:0:0:
375,108,108753,1,0,0:0:0:0:
375,108,108834,1,0,0:0:0:0:
238,78,108996,6,0,P|259:43|314:25,1,77.999997619629
331,197,109321,2,0,P|291:195|258:163,1,77.999997619629,8|0,0:0|0:0,0:0:0:0:
156,92,109645,2,0,P|120:114|103:162,1,77.999997619629
164,204,109969,2,0,P|156:248|173:299,1,77.999997619629,8|0,0:0|0:0,0:0:0:0:
255,285,110294,6,0,L|333:267,1,77.999997619629,0|0,0:0|0:0,0:0:0:0:
474,356,110618,2,0,L|373:329,1,77.999997619629,8|0,0:0|0:0,0:0:0:0:
440,248,110942,2,0,L|485:174,1,77.999997619629,0|0,0:0|0:0,0:0:0:0:
387,120,111267,1,8,0:0:0:0:
387,120,111348,1,0,0:0:0:0:
387,120,111429,1,0,0:0:0:0:
294,65,111591,6,0,P|257:41|204:50,1,77.999997619629,0|0,0:0|0:0,0:0:0:0:
267,188,111915,2,0,P|304:220|349:222,1,77.999997619629,8|0,0:0|0:0,0:0:0:0:
170,97,112240,2,0,P|122:123|108:151,1,77.999997619629,0|0,0:0|0:0,0:0:0:0:
69,226,112564,1,8,0:0:0:0:
69,226,112645,1,0,0:0:0:0:
69,226,112726,1,0,0:0:0:0:
175,306,112888,6,0,P|202:339|181:346,1,65,2|0,0:0|0:0,0:0:0:0:
248,156,113212,2,0,P|231:184|266:191,1,65,2|0,0:0|0:0,0:0:0:0:
353,303,113537,2,0,P|355:268|382:289,1,65,2|0,0:0|0:0,0:0:0:0:
419,125,113861,2,0,P|408:160|388:151,1,65,2|0,0:0|0:0,0:0:0:0:
297,55,114185,5,2,0:0:0:0:
218,32,114348,1,2,0:0:0:0:
147,64,114510,1,2,0:0:0:0:
142,145,114672,1,2,0:0:0:0:
157,223,114834,2,2,P|197:248|234:227,1,65
289,166,115158,2,2,P|331:175|335:215,1,65
347,282,115483,1,2,0:0:0:0:
