osu file format v14

[General]
AudioFilename: audio.mp3
AudioLeadIn: 0
PreviewTime: 90990
Countdown: 1
SampleSet: Soft
StackLeniency: 0.2
Mode: 0
LetterboxInBreaks: 0
WidescreenStoryboard: 0

[Editor]
Bookmarks: 1148,1306,2569,5095,6200,6358,7621,10148,16464,18990,20253,22621,27674,29095,30358,30990,35095,36674,37937,39200,40464,50569,60674,65727,66674,67306,67937,68885,69516,79621,85306,89727,101095,106148,108674,110569,116253,120043
DistanceSpacing: 1.5
BeatDivisor: 8
GridSize: 4
TimelineZoom: 5.399997

[Metadata]
Title:GOODTEK
TitleUnicode:GOODTEK
Artist:EBIMAYO
ArtistUnicode:EBIMAYO
Creator:Pachiru
Version:RUCHI WARFARE 2018
Source:CHUNITHM
Tags:
BeatmapID:1851182
BeatmapSetID:885713

[Difficulty]
HPDrainRate:7
CircleSize:4.5
OverallDifficulty:10
ApproachRate:9.5
SliderMultiplier:1.8
SliderTickRate:1

[Events]
//Background and Video events
0,0,"akali fangirl.jpg",0,0
//Break Periods
//Storyboard Layer 0 (Background)
//Storyboard Layer 1 (Fail)
//Storyboard Layer 2 (Pass)
//Storyboard Layer 3 (Foreground)
//Storyboard Layer 4 (Overlay)
//Storyboard Sound Samples

[TimingPoints]
43,315.789473684211,4,2,0,100,1,0
22503,-100,4,2,0,5,0,0
22543,-100,4,2,0,100,0,0
22582,-100,4,2,0,5,0,0
22621,-100,4,2,0,100,0,0
22661,-100,4,2,0,5,0,0
22700,-100,4,2,0,100,0,0
22740,-100,4,2,0,5,0,0
22779,-100,4,2,0,100,0,0
29095,-66.6666666666667,4,2,0,100,0,0
30043,-133.333333333333,4,2,0,100,0,0
30358,-100,4,2,0,100,0,0
40464,-250,4,2,0,100,0,0
50569,-100,4,2,0,100,0,0
90990,-100,4,2,0,100,0,1
111200,-100,4,2,0,100,0,0
121306,-1000,4,2,0,100,0,0

[Colours]
Combo1 : 64,0,128
Combo2 : 255,128,192
Combo3 : 255,202,228
Combo4 : 255,0,128

[HitObjects]
15,317,43,5,0,0:0:0:0:
15,317,200,1,0,0:0:0:0:
15,317,358,1,0,0:0:0:0:
15,317,516,1,0,0:0:0:0:
15,317,674,1,0,0:0:0:0:
15,317,832,1,0,0:0:0:0:
15,317,990,1,0,0:0:0:0:
95,317,1148,1,0,0:0:0:0:
14,228,1306,5,0,0:0:0:0:
14,228,1464,1,0,0:0:0:0:
14,228,1621,1,0,0:0:0:0:
14,228,1779,1,0,0:0:0:0:
14,228,1937,1,0,0:0:0:0:
14,228,2095,1,0,0:0:0:0:
14,228,2253,1,0,0:0:0:0:
14,228,2411,1,0,0:0:0:0:
14,146,2569,5,0,0:0:0:0:
14,146,2726,1,0,0:0:0:0:
14,146,2884,1,0,0:0:0:0:
14,146,3042,1,0,0:0:0:0:
14,146,3200,1,0,0:0:0:0:
14,146,3358,1,0,0:0:0:0:
14,146,3516,1,0,0:0:0:0:
14,146,3674,1,0,0:0:0:0:
14,146,3832,1,0,0:0:0:0:
14,146,3990,1,0,0:0:0:0:
14,146,4147,1,0,0:0:0:0:
14,146,4305,1,0,0:0:0:0:
14,146,4463,1,0,0:0:0:0:
14,146,4621,1,0,0:0:0:0:
14,146,4779,1,0,0:0:0:0:
14,146,4937,1,0,0:0:0:0:
13,64,5095,5,0,0:0:0:0:
13,64,5253,1,0,0:0:0:0:
13,64,5411,1,0,0:0:0:0:
13,64,5569,1,0,0:0:0:0:
13,64,5727,1,0,0:0:0:0:
13,64,5885,1,0,0:0:0:0:
13,64,6043,1,0,0:0:0:0:
90,64,6200,1,0,0:0:0:0:
162,174,6358,5,0,0:0:0:0:
162,174,6516,1,0,0:0:0:0:
162,174,6674,1,0,0:0:0:0:
162,174,6832,1,0,0:0:0:0:
162,174,6990,1,0,0:0:0:0:
162,174,7148,1,0,0:0:0:0:
162,174,7306,1,0,0:0:0:0:
162,174,7464,1,0,0:0:0:0:
233,134,7621,5,0,0:0:0:0:
240,150,7699,1,0,0:0:0:0:
244,167,7778,1,0,0:0:0:0:
244,185,7857,1,0,0:0:0:0:
240,203,7936,1,0,0:0:0:0:
232,219,8015,1,0,0:0:0:0:
221,233,8094,1,0,0:0:0:0:
207,244,8173,1,0,0:0:0:0:
191,252,8252,1,0,0:0:0:0:
173,256,8331,1,0,0:0:0:0:
155,256,8410,1,0,0:0:0:0:
138,253,8489,1,0,0:0:0:0:
121,245,8568,1,0,0:0:0:0:
107,234,8647,1,0,0:0:0:0:
96,220,8726,1,0,0:0:0:0:
88,204,8805,1,0,0:0:0:0:
87,187,8885,5,0,0:0:0:0:
113,178,8963,1,0,0:0:0:0:
142,176,9042,1,0,0:0:0:0:
170,182,9121,1,0,0:0:0:0:
198,194,9200,1,0,0:0:0:0:
226,217,9279,1,0,0:0:0:0:
251,243,9358,1,0,0:0:0:0:
274,271,9437,1,0,0:0:0:0:
302,296,9516,1,0,0:0:0:0:
339,312,9595,1,0,0:0:0:0:
379,315,9674,1,0,0:0:0:0:
419,309,9753,1,0,0:0:0:0:
457,285,9832,1,0,0:0:0:0:
481,246,9911,1,0,0:0:0:0:
487,201,9990,1,0,0:0:0:0:
479,156,10069,1,0,0:0:0:0:
450,121,10148,5,0,0:0:0:0:
292,0,10306,1,0,0:0:0:0:
134,141,10464,5,0,0:0:0:0:
292,20,10622,1,0,0:0:0:0:
450,162,10779,5,0,0:0:0:0:
292,41,10937,1,0,0:0:0:0:
134,183,11095,5,0,0:0:0:0:
292,63,11253,1,0,0:0:0:0:
313,67,11332,1,0,0:0:0:0:
334,72,11411,5,0,0:0:0:0:
87,33,11569,1,0,0:0:0:0:
317,153,11727,5,0,0:0:0:0:
70,114,11885,1,0,0:0:0:0:
301,235,12043,5,0,0:0:0:0:
54,196,12201,1,0,0:0:0:0:
289,313,12358,5,0,0:0:0:0:
42,274,12516,1,0,0:0:0:0:
21,269,12595,1,0,0:0:0:0:
0,265,12674,5,0,0:0:0:0:
192,158,12832,1,0,0:0:0:0:
383,285,12990,5,0,0:0:0:0:
191,178,13148,1,0,0:0:0:0:
0,303,13306,5,0,0:0:0:0:
192,196,13464,1,0,0:0:0:0:
384,322,13621,5,0,0:0:0:0:
192,219,13779,1,0,0:0:0:0:
172,207,13858,1,0,0:0:0:0:
154,197,13937,5,0,0:0:0:0:
257,42,14095,1,0,0:0:0:0:
300,266,14253,5,0,0:0:0:0:
197,111,14411,1,0,0:0:0:0:
155,331,14569,5,0,0:0:0:0:
258,176,14727,1,0,0:0:0:0:
298,384,14885,5,0,0:0:0:0:
192,219,15043,1,0,0:0:0:0:
180,197,15122,1,0,0:0:0:0:
170,180,15201,5,0,0:0:0:0:
363,106,15358,5,0,0:0:0:0:
363,106,15437,1,0,0:0:0:0:
363,106,15516,1,0,0:0:0:0:
86,37,15674,5,0,0:0:0:0:
86,37,15753,1,0,0:0:0:0:
86,37,15832,1,0,0:0:0:0:
358,16,15990,5,0,0:0:0:0:
358,16,16069,1,0,0:0:0:0:
358,16,16148,1,0,0:0:0:0:
106,175,16305,5,0,0:0:0:0:
106,175,16384,1,0,0:0:0:0:
106,175,16464,5,0,0:0:0:0:
140,185,16542,1,0,0:0:0:0:
171,204,16621,1,0,0:0:0:0:
195,230,16700,1,0,0:0:0:0:
213,261,16779,1,0,0:0:0:0:
221,296,16858,1,0,0:0:0:0:
221,332,16937,1,0,0:0:0:0:
211,366,17016,1,0,0:0:0:0:
221,332,17095,5,0,0:0:0:0:
243,303,17174,1,0,0:0:0:0:
270,280,17253,1,0,0:0:0:0:
304,264,17332,1,0,0:0:0:0:
339,260,17411,1,0,0:0:0:0:
374,263,17490,1,0,0:0:0:0:
408,276,17569,1,0,0:0:0:0:
438,297,17647,1,0,0:0:0:0:
409,319,17727,5,0,0:0:0:0:
373,319,17806,1,0,0:0:0:0:
337,319,17885,1,0,0:0:0:0:
301,319,17964,1,0,0:0:0:0:
272,340,18042,1,0,0:0:0:0:
230,340,18121,1,0,0:0:0:0:
188,340,18200,1,0,0:0:0:0:
147,340,18279,1,0,0:0:0:0:
113,364,18358,5,0,0:0:0:0:
85,328,18436,1,0,0:0:0:0:
74,285,18515,1,0,0:0:0:0:
83,241,18594,1,0,0:0:0:0:
104,204,18674,1,0,0:0:0:0:
133,159,18752,1,0,0:0:0:0:
142,106,18831,1,0,0:0:0:0:
128,53,18910,1,0,0:0:0:0:
94,14,18989,5,0,0:0:0:0:
333,46,19148,1,0,0:0:0:0:
333,46,19227,2,0,L|396:46,1,45
250,157,19385,1,0,0:0:0:0:
250,157,19464,2,0,L|187:155,1,45
337,255,19621,1,0,0:0:0:0:
337,255,19700,2,0,L|400:255,1,45
253,346,19858,1,0,0:0:0:0:
253,346,19937,2,0,B|170:324|199:376|123:358,1,135
46,223,20253,5,0,0:0:0:0:
66,182,20332,1,0,0:0:0:0:
103,157,20411,1,0,0:0:0:0:
148,157,20490,1,0,0:0:0:0:
183,185,20569,1,0,0:0:0:0:
216,213,20647,1,0,0:0:0:0:
260,217,20726,1,0,0:0:0:0:
299,196,20805,1,0,0:0:0:0:
327,155,20885,5,0,0:0:0:0:
313,114,20963,1,0,0:0:0:0:
279,85,21042,1,0,0:0:0:0:
235,79,21121,1,0,0:0:0:0:
195,101,21200,1,0,0:0:0:0:
175,140,21278,1,0,0:0:0:0:
183,185,21357,1,0,0:0:0:0:
205,222,21436,1,0,0:0:0:0:
230,259,21516,5,0,0:0:0:0:
233,303,21594,1,0,0:0:0:0:
216,344,21673,1,0,0:0:0:0:
183,374,21752,1,0,0:0:0:0:
140,384,21832,1,0,0:0:0:0:
95,382,21910,1,0,0:0:0:0:
60,352,21989,1,0,0:0:0:0:
45,309,22068,1,0,0:0:0:0:
57,265,22148,5,0,0:0:0:0:
79,225,22226,1,0,0:0:0:0:
90,182,22305,1,0,0:0:0:0:
89,137,22384,1,0,0:0:0:0:
76,94,22464,2,0,P|65:72|61:69,1,22.5
141,72,22543,2,0,P|131:49|128:45,1,22.5
208,50,22621,2,0,P|197:28|193:25,1,22.5
273,28,22700,2,0,P|263:5|260:1,1,22.5
356,65,22779,5,0,0:0:0:0:
333,104,22857,1,0,0:0:0:0:
327,148,22936,1,0,0:0:0:0:
341,190,23015,1,0,0:0:0:0:
373,222,23094,1,0,0:0:0:0:
402,255,23173,1,0,0:0:0:0:
410,299,23252,1,0,0:0:0:0:
395,341,23331,1,0,0:0:0:0:
359,369,23411,5,0,0:0:0:0:
313,369,23490,1,0,0:0:0:0:
278,339,23569,1,0,0:0:0:0:
263,296,23648,1,0,0:0:0:0:
277,253,23727,1,0,0:0:0:0:
265,209,23806,1,0,0:0:0:0:
226,185,23885,1,0,0:0:0:0:
180,186,23964,1,0,0:0:0:0:
142,211,24043,5,0,0:0:0:0:
129,253,24121,1,0,0:0:0:0:
143,295,24200,1,0,0:0:0:0:
178,322,24279,1,0,0:0:0:0:
222,324,24358,1,0,0:0:0:0:
263,296,24437,1,0,0:0:0:0:
277,253,24516,1,0,0:0:0:0:
265,209,24595,1,0,0:0:0:0:
240,171,24674,5,0,0:0:0:0:
220,130,24753,1,0,0:0:0:0:
224,85,24832,1,0,0:0:0:0:
248,46,24911,1,0,0:0:0:0:
292,36,24990,1,0,0:0:0:0:
333,52,25069,1,0,0:0:0:0:
352,92,25148,1,0,0:0:0:0:
345,136,25227,1,0,0:0:0:0:
307,161,25306,5,0,0:0:0:0:
262,159,25385,1,0,0:0:0:0:
217,155,25464,1,0,0:0:0:0:
172,151,25543,1,0,0:0:0:0:
127,147,25621,1,0,0:0:0:0:
82,142,25700,1,0,0:0:0:0:
43,164,25779,1,0,0:0:0:0:
23,204,25858,1,0,0:0:0:0:
23,249,25937,5,0,0:0:0:0:
40,290,26016,1,0,0:0:0:0:
79,311,26095,1,0,0:0:0:0:
123,313,26174,1,0,0:0:0:0:
166,300,26253,1,0,0:0:0:0:
195,266,26332,1,0,0:0:0:0:
200,221,26411,1,0,0:0:0:0:
180,180,26490,1,0,0:0:0:0:
158,140,26569,5,0,0:0:0:0:
166,95,26648,1,0,0:0:0:0:
194,60,26727,1,0,0:0:0:0:
242,49,26806,1,0,0:0:0:0:
284,62,26885,1,0,0:0:0:0:
313,95,26964,1,0,0:0:0:0:
323,138,27043,1,0,0:0:0:0:
313,181,27121,1,0,0:0:0:0:
304,225,27200,5,0,0:0:0:0:
304,270,27279,1,0,0:0:0:0:
326,309,27358,1,0,0:0:0:0:
363,333,27437,1,0,0:0:0:0:
408,332,27516,2,0,P|425:329|444:318,1,22.5
404,262,27595,2,0,P|415:249|424:229,1,22.5
358,204,27674,2,0,P|361:187|359:165,1,22.5
292,180,27753,2,0,P|285:164|270:148,1,22.5
221,206,27832,5,0,0:0:0:0:
182,229,27910,1,0,0:0:0:0:
138,233,27989,1,0,0:0:0:0:
96,218,28068,1,0,0:0:0:0:
65,185,28147,1,0,0:0:0:0:
54,141,28227,1,0,0:0:0:0:
66,97,28306,1,0,0:0:0:0:
97,67,28385,1,0,0:0:0:0:
140,56,28464,5,0,0:0:0:0:
181,74,28543,1,0,0:0:0:0:
214,103,28621,1,0,0:0:0:0:
257,116,28700,1,0,0:0:0:0:
299,101,28779,1,0,0:0:0:0:
332,70,28858,1,0,0:0:0:0:
375,56,28937,1,0,0:0:0:0:
416,72,29016,1,0,0:0:0:0:
474,136,29095,6,0,B|466:218|466:218|495:263|495:263|487:345,1,202.500007724762
342,337,29411,2,0,P|340:263|407:318,1,202.500007724762
253,342,29727,2,0,P|250:268|262:247,1,67.5000025749208
342,179,29885,2,0,P|310:189|284:210,1,67.5000025749208
172,359,30043,6,0,P|161:322|171:246,1,101.250003862381
211,125,30358,5,0,0:0:0:0:
179,93,30436,1,0,0:0:0:0:
136,80,30515,1,0,0:0:0:0:
92,88,30594,1,0,0:0:0:0:
57,116,30673,1,0,0:0:0:0:
39,156,30752,1,0,0:0:0:0:
47,192,30832,1,0,0:0:0:0:
79,224,30910,1,0,0:0:0:0:
121,237,30989,5,0,0:0:0:0:
165,229,31068,1,0,0:0:0:0:
200,201,31147,1,0,0:0:0:0:
219,161,31226,1,0,0:0:0:0:
236,129,31306,1,0,0:0:0:0:
255,89,31385,1,0,0:0:0:0:
290,61,31464,1,0,0:0:0:0:
334,53,31543,1,0,0:0:0:0:
376,66,31622,5,0,0:0:0:0:
408,98,31700,1,0,0:0:0:0:
419,141,31779,1,0,0:0:0:0:
413,185,31858,1,0,0:0:0:0:
389,223,31937,1,0,0:0:0:0:
348,242,32016,1,0,0:0:0:0:
302,240,32095,1,0,0:0:0:0:
262,218,32174,1,0,0:0:0:0:
235,181,32253,5,0,0:0:0:0:
234,135,32332,1,0,0:0:0:0:
220,91,32411,1,0,0:0:0:0:
188,59,32490,1,0,0:0:0:0:
143,53,32569,2,0,L|92:58,1,45
54,194,32727,2,0,L|9:189,1,45
87,355,32885,5,0,0:0:0:0:
131,352,32963,1,0,0:0:0:0:
176,349,33042,1,0,0:0:0:0:
221,346,33121,1,0,0:0:0:0:
255,376,33200,1,0,0:0:0:0:
300,373,33278,1,0,0:0:0:0:
345,370,33357,1,0,0:0:0:0:
390,367,33436,1,0,0:0:0:0:
427,340,33516,5,0,0:0:0:0:
451,302,33594,1,0,0:0:0:0:
450,258,33673,1,0,0:0:0:0:
424,222,33752,1,0,0:0:0:0:
383,207,33831,1,0,0:0:0:0:
340,219,33910,1,0,0:0:0:0:
310,253,33990,1,0,0:0:0:0:
278,285,34069,1,0,0:0:0:0:
234,296,34148,5,0,0:0:0:0:
190,286,34227,1,0,0:0:0:0:
161,251,34306,1,0,0:0:0:0:
157,206,34385,1,0,0:0:0:0:
184,170,34464,1,0,0:0:0:0:
219,142,34543,1,0,0:0:0:0:
243,105,34621,1,0,0:0:0:0:
240,60,34700,1,0,0:0:0:0:
217,20,34779,5,0,0:0:0:0:
174,6,34858,1,0,0:0:0:0:
135,29,34937,1,0,0:0:0:0:
124,72,35016,1,0,0:0:0:0:
136,115,35095,2,0,P|164:120|191:109,1,45
318,47,35253,2,0,P|345:41|373:51,1,45
479,130,35411,5,0,0:0:0:0:
448,168,35489,1,0,0:0:0:0:
440,216,35568,1,0,0:0:0:0:
453,264,35648,1,0,0:0:0:0:
488,298,35727,1,0,0:0:0:0:
490,347,35806,1,0,0:0:0:0:
455,382,35885,1,0,0:0:0:0:
406,374,35964,1,0,0:0:0:0:
375,335,36043,5,0,0:0:0:0:
377,286,36121,1,0,0:0:0:0:
344,248,36200,1,0,0:0:0:0:
294,248,36279,1,0,0:0:0:0:
266,289,36358,1,0,0:0:0:0:
277,337,36437,1,0,0:0:0:0:
246,376,36516,1,0,0:0:0:0:
196,382,36595,1,0,0:0:0:0:
151,351,36674,5,0,0:0:0:0:
136,298,36753,1,0,0:0:0:0:
136,243,36832,1,0,0:0:0:0:
158,193,36911,1,0,0:0:0:0:
199,158,36990,1,0,0:0:0:0:
250,142,37069,1,0,0:0:0:0:
303,145,37148,1,0,0:0:0:0:
347,175,37227,1,0,0:0:0:0:
384,213,37306,5,0,0:0:0:0:
437,220,37385,1,0,0:0:0:0:
482,190,37464,1,0,0:0:0:0:
506,141,37543,1,0,0:0:0:0:
496,88,37621,1,0,0:0:0:0:
458,48,37700,1,0,0:0:0:0:
403,46,37779,1,0,0:0:0:0:
359,77,37858,1,0,0:0:0:0:
310,109,37937,5,0,0:0:0:0:
252,120,38016,1,0,0:0:0:0:
194,107,38095,1,0,0:0:0:0:
156,61,38174,1,0,0:0:0:0:
105,32,38253,1,0,0:0:0:0:
48,45,38332,1,0,0:0:0:0:
11,90,38411,1,0,0:0:0:0:
12,148,38490,1,0,0:0:0:0:
48,193,38569,5,0,0:0:0:0:
106,197,38648,1,0,0:0:0:0:
157,169,38727,1,0,0:0:0:0:
213,184,38806,1,0,0:0:0:0:
248,230,38885,1,0,0:0:0:0:
251,288,38964,1,0,0:0:0:0:
273,342,39043,1,0,0:0:0:0:
325,365,39121,1,0,0:0:0:0:
387,355,39200,5,0,0:0:0:0:
436,315,39279,1,0,0:0:0:0:
453,254,39358,1,0,0:0:0:0:
446,191,39437,1,0,0:0:0:0:
417,134,39516,1,0,0:0:0:0:
366,96,39595,1,0,0:0:0:0:
304,80,39674,1,0,0:0:0:0:
241,86,39753,1,0,0:0:0:0:
182,118,39832,5,0,0:0:0:0:
144,174,39911,1,0,0:0:0:0:
143,241,39990,1,0,0:0:0:0:
174,300,40069,1,0,0:0:0:0:
232,334,40148,1,0,0:0:0:0:
299,334,40227,1,0,0:0:0:0:
351,291,40306,1,0,0:0:0:0:
365,225,40385,1,0,0:0:0:0:
326,169,40464,6,0,B|271:140|222:174|222:174|176:206|112:168,1,216
121,173,41569,2,0,P|129:212|130:252,1,72
171,93,42043,2,0,P|166:73|165:54,1,36
121,173,42358,2,0,P|126:193|128:213,1,36
172,92,42674,1,0,0:0:0:0:
291,200,42832,6,0,B|345:199|387:246|387:246|370:184|394:137,1,216
391,142,43937,1,0,0:0:0:0:
479,261,44095,2,0,P|445:322|340:324,1,180
344,327,45516,6,0,P|231:299|166:365,1,216
167,362,46621,2,0,P|163:313|153:286,1,72
225,165,47095,2,0,P|209:182|201:200,1,36
77,94,47411,2,0,P|93:111|101:129,1,36
204,22,47727,1,0,0:0:0:0:
284,225,47885,6,0,B|324:233|347:207|347:207|415:266|484:210,1,216
418,144,48990,1,0,0:0:0:0:
276,296,49148,2,0,P|220:271|240:167,1,180
236,169,50569,6,0,L|228:114,1,45
323,195,50727,2,0,L|316:150,1,45
393,113,50885,2,0,L|400:68,1,45
467,164,51043,2,0,L|474:119,1,45
424,243,51200,2,0,L|473:256,3,45
367,322,51516,6,0,L|334:269,1,45
256,284,51674,2,0,L|282:227,1,45
216,181,51832,2,0,L|273:157,1,45
277,76,51990,2,0,L|328:111,1,45
403,63,52148,2,0,L|394:124,1,45
463,163,52306,2,0,L|406:189,1,45
428,268,52464,2,0,L|368:248,3,45
331,335,52779,6,0,L|279:346,1,45
238,272,52937,2,0,L|193:262,1,45
145,339,53095,2,0,L|93:350,1,45
52,276,53253,2,0,L|7:266,1,45
3,159,53411,2,0,L|47:149,1,45
95,77,53569,2,0,L|139:86,1,45
201,165,53727,2,0,L|245:155,3,45
304,76,54043,6,0,L|289:25,1,45
401,126,54200,2,0,L|416:75,1,45
337,195,54358,2,0,L|322:144,1,45
434,245,54515,2,0,L|449:194,1,45
372,313,54674,2,0,L|357:262,1,45
469,363,54831,2,0,L|484:312,1,45
372,313,54990,2,0,L|306:327,3,45
246,368,55306,6,0,P|230:319|232:310,1,45
238,201,55464,2,0,P|222:250|224:259,1,45
163,368,55621,2,0,P|147:319|149:310,1,45
155,201,55779,2,0,P|139:250|141:259,1,45
77,368,55937,2,0,P|61:319|63:310,1,45
69,201,56095,2,0,P|53:250|55:259,1,45
163,368,56253,2,0,P|147:319|149:310,3,45
219,245,56569,6,0,L|292:249,1,45
157,163,56727,2,0,L|112:160,1,45
256,162,56885,2,0,L|260:89,1,45
136,249,57043,2,0,L|133:293,1,45
194,98,57200,2,0,L|138:50,1,45
210,324,57358,2,0,L|244:353,1,45
157,163,57516,2,0,L|100:162,3,45
278,232,57832,6,0,P|313:204|316:198,1,45
387,200,57990,2,0,P|371:157|367:153,1,45
406,95,58148,2,0,P|361:86|355:88,1,45
331,24,58306,2,0,P|298:54|295:60,1,45
228,43,58463,2,0,P|237:86|241:92,1,45
191,137,58621,2,0,P|231:156|238:156,1,45
239,225,58779,2,0,P|281:209|285:205,3,45
214,358,59095,6,0,P|191:335|165:331,1,45
298,304,59253,2,0,P|311:286|332:277,1,45
212,254,59411,2,0,P|189:231|163:227,1,45
296,200,59569,2,0,P|309:182|330:173,1,45
212,154,59727,2,0,P|189:131|163:127,1,45
296,100,59885,2,0,P|309:82|330:73,1,45
214,45,60043,6,0,P|191:22|165:18,3,45
296,100,60358,2,0,P|319:77|345:73,3,45
193,223,60674,5,0,0:0:0:0:
161,204,60753,1,0,0:0:0:0:
126,194,60832,1,0,0:0:0:0:
90,198,60911,1,0,0:0:0:0:
56,212,60990,1,0,0:0:0:0:
193,223,61148,5,0,0:0:0:0:
161,204,61227,1,0,0:0:0:0:
126,186,61306,1,0,0:0:0:0:
90,198,61385,1,0,0:0:0:0:
56,212,61464,1,0,0:0:0:0:
193,223,61621,5,0,0:0:0:0:
161,204,61700,1,0,0:0:0:0:
126,177,61779,1,0,0:0:0:0:
90,198,61858,1,0,0:0:0:0:
56,212,61937,5,0,0:0:0:0:
115,311,62095,1,0,0:0:0:0:
207,143,62253,6,0,P|194:97|199:36,1,90
39,124,62490,1,0,0:0:0:0:
54,91,62569,1,0,0:0:0:0:
126,177,62648,5,0,0:0:0:0:
111,144,62727,2,0,P|133:199|129:284,1,135
111,343,63043,1,0,0:0:0:0:
319,223,63200,5,0,0:0:0:0:
351,204,63279,1,0,0:0:0:0:
386,194,63358,1,0,0:0:0:0:
422,198,63437,1,0,0:0:0:0:
456,212,63516,1,0,0:0:0:0:
319,223,63674,5,0,0:0:0:0:
351,204,63753,1,0,0:0:0:0:
386,186,63832,1,0,0:0:0:0:
422,198,63911,1,0,0:0:0:0:
456,212,63990,1,0,0:0:0:0:
319,223,64147,5,0,0:0:0:0:
351,204,64226,1,0,0:0:0:0:
386,177,64305,1,0,0:0:0:0:
422,198,64384,1,0,0:0:0:0:
456,212,64463,5,0,0:0:0:0:
407,314,64621,1,0,0:0:0:0:
305,143,64779,6,0,P|318:97|313:36,1,90
458,125,65016,1,0,0:0:0:0:
458,125,65095,1,0,0:0:0:0:
420,175,65174,1,0,0:0:0:0:
408,236,65253,1,0,0:0:0:0:
405,299,65332,1,0,0:0:0:0:
426,358,65411,1,0,0:0:0:0:
426,358,65727,5,0,0:0:0:0:
403,329,65805,1,0,0:0:0:0:
375,307,65884,1,0,0:0:0:0:
343,292,65963,1,0,0:0:0:0:
308,284,66042,1,0,0:0:0:0:
272,284,66121,1,0,0:0:0:0:
237,293,66200,1,0,0:0:0:0:
205,309,66279,1,0,0:0:0:0:
177,332,66358,5,0,0:0:0:0:
142,343,66437,1,0,0:0:0:0:
105,342,66516,1,0,0:0:0:0:
70,330,66595,1,0,0:0:0:0:
36,299,66674,1,0,0:0:0:0:
32,252,66753,1,0,0:0:0:0:
48,205,66832,1,0,0:0:0:0:
86,181,66911,1,0,0:0:0:0:
130,178,66990,5,0,0:0:0:0:
169,199,67069,1,0,0:0:0:0:
204,226,67148,1,0,0:0:0:0:
247,235,67227,1,0,0:0:0:0:
300,228,67306,1,0,0:0:0:0:
340,191,67385,1,0,0:0:0:0:
353,138,67464,1,0,0:0:0:0:
332,87,67543,1,0,0:0:0:0:
284,62,67621,5,0,0:0:0:0:
232,79,67700,1,0,0:0:0:0:
201,123,67779,1,0,0:0:0:0:
206,176,67858,1,0,0:0:0:0:
226,226,67937,1,0,0:0:0:0:
254,271,68016,1,0,0:0:0:0:
255,325,68095,1,0,0:0:0:0:
222,368,68174,1,0,0:0:0:0:
168,373,68253,5,0,0:0:0:0:
111,345,68332,1,0,0:0:0:0:
102,282,68411,1,0,0:0:0:0:
136,228,68490,1,0,0:0:0:0:
198,221,68569,1,0,0:0:0:0:
249,257,68648,1,0,0:0:0:0:
305,285,68727,1,0,0:0:0:0:
367,274,68806,1,0,0:0:0:0:
421,226,68885,5,0,0:0:0:0:
428,154,68964,1,0,0:0:0:0:
389,92,69043,1,0,0:0:0:0:
318,82,69121,1,0,0:0:0:0:
251,110,69200,1,0,0:0:0:0:
193,153,69279,1,0,0:0:0:0:
121,147,69358,1,0,0:0:0:0:
63,103,69437,1,0,0:0:0:0:
57,31,69516,1,0,0:0:0:0:
83,296,70464,5,0,0:0:0:0:
83,296,70779,6,0,P|128:266|224:271,1,135
273,293,71095,1,0,0:0:0:0:
257,122,71253,1,0,0:0:0:0:
264,193,71332,1,0,0:0:0:0:
323,152,71411,1,0,0:0:0:0:
142,64,71569,5,0,0:0:0:0:
202,231,71727,1,0,0:0:0:0:
384,114,71885,1,0,0:0:0:0:
494,209,72043,6,0,L|484:356,1,135
421,378,72358,1,0,0:0:0:0:
440,161,72516,1,0,0:0:0:0:
354,338,72674,1,0,0:0:0:0:
375,195,72832,1,0,0:0:0:0:
286,356,72990,1,0,0:0:0:0:
299,285,73069,1,0,0:0:0:0:
368,267,73148,1,0,0:0:0:0:
424,311,73227,1,0,0:0:0:0:
473,258,73306,6,0,P|446:207|470:129,1,135
509,78,73621,1,0,0:0:0:0:
342,140,73779,1,0,0:0:0:0:
300,80,73858,1,0,0:0:0:0:
339,19,73937,1,0,0:0:0:0:
248,162,74095,5,0,0:0:0:0:
408,81,74253,1,0,0:0:0:0:
245,0,74411,1,0,0:0:0:0:
202,229,74569,6,0,P|169:189|182:122,1,90
319,333,74885,1,0,0:0:0:0:
319,333,75043,1,0,0:0:0:0:
115,233,75200,5,0,0:0:0:0:
380,148,75358,1,0,0:0:0:0:
193,51,75516,1,0,0:0:0:0:
193,51,75832,6,0,P|178:123|195:187,1,135
226,246,76148,1,0,0:0:0:0:
425,226,76306,1,0,0:0:0:0:
368,181,76385,1,0,0:0:0:0:
324,238,76464,1,0,0:0:0:0:
395,372,76621,5,0,0:0:0:0:
443,153,76779,1,0,0:0:0:0:
279,293,76937,1,0,0:0:0:0:
206,168,77095,6,0,P|157:112|93:117,1,135
44,159,77411,1,0,0:0:0:0:
201,46,77569,1,0,0:0:0:0:
127,190,77727,2,0,L|133:349,1,135
189,369,78043,1,0,0:0:0:0:
243,323,78121,1,0,0:0:0:0:
314,315,78200,1,0,0:0:0:0:
373,355,78279,1,0,0:0:0:0:
426,306,78358,6,0,L|420:171,1,135
416,98,78674,1,0,0:0:0:0:
202,124,78832,1,0,0:0:0:0:
273,115,78911,1,0,0:0:0:0:
344,107,78990,1,0,0:0:0:0:
130,134,79148,5,0,0:0:0:0:
301,46,79306,1,0,0:0:0:0:
59,140,79464,1,0,0:0:0:0:
256,192,79621,12,0,80569,0:0:0:0:
160,280,80885,5,0,0:0:0:0:
219,72,81043,1,0,0:0:0:0:
179,352,81200,5,0,0:0:0:0:
120,144,81358,1,0,0:0:0:0:
333,352,81516,5,0,0:0:0:0:
392,144,81674,1,0,0:0:0:0:
352,280,81832,5,0,0:0:0:0:
293,72,81990,1,0,0:0:0:0:
118,230,82148,5,0,0:0:0:0:
315,147,82306,1,0,0:0:0:0:
226,350,82464,5,0,0:0:0:0:
143,153,82622,1,0,0:0:0:0:
343,260,82779,2,0,P|290:248|251:261,1,90
56,150,83095,2,0,P|109:162|148:149,1,90
303,34,83411,5,0,0:0:0:0:
196,209,83569,1,0,0:0:0:0:
307,27,83727,5,0,0:0:0:0:
341,249,83885,1,0,0:0:0:0:
311,23,84043,5,0,0:0:0:0:
182,217,84201,1,0,0:0:0:0:
315,19,84358,5,0,0:0:0:0:
357,257,84516,1,0,0:0:0:0:
187,103,84674,5,0,0:0:0:0:
416,57,84832,1,0,0:0:0:0:
181,103,84990,5,0,0:0:0:0:
417,172,85148,1,0,0:0:0:0:
204,340,85306,5,0,0:0:0:0:
295,80,85464,1,0,0:0:0:0:
388,340,85621,1,0,0:0:0:0:
388,340,85937,6,0,P|383:318|390:285,1,45
254,219,86095,2,0,P|256:241|251:263,1,45
396,147,86253,2,0,P|391:125|398:92,1,45
262,26,86411,2,0,P|264:48|259:70,1,45
128,157,86569,6,0,P|76:144|71:141,1,45
202,287,86727,2,0,P|223:280|245:278,1,45
129,146,86885,2,0,P|77:133|72:130,1,45
203,276,87043,2,0,P|224:269|246:267,1,45
384,157,87200,6,0,P|436:144|441:141,1,45
310,287,87358,2,0,P|288:280|266:278,1,45
383,146,87516,2,0,P|435:133|440:130,1,45
309,276,87674,2,0,P|287:269|265:267,1,45
160,83,87832,6,0,P|176:107|182:147,1,45
352,83,87990,2,0,P|336:107|330:147,1,45
119,164,88148,2,0,P|135:188|141:228,1,45
393,164,88306,2,0,P|377:188|371:228,1,45
160,323,88464,6,0,P|176:299|182:259,1,45
352,323,88621,2,0,P|336:299|330:259,1,45
119,242,88779,2,0,P|135:218|141:178,1,45
393,242,88936,2,0,P|377:218|371:178,1,45
201,56,89095,6,0,L|153:62,1,45
319,111,89253,2,0,L|363:105,1,45
169,81,89411,2,0,L|106:88,1,45
346,137,89569,2,0,L|408:129,1,45
218,197,89727,5,0,0:0:0:0:
185,228,89806,1,0,0:0:0:0:
170,270,89885,1,0,0:0:0:0:
178,314,89964,1,0,0:0:0:0:
204,350,90043,1,0,0:0:0:0:
247,360,90121,1,0,0:0:0:0:
291,362,90200,1,0,0:0:0:0:
330,341,90279,1,0,0:0:0:0:
358,300,90358,5,0,0:0:0:0:
356,250,90437,1,0,0:0:0:0:
330,207,90516,1,0,0:0:0:0:
287,181,90595,1,0,0:0:0:0:
259,139,90674,1,0,0:0:0:0:
259,89,90753,1,0,0:0:0:0:
289,49,90832,1,0,0:0:0:0:
336,35,90911,1,0,0:0:0:0:
388,47,90990,5,0,0:0:0:0:
422,88,91069,1,0,0:0:0:0:
429,141,91148,1,0,0:0:0:0:
401,187,91227,1,0,0:0:0:0:
354,209,91306,1,0,0:0:0:0:
300,202,91385,1,0,0:0:0:0:
255,172,91464,1,0,0:0:0:0:
203,155,91543,1,0,0:0:0:0:
149,161,91621,5,0,0:0:0:0:
104,192,91700,1,0,0:0:0:0:
93,245,91779,1,0,0:0:0:0:
108,296,91858,1,0,0:0:0:0:
153,324,91937,1,0,0:0:0:0:
206,319,92016,1,0,0:0:0:0:
250,288,92095,1,0,0:0:0:0:
265,236,92174,1,0,0:0:0:0:
249,184,92253,5,0,0:0:0:0:
203,155,92332,1,0,0:0:0:0:
167,114,92411,1,0,0:0:0:0:
166,59,92490,1,0,0:0:0:0:
203,20,92569,1,0,0:0:0:0:
256,26,92648,1,0,0:0:0:0:
294,64,92727,1,0,0:0:0:0:
345,80,92806,1,0,0:0:0:0:
395,61,92885,5,0,0:0:0:0:
432,22,92964,1,0,0:0:0:0:
484,33,93043,1,0,0:0:0:0:
505,81,93121,1,0,0:0:0:0:
480,129,93200,1,0,0:0:0:0:
426,130,93279,1,0,0:0:0:0:
385,165,93358,1,0,0:0:0:0:
379,218,93437,1,0,0:0:0:0:
418,255,93516,5,0,0:0:0:0:
471,260,93595,1,0,0:0:0:0:
511,295,93674,1,0,0:0:0:0:
507,348,93753,1,0,0:0:0:0:
464,381,93832,1,0,0:0:0:0:
410,371,93911,1,0,0:0:0:0:
380,326,93990,1,0,0:0:0:0:
329,306,94069,1,0,0:0:0:0:
276,319,94148,5,0,0:0:0:0:
234,353,94227,1,0,0:0:0:0:
180,360,94306,1,0,0:0:0:0:
131,336,94385,1,0,0:0:0:0:
107,287,94464,1,0,0:0:0:0:
113,233,94543,1,0,0:0:0:0:
140,187,94621,1,0,0:0:0:0:
190,166,94700,1,0,0:0:0:0:
242,176,94779,5,0,0:0:0:0:
283,210,94858,1,0,0:0:0:0:
334,227,94937,1,0,0:0:0:0:
387,221,95016,1,0,0:0:0:0:
424,178,95095,1,0,0:0:0:0:
435,125,95174,1,0,0:0:0:0:
411,76,95253,1,0,0:0:0:0:
359,59,95332,1,0,0:0:0:0:
305,69,95411,5,0,0:0:0:0:
274,113,95490,1,0,0:0:0:0:
263,165,95569,1,0,0:0:0:0:
283,210,95648,1,0,0:0:0:0:
308,257,95727,1,0,0:0:0:0:
309,311,95806,1,0,0:0:0:0:
275,353,95885,1,0,0:0:0:0:
223,369,95964,1,0,0:0:0:0:
170,357,96043,5,0,0:0:0:0:
143,310,96121,1,0,0:0:0:0:
143,255,96200,1,0,0:0:0:0:
177,213,96279,1,0,0:0:0:0:
228,197,96358,1,0,0:0:0:0:
283,210,96437,1,0,0:0:0:0:
326,242,96516,1,0,0:0:0:0:
376,259,96595,1,0,0:0:0:0:
428,246,96674,5,0,0:0:0:0:
464,207,96753,1,0,0:0:0:0:
460,153,96832,1,0,0:0:0:0:
415,122,96911,1,0,0:0:0:0:
361,112,96990,1,0,0:0:0:0:
309,129,97069,1,0,0:0:0:0:
259,107,97148,1,0,0:0:0:0:
236,58,97227,1,0,0:0:0:0:
200,16,97306,5,0,0:0:0:0:
146,19,97385,1,0,0:0:0:0:
106,55,97464,1,0,0:0:0:0:
99,108,97543,1,0,0:0:0:0:
132,149,97621,1,0,0:0:0:0:
185,157,97700,1,0,0:0:0:0:
230,186,97779,1,0,0:0:0:0:
251,235,97858,1,0,0:0:0:0:
243,288,97937,5,0,0:0:0:0:
203,324,98016,1,0,0:0:0:0:
151,338,98095,1,0,0:0:0:0:
99,323,98174,1,0,0:0:0:0:
64,281,98253,1,0,0:0:0:0:
59,227,98332,1,0,0:0:0:0:
83,178,98411,1,0,0:0:0:0:
132,149,98490,1,0,0:0:0:0:
185,157,98569,5,0,0:0:0:0:
224,194,98648,1,0,0:0:0:0:
272,217,98727,1,0,0:0:0:0:
325,215,98806,1,0,0:0:0:0:
373,190,98885,1,0,0:0:0:0:
394,140,98964,1,0,0:0:0:0:
370,91,99043,1,0,0:0:0:0:
378,38,99121,1,0,0:0:0:0:
424,11,99200,5,0,0:0:0:0:
475,26,99279,1,0,0:0:0:0:
505,70,99358,1,0,0:0:0:0:
491,122,99437,1,0,0:0:0:0:
462,167,99516,1,0,0:0:0:0:
460,221,99595,1,0,0:0:0:0:
492,260,99674,1,0,0:0:0:0:
493,314,99753,1,0,0:0:0:0:
468,362,99832,5,0,0:0:0:0:
417,380,99911,1,0,0:0:0:0:
366,359,99990,1,0,0:0:0:0:
339,311,100069,1,0,0:0:0:0:
344,257,100148,1,0,0:0:0:0:
374,212,100227,1,0,0:0:0:0:
378,158,100306,1,0,0:0:0:0:
351,110,100385,1,0,0:0:0:0:
301,88,100464,5,0,0:0:0:0:
249,102,100543,1,0,0:0:0:0:
221,147,100621,1,0,0:0:0:0:
232,199,100700,1,0,0:0:0:0:
255,247,100779,1,0,0:0:0:0:
255,301,100858,1,0,0:0:0:0:
226,346,100937,1,0,0:0:0:0:
177,369,101016,1,0,0:0:0:0:
124,357,101095,5,0,0:0:0:0:
84,319,101174,1,0,0:0:0:0:
80,265,101253,1,0,0:0:0:0:
107,218,101332,1,0,0:0:0:0:
158,200,101411,1,0,0:0:0:0:
213,216,101490,1,0,0:0:0:0:
255,247,101569,1,0,0:0:0:0:
300,276,101648,1,0,0:0:0:0:
343,307,101727,5,0,0:0:0:0:
385,339,101806,1,0,0:0:0:0:
438,349,101885,1,0,0:0:0:0:
487,328,101964,1,0,0:0:0:0:
503,276,102043,1,0,0:0:0:0:
480,227,102121,1,0,0:0:0:0:
434,198,102200,1,0,0:0:0:0:
380,192,102279,1,0,0:0:0:0:
333,164,102358,5,0,0:0:0:0:
315,112,102437,1,0,0:0:0:0:
333,61,102516,1,0,0:0:0:0:
381,36,102595,1,0,0:0:0:0:
427,62,102674,1,0,0:0:0:0:
448,111,102753,1,0,0:0:0:0:
428,161,102832,1,0,0:0:0:0:
380,192,102911,1,0,0:0:0:0:
326,199,102990,5,0,0:0:0:0:
272,190,103069,1,0,0:0:0:0:
219,177,103148,1,0,0:0:0:0:
166,163,103227,1,0,0:0:0:0:
112,169,103306,1,0,0:0:0:0:
81,213,103385,1,0,0:0:0:0:
81,267,103464,1,0,0:0:0:0:
121,303,103543,1,0,0:0:0:0:
174,305,103621,5,0,0:0:0:0:
220,278,103700,1,0,0:0:0:0:
242,228,103779,1,0,0:0:0:0:
219,177,103858,1,0,0:0:0:0:
194,128,103937,1,0,0:0:0:0:
190,74,104016,1,0,0:0:0:0:
220,29,104095,1,0,0:0:0:0:
273,18,104174,1,0,0:0:0:0:
322,40,104253,5,0,0:0:0:0:
341,90,104332,1,0,0:0:0:0:
330,143,104411,1,0,0:0:0:0:
321,196,104490,1,0,0:0:0:0:
337,247,104569,1,0,0:0:0:0:
378,281,104648,1,0,0:0:0:0:
431,283,104727,1,0,0:0:0:0:
478,257,104806,1,0,0:0:0:0:
501,208,104885,5,0,0:0:0:0:
483,157,104964,1,0,0:0:0:0:
441,122,105043,1,0,0:0:0:0:
387,122,105121,1,0,0:0:0:0:
330,143,105200,1,0,0:0:0:0:
278,159,105279,1,0,0:0:0:0:
226,175,105358,1,0,0:0:0:0:
175,193,105437,1,0,0:0:0:0:
124,211,105516,5,0,0:0:0:0:
69,211,105595,1,0,0:0:0:0:
21,185,105674,1,0,0:0:0:0:
10,130,105753,1,0,0:0:0:0:
26,78,105832,1,0,0:0:0:0:
73,48,105911,1,0,0:0:0:0:
126,55,105990,1,0,0:0:0:0:
167,89,106069,1,0,0:0:0:0:
179,141,106148,5,0,0:0:0:0:
138,379,106306,1,0,0:0:0:0:
248,105,106464,5,0,0:0:0:0:
207,343,106622,1,0,0:0:0:0:
248,105,106779,5,0,0:0:0:0:
289,343,106937,1,0,0:0:0:0:
317,141,107095,5,0,0:0:0:0:
358,379,107253,1,0,0:0:0:0:
358,379,107332,1,0,0:0:0:0:
358,379,107411,5,0,0:0:0:0:
169,234,107569,1,0,0:0:0:0:
358,89,107727,5,0,0:0:0:0:
155,234,107885,1,0,0:0:0:0:
358,379,108043,5,0,0:0:0:0:
141,234,108201,1,0,0:0:0:0:
358,89,108358,5,0,0:0:0:0:
65,238,108516,1,0,0:0:0:0:
65,238,108595,1,0,0:0:0:0:
65,238,108674,5,0,0:0:0:0:
29,191,108753,1,0,0:0:0:0:
24,132,108832,1,0,0:0:0:0:
58,84,108911,1,0,0:0:0:0:
115,71,108990,1,0,0:0:0:0:
165,100,109069,1,0,0:0:0:0:
195,150,109148,1,0,0:0:0:0:
177,205,109227,1,0,0:0:0:0:
182,263,109306,5,0,0:0:0:0:
219,307,109385,1,0,0:0:0:0:
274,325,109464,1,0,0:0:0:0:
331,316,109543,1,0,0:0:0:0:
378,282,109621,1,0,0:0:0:0:
381,223,109700,1,0,0:0:0:0:
364,166,109779,1,0,0:0:0:0:
311,139,109858,1,0,0:0:0:0:
252,144,109937,5,0,0:0:0:0:
195,150,110016,1,0,0:0:0:0:
136,156,110095,1,0,0:0:0:0:
78,164,110174,1,0,0:0:0:0:
37,205,110253,1,0,0:0:0:0:
26,262,110332,1,0,0:0:0:0:
42,318,110411,1,0,0:0:0:0:
88,353,110490,1,0,0:0:0:0:
146,353,110569,5,0,0:0:0:0:
96,93,110727,1,0,0:0:0:0:
366,353,110885,5,0,0:0:0:0:
416,93,111043,1,0,0:0:0:0:
152,258,111200,1,0,0:0:0:0:
116,253,111279,1,0,0:0:0:0:
80,248,111358,1,0,0:0:0:0:
44,244,111437,1,0,0:0:0:0:
8,240,111516,1,0,0:0:0:0:
296,240,111674,5,0,0:0:0:0:
260,244,111753,1,0,0:0:0:0:
224,248,111832,1,0,0:0:0:0:
188,253,111911,1,0,0:0:0:0:
152,258,111990,1,0,0:0:0:0:
440,258,112148,5,0,0:0:0:0:
404,253,112227,1,0,0:0:0:0:
368,248,112306,1,0,0:0:0:0:
332,244,112385,1,0,0:0:0:0:
296,240,112464,5,0,0:0:0:0:
360,373,112621,1,0,0:0:0:0:
449,175,112779,2,0,L|355:166,1,90
322,164,113016,1,0,0:0:0:0:
322,164,113095,1,0,0:0:0:0:
327,66,113174,1,0,0:0:0:0:
327,66,113253,2,0,L|432:55,1,90
193,83,113569,1,0,0:0:0:0:
360,258,113727,5,0,0:0:0:0:
396,253,113806,1,0,0:0:0:0:
432,248,113885,1,0,0:0:0:0:
468,244,113964,1,0,0:0:0:0:
504,240,114043,1,0,0:0:0:0:
216,240,114201,5,0,0:0:0:0:
252,244,114280,1,0,0:0:0:0:
288,248,114359,1,0,0:0:0:0:
324,253,114438,1,0,0:0:0:0:
360,258,114517,1,0,0:0:0:0:
72,258,114675,5,0,0:0:0:0:
108,253,114754,1,0,0:0:0:0:
144,248,114833,1,0,0:0:0:0:
180,244,114912,1,0,0:0:0:0:
216,240,114991,1,0,0:0:0:0:
152,373,115148,1,0,0:0:0:0:
63,175,115306,2,0,L|157:166,1,90
190,164,115543,1,0,0:0:0:0:
190,164,115622,1,0,0:0:0:0:
247,156,115700,1,0,0:0:0:0:
305,149,115779,1,0,0:0:0:0:
363,142,115858,1,0,0:0:0:0:
420,138,115937,1,0,0:0:0:0:
420,138,116253,5,0,0:0:0:0:
405,104,116332,1,0,0:0:0:0:
371,90,116411,1,0,0:0:0:0:
335,83,116490,1,0,0:0:0:0:
301,100,116569,1,0,0:0:0:0:
287,135,116648,1,0,0:0:0:0:
289,170,116727,1,0,0:0:0:0:
308,200,116806,1,0,0:0:0:0:
346,213,116885,5,0,0:0:0:0:
379,236,116964,1,0,0:0:0:0:
387,275,117043,1,0,0:0:0:0:
381,314,117121,1,0,0:0:0:0:
355,345,117200,1,0,0:0:0:0:
315,355,117279,1,0,0:0:0:0:
276,342,117358,1,0,0:0:0:0:
253,307,117437,1,0,0:0:0:0:
245,262,117516,5,0,0:0:0:0:
218,225,117595,1,0,0:0:0:0:
177,204,117674,1,0,0:0:0:0:
132,206,117753,1,0,0:0:0:0:
95,237,117832,1,0,0:0:0:0:
81,279,117911,1,0,0:0:0:0:
97,321,117990,1,0,0:0:0:0:
130,350,118069,1,0,0:0:0:0:
179,351,118148,5,0,0:0:0:0:
224,330,118227,1,0,0:0:0:0:
244,284,118306,1,0,0:0:0:0:
269,241,118385,1,0,0:0:0:0:
314,220,118464,1,0,0:0:0:0:
363,221,118543,1,0,0:0:0:0:
405,244,118621,1,0,0:0:0:0:
433,284,118700,1,0,0:0:0:0:
437,337,118779,5,0,0:0:0:0:
386,357,118858,1,0,0:0:0:0:
331,357,118937,1,0,0:0:0:0:
279,339,119016,1,0,0:0:0:0:
242,299,119095,1,0,0:0:0:0:
226,247,119174,1,0,0:0:0:0:
226,192,119253,1,0,0:0:0:0:
237,134,119332,1,0,0:0:0:0:
278,93,119411,5,0,0:0:0:0:
330,135,119490,1,0,0:0:0:0:
340,201,119569,1,0,0:0:0:0:
328,267,119648,1,0,0:0:0:0:
272,305,119727,1,0,0:0:0:0:
206,319,119806,1,0,0:0:0:0:
140,301,119885,1,0,0:0:0:0:
97,248,119964,1,0,0:0:0:0:
85,180,120043,1,0,0:0:0:0:
85,180,121306,6,0,L|85:177,8,2.25
