osu file format v14

[General]
AudioFilename: GOODTEK - EBIMAYO.mp3
AudioLeadIn: 0
PreviewTime: 20253
Countdown: 0
SampleSet: Normal
StackLeniency: 0.7
Mode: 3
LetterboxInBreaks: 0
SpecialStyle: 0
WidescreenStoryboard: 1

[Editor]
DistanceSpacing: 0.8
BeatDivisor: 4
GridSize: 8
TimelineZoom: 1

[Metadata]
Title:GOODTEK
TitleUnicode:GOODTEK
Artist:EBIMAYO
ArtistUnicode:EBIMAYO
Creator:LeiN-
Version:4K Another
Source:BMS
Tags:BOFU2015
BeatmapID:808998
BeatmapSetID:369069

[Difficulty]
HPDrainRate:7.7
CircleSize:4
OverallDifficulty:7.7
ApproachRate:7.7
SliderMultiplier:1.4
SliderTickRate:1

[Events]
//Background and Video events
0,0,"bg.jpg",0,0
Video,-80,"bga.avi"
//Break Periods
//Storyboard Layer 0 (Background)
//Storyboard Layer 1 (Fail)
//Storyboard Layer 2 (Pass)
//Storyboard Layer 3 (Foreground)
//Storyboard Sound Samples

[TimingPoints]
43,315.789473684211,4,1,0,0,1,0

[HitObjects]
448,192,43,5,0,0:0:0:0:
64,192,43,1,0,0:0:0:0:
320,192,200,1,0,0:0:0:0:
448,192,358,1,0,0:0:0:0:
320,192,516,1,0,0:0:0:0:
448,192,674,1,0,0:0:0:0:
320,192,832,1,0,0:0:0:0:
448,192,990,1,0,0:0:0:0:
192,192,1148,1,0,0:0:0:0:
64,192,1306,1,0,0:0:0:0:
192,192,1464,1,0,0:0:0:0:
64,192,1621,1,0,0:0:0:0:
192,192,1779,1,0,0:0:0:0:
64,192,1937,1,0,0:0:0:0:
192,192,2095,1,0,0:0:0:0:
64,192,2253,1,0,0:0:0:0:
192,192,2411,1,0,0:0:0:0:
320,192,2569,1,0,0:0:0:0:
192,192,2727,1,0,0:0:0:0:
320,192,2885,1,0,0:0:0:0:
192,192,3043,1,0,0:0:0:0:
320,192,3200,1,0,0:0:0:0:
192,192,3358,1,0,0:0:0:0:
320,192,3516,1,0,0:0:0:0:
192,192,3674,1,0,0:0:0:0:
320,192,3832,1,0,0:0:0:0:
192,192,3990,1,0,0:0:0:0:
320,192,4148,1,0,0:0:0:0:
192,192,4306,1,0,0:0:0:0:
320,192,4464,1,0,0:0:0:0:
192,192,4621,1,0,0:0:0:0:
320,192,4779,1,0,0:0:0:0:
192,192,4937,1,0,0:0:0:0:
64,192,5095,1,0,0:0:0:0:
192,192,5174,1,0,0:0:0:0:
320,192,5253,1,0,0:0:0:0:
448,192,5332,1,0,0:0:0:0:
64,192,5411,1,0,0:0:0:0:
320,192,5490,1,0,0:0:0:0:
192,192,5569,1,0,0:0:0:0:
448,192,5648,1,0,0:0:0:0:
64,192,5727,1,0,0:0:0:0:
192,192,5806,1,0,0:0:0:0:
320,192,5885,1,0,0:0:0:0:
448,192,5964,1,0,0:0:0:0:
64,192,6043,1,0,0:0:0:0:
320,192,6121,1,0,0:0:0:0:
192,192,6200,1,0,0:0:0:0:
448,192,6279,1,0,0:0:0:0:
64,192,6358,1,0,0:0:0:0:
192,192,6437,1,0,0:0:0:0:
320,192,6516,1,0,0:0:0:0:
448,192,6595,1,0,0:0:0:0:
64,192,6674,1,0,0:0:0:0:
320,192,6753,1,0,0:0:0:0:
192,192,6832,1,0,0:0:0:0:
448,192,6911,1,0,0:0:0:0:
64,192,6990,1,0,0:0:0:0:
192,192,7069,1,0,0:0:0:0:
320,192,7148,1,0,0:0:0:0:
448,192,7227,1,0,0:0:0:0:
64,192,7306,1,0,0:0:0:0:
320,192,7385,1,0,0:0:0:0:
192,192,7464,1,0,0:0:0:0:
448,192,7543,1,0,0:0:0:0:
64,192,7621,1,0,0:0:0:0:
192,192,7700,1,0,0:0:0:0:
320,192,7779,1,0,0:0:0:0:
448,192,7858,1,0,0:0:0:0:
64,192,7937,1,0,0:0:0:0:
448,192,8016,1,0,0:0:0:0:
192,192,8095,1,0,0:0:0:0:
320,192,8174,1,0,0:0:0:0:
64,192,8253,1,0,0:0:0:0:
192,192,8332,1,0,0:0:0:0:
320,192,8411,1,0,0:0:0:0:
448,192,8490,1,0,0:0:0:0:
64,192,8569,1,0,0:0:0:0:
448,192,8648,1,0,0:0:0:0:
192,192,8727,1,0,0:0:0:0:
320,192,8806,1,0,0:0:0:0:
64,192,8885,1,0,0:0:0:0:
192,192,8964,1,0,0:0:0:0:
320,192,9043,1,0,0:0:0:0:
448,192,9121,1,0,0:0:0:0:
64,192,9200,1,0,0:0:0:0:
448,192,9279,1,0,0:0:0:0:
192,192,9358,1,0,0:0:0:0:
320,192,9437,1,0,0:0:0:0:
64,192,9516,1,0,0:0:0:0:
192,192,9595,1,0,0:0:0:0:
320,192,9674,1,0,0:0:0:0:
448,192,9753,1,0,0:0:0:0:
64,192,9832,1,0,0:0:0:0:
448,192,9911,1,0,0:0:0:0:
192,192,9990,1,0,0:0:0:0:
320,192,10069,1,0,0:0:0:0:
192,192,10148,1,0,0:0:0:0:
64,192,10148,1,0,0:0:0:0:
448,192,10306,1,0,0:0:0:0:
192,192,10306,1,0,0:0:0:0:
64,192,10464,1,0,0:0:0:0:
320,192,10464,1,0,0:0:0:0:
192,192,10543,1,0,0:0:0:0:
320,192,10621,1,0,0:0:0:0:
448,192,10621,1,0,0:0:0:0:
192,192,10700,1,0,0:0:0:0:
64,192,10779,1,0,0:0:0:0:
320,192,10779,1,0,0:0:0:0:
192,192,10937,1,0,0:0:0:0:
320,192,10937,1,0,0:0:0:0:
64,192,11095,1,0,0:0:0:0:
448,192,11095,1,0,0:0:0:0:
320,192,11174,1,0,0:0:0:0:
192,192,11253,1,0,0:0:0:0:
448,192,11253,1,0,0:0:0:0:
320,192,11332,1,0,0:0:0:0:
64,192,11411,1,0,0:0:0:0:
192,192,11411,1,0,0:0:0:0:
192,192,11569,1,0,0:0:0:0:
448,192,11569,1,0,0:0:0:0:
64,192,11727,1,0,0:0:0:0:
320,192,11727,1,0,0:0:0:0:
192,192,11806,1,0,0:0:0:0:
320,192,11885,1,0,0:0:0:0:
448,192,11885,1,0,0:0:0:0:
192,192,11964,1,0,0:0:0:0:
64,192,12043,1,0,0:0:0:0:
320,192,12043,1,0,0:0:0:0:
192,192,12200,1,0,0:0:0:0:
320,192,12200,1,0,0:0:0:0:
64,192,12358,1,0,0:0:0:0:
448,192,12358,1,0,0:0:0:0:
320,192,12437,1,0,0:0:0:0:
192,192,12516,1,0,0:0:0:0:
448,192,12516,1,0,0:0:0:0:
320,192,12595,1,0,0:0:0:0:
64,192,12674,1,0,0:0:0:0:
192,192,12674,1,0,0:0:0:0:
192,192,12832,1,0,0:0:0:0:
448,192,12832,1,0,0:0:0:0:
64,192,12990,1,0,0:0:0:0:
320,192,12990,1,0,0:0:0:0:
192,192,13069,1,0,0:0:0:0:
320,192,13148,1,0,0:0:0:0:
448,192,13148,1,0,0:0:0:0:
192,192,13227,1,0,0:0:0:0:
64,192,13306,1,0,0:0:0:0:
320,192,13306,1,0,0:0:0:0:
192,192,13464,1,0,0:0:0:0:
320,192,13464,1,0,0:0:0:0:
64,192,13621,1,0,0:0:0:0:
448,192,13621,1,0,0:0:0:0:
320,192,13700,1,0,0:0:0:0:
192,192,13779,1,0,0:0:0:0:
448,192,13779,1,0,0:0:0:0:
320,192,13858,1,0,0:0:0:0:
192,192,13937,1,0,0:0:0:0:
64,192,13937,1,0,0:0:0:0:
192,192,14095,1,0,0:0:0:0:
448,192,14095,1,0,0:0:0:0:
64,192,14253,1,0,0:0:0:0:
320,192,14253,1,0,0:0:0:0:
192,192,14332,1,0,0:0:0:0:
320,192,14411,1,0,0:0:0:0:
448,192,14411,1,0,0:0:0:0:
192,192,14490,1,0,0:0:0:0:
64,192,14569,1,0,0:0:0:0:
320,192,14569,1,0,0:0:0:0:
192,192,14727,1,0,0:0:0:0:
320,192,14727,1,0,0:0:0:0:
64,192,14885,1,0,0:0:0:0:
448,192,14885,1,0,0:0:0:0:
320,192,14964,1,0,0:0:0:0:
192,192,15043,1,0,0:0:0:0:
448,192,15043,1,0,0:0:0:0:
320,192,15121,1,0,0:0:0:0:
192,192,15200,1,0,0:0:0:0:
64,192,15200,1,0,0:0:0:0:
448,192,15279,1,0,0:0:0:0:
192,192,15358,1,0,0:0:0:0:
320,192,15358,1,0,0:0:0:0:
448,192,15437,1,0,0:0:0:0:
64,192,15516,1,0,0:0:0:0:
320,192,15516,1,0,0:0:0:0:
192,192,15595,1,0,0:0:0:0:
320,192,15674,1,0,0:0:0:0:
64,192,15674,1,0,0:0:0:0:
448,192,15753,1,0,0:0:0:0:
64,192,15832,1,0,0:0:0:0:
192,192,15832,1,0,0:0:0:0:
448,192,15911,1,0,0:0:0:0:
192,192,15990,1,0,0:0:0:0:
320,192,15990,1,0,0:0:0:0:
448,192,16069,1,0,0:0:0:0:
64,192,16148,1,0,0:0:0:0:
320,192,16148,1,0,0:0:0:0:
192,192,16227,1,0,0:0:0:0:
320,192,16306,1,0,0:0:0:0:
64,192,16306,1,0,0:0:0:0:
448,192,16385,1,0,0:0:0:0:
64,192,16464,1,0,0:0:0:0:
192,192,16464,1,0,0:0:0:0:
448,192,16543,1,0,0:0:0:0:
192,192,16621,1,0,0:0:0:0:
320,192,16621,1,0,0:0:0:0:
448,192,16700,1,0,0:0:0:0:
64,192,16779,1,0,0:0:0:0:
320,192,16779,1,0,0:0:0:0:
192,192,16858,1,0,0:0:0:0:
320,192,16937,1,0,0:0:0:0:
64,192,16937,1,0,0:0:0:0:
448,192,17016,1,0,0:0:0:0:
64,192,17095,1,0,0:0:0:0:
192,192,17095,1,0,0:0:0:0:
448,192,17174,1,0,0:0:0:0:
192,192,17253,1,0,0:0:0:0:
320,192,17253,1,0,0:0:0:0:
448,192,17332,1,0,0:0:0:0:
64,192,17411,1,0,0:0:0:0:
320,192,17411,1,0,0:0:0:0:
192,192,17490,1,0,0:0:0:0:
320,192,17569,1,0,0:0:0:0:
64,192,17569,1,0,0:0:0:0:
448,192,17648,1,0,0:0:0:0:
64,192,17727,1,0,0:0:0:0:
192,192,17727,1,0,0:0:0:0:
320,192,17806,1,0,0:0:0:0:
448,192,17806,1,0,0:0:0:0:
64,192,17885,1,0,0:0:0:0:
192,192,17885,1,0,0:0:0:0:
320,192,17964,1,0,0:0:0:0:
448,192,17964,1,0,0:0:0:0:
64,192,18043,1,0,0:0:0:0:
192,192,18043,1,0,0:0:0:0:
320,192,18121,1,0,0:0:0:0:
448,192,18121,1,0,0:0:0:0:
192,192,18200,1,0,0:0:0:0:
64,192,18200,1,0,0:0:0:0:
320,192,18279,1,0,0:0:0:0:
448,192,18279,1,0,0:0:0:0:
192,192,18358,1,0,0:0:0:0:
64,192,18358,1,0,0:0:0:0:
448,192,18437,1,0,0:0:0:0:
320,192,18437,1,0,0:0:0:0:
192,192,18516,1,0,0:0:0:0:
64,192,18516,1,0,0:0:0:0:
320,192,18595,1,0,0:0:0:0:
448,192,18595,1,0,0:0:0:0:
192,192,18674,1,0,0:0:0:0:
64,192,18674,1,0,0:0:0:0:
320,192,18753,1,0,0:0:0:0:
448,192,18753,1,0,0:0:0:0:
192,192,18832,1,0,0:0:0:0:
64,192,18832,1,0,0:0:0:0:
320,192,18911,1,0,0:0:0:0:
448,192,18911,1,0,0:0:0:0:
64,192,18990,1,0,0:0:0:0:
64,192,19148,1,0,0:0:0:0:
64,192,19227,1,0,0:0:0:0:
64,192,19385,1,0,0:0:0:0:
64,192,19464,1,0,0:0:0:0:
64,192,19621,1,0,0:0:0:0:
64,192,19740,1,0,0:0:0:0:
64,192,19858,1,0,0:0:0:0:
64,192,19937,1,0,0:0:0:0:
448,192,19937,1,0,0:0:0:0:
64,192,20253,1,0,0:0:0:0:
448,192,20253,1,0,0:0:0:0:
192,192,20332,1,0,0:0:0:0:
64,192,20411,1,0,0:0:0:0:
320,192,20411,1,0,0:0:0:0:
448,192,20490,1,0,0:0:0:0:
320,192,20569,1,0,0:0:0:0:
192,192,20569,1,0,0:0:0:0:
448,192,20648,1,0,0:0:0:0:
64,192,20727,1,0,0:0:0:0:
320,192,20727,1,0,0:0:0:0:
192,192,20806,1,0,0:0:0:0:
64,192,20885,1,0,0:0:0:0:
448,192,20885,1,0,0:0:0:0:
192,192,20964,1,0,0:0:0:0:
64,192,21043,1,0,0:0:0:0:
320,192,21043,1,0,0:0:0:0:
448,192,21121,1,0,0:0:0:0:
320,192,21200,1,0,0:0:0:0:
192,192,21200,1,0,0:0:0:0:
448,192,21279,1,0,0:0:0:0:
64,192,21358,1,0,0:0:0:0:
320,192,21358,1,0,0:0:0:0:
192,192,21437,1,0,0:0:0:0:
64,192,21516,1,0,0:0:0:0:
448,192,21516,1,0,0:0:0:0:
192,192,21595,1,0,0:0:0:0:
64,192,21674,1,0,0:0:0:0:
320,192,21674,1,0,0:0:0:0:
448,192,21753,1,0,0:0:0:0:
320,192,21832,1,0,0:0:0:0:
192,192,21832,1,0,0:0:0:0:
448,192,21911,1,0,0:0:0:0:
64,192,21990,1,0,0:0:0:0:
320,192,21990,1,0,0:0:0:0:
192,192,22069,1,0,0:0:0:0:
64,192,22148,1,0,0:0:0:0:
448,192,22148,1,0,0:0:0:0:
192,192,22227,1,0,0:0:0:0:
64,192,22306,1,0,0:0:0:0:
320,192,22306,1,0,0:0:0:0:
448,192,22385,1,0,0:0:0:0:
64,192,22464,1,0,0:0:0:0:
448,192,22543,1,0,0:0:0:0:
320,192,22621,1,0,0:0:0:0:
192,192,22700,1,0,0:0:0:0:
64,192,22779,1,0,0:0:0:0:
448,192,22779,1,0,0:0:0:0:
192,192,22858,1,0,0:0:0:0:
64,192,22937,1,0,0:0:0:0:
320,192,22937,1,0,0:0:0:0:
448,192,23016,1,0,0:0:0:0:
192,192,23095,1,0,0:0:0:0:
320,192,23095,1,0,0:0:0:0:
448,192,23174,1,0,0:0:0:0:
64,192,23253,1,0,0:0:0:0:
320,192,23253,1,0,0:0:0:0:
192,192,23332,1,0,0:0:0:0:
64,192,23411,1,0,0:0:0:0:
448,192,23411,1,0,0:0:0:0:
192,192,23490,1,0,0:0:0:0:
64,192,23569,1,0,0:0:0:0:
320,192,23569,1,0,0:0:0:0:
448,192,23648,1,0,0:0:0:0:
192,192,23727,1,0,0:0:0:0:
320,192,23727,1,0,0:0:0:0:
448,192,23806,1,0,0:0:0:0:
64,192,23885,1,0,0:0:0:0:
320,192,23885,1,0,0:0:0:0:
192,192,23964,1,0,0:0:0:0:
64,192,24043,128,0,25227:0:0:0:0:
448,192,24043,1,0,0:0:0:0:
192,192,24121,1,0,0:0:0:0:
320,192,24200,1,0,0:0:0:0:
448,192,24279,1,0,0:0:0:0:
192,192,24358,1,0,0:0:0:0:
448,192,24437,1,0,0:0:0:0:
320,192,24516,1,0,0:0:0:0:
192,192,24595,1,0,0:0:0:0:
448,192,24674,1,0,0:0:0:0:
192,192,24753,1,0,0:0:0:0:
320,192,24832,1,0,0:0:0:0:
448,192,24911,1,0,0:0:0:0:
192,192,24990,1,0,0:0:0:0:
448,192,25069,1,0,0:0:0:0:
320,192,25148,1,0,0:0:0:0:
192,192,25227,1,0,0:0:0:0:
64,192,25306,1,0,0:0:0:0:
448,192,25306,1,0,0:0:0:0:
192,192,25385,1,0,0:0:0:0:
64,192,25464,1,0,0:0:0:0:
320,192,25464,1,0,0:0:0:0:
448,192,25543,1,0,0:0:0:0:
192,192,25621,1,0,0:0:0:0:
320,192,25621,1,0,0:0:0:0:
448,192,25700,1,0,0:0:0:0:
64,192,25779,1,0,0:0:0:0:
320,192,25779,1,0,0:0:0:0:
192,192,25858,1,0,0:0:0:0:
64,192,25937,1,0,0:0:0:0:
448,192,25937,1,0,0:0:0:0:
192,192,26016,1,0,0:0:0:0:
64,192,26095,1,0,0:0:0:0:
320,192,26095,1,0,0:0:0:0:
448,192,26174,1,0,0:0:0:0:
192,192,26253,1,0,0:0:0:0:
320,192,26253,1,0,0:0:0:0:
448,192,26332,1,0,0:0:0:0:
64,192,26411,1,0,0:0:0:0:
320,192,26411,1,0,0:0:0:0:
192,192,26490,1,0,0:0:0:0:
64,192,26569,1,0,0:0:0:0:
448,192,26569,1,0,0:0:0:0:
192,192,26648,1,0,0:0:0:0:
64,192,26727,1,0,0:0:0:0:
320,192,26727,1,0,0:0:0:0:
448,192,26806,1,0,0:0:0:0:
192,192,26885,1,0,0:0:0:0:
320,192,26885,1,0,0:0:0:0:
448,192,26964,1,0,0:0:0:0:
64,192,27043,1,0,0:0:0:0:
320,192,27043,1,0,0:0:0:0:
192,192,27121,1,0,0:0:0:0:
64,192,27200,1,0,0:0:0:0:
448,192,27200,1,0,0:0:0:0:
192,192,27279,1,0,0:0:0:0:
64,192,27358,1,0,0:0:0:0:
320,192,27358,1,0,0:0:0:0:
448,192,27437,1,0,0:0:0:0:
64,192,27516,1,0,0:0:0:0:
448,192,27595,1,0,0:0:0:0:
320,192,27674,1,0,0:0:0:0:
192,192,27753,1,0,0:0:0:0:
64,192,27832,1,0,0:0:0:0:
448,192,27832,1,0,0:0:0:0:
192,192,27911,1,0,0:0:0:0:
64,192,27990,1,0,0:0:0:0:
320,192,27990,1,0,0:0:0:0:
448,192,28069,1,0,0:0:0:0:
192,192,28148,1,0,0:0:0:0:
320,192,28148,1,0,0:0:0:0:
448,192,28227,1,0,0:0:0:0:
64,192,28306,1,0,0:0:0:0:
320,192,28306,1,0,0:0:0:0:
192,192,28385,1,0,0:0:0:0:
64,192,28464,1,0,0:0:0:0:
448,192,28464,1,0,0:0:0:0:
192,192,28543,1,0,0:0:0:0:
320,192,28621,1,0,0:0:0:0:
64,192,28621,1,0,0:0:0:0:
448,192,28700,1,0,0:0:0:0:
192,192,28779,1,0,0:0:0:0:
320,192,28779,1,0,0:0:0:0:
448,192,28858,1,0,0:0:0:0:
64,192,28937,1,0,0:0:0:0:
320,192,28937,1,0,0:0:0:0:
192,192,29016,1,0,0:0:0:0:
64,192,29095,1,0,0:0:0:0:
448,192,29095,1,0,0:0:0:0:
320,192,29095,1,0,0:0:0:0:
64,192,29411,1,0,0:0:0:0:
192,192,29411,1,0,0:0:0:0:
448,192,29411,1,0,0:0:0:0:
192,192,29727,1,0,0:0:0:0:
320,192,29727,1,0,0:0:0:0:
448,192,29727,1,0,0:0:0:0:
64,192,29885,1,0,0:0:0:0:
192,192,29885,1,0,0:0:0:0:
320,192,29885,1,0,0:0:0:0:
448,192,30043,1,0,0:0:0:0:
64,192,30358,1,0,0:0:0:0:
320,192,30358,1,0,0:0:0:0:
192,192,30516,1,0,0:0:0:0:
448,192,30516,1,0,0:0:0:0:
64,192,30674,1,0,0:0:0:0:
192,192,30674,1,0,0:0:0:0:
192,192,30832,1,0,0:0:0:0:
448,192,30832,1,0,0:0:0:0:
64,192,30990,1,0,0:0:0:0:
320,192,30990,1,0,0:0:0:0:
192,192,31148,1,0,0:0:0:0:
448,192,31148,1,0,0:0:0:0:
192,192,31306,1,0,0:0:0:0:
64,192,31306,1,0,0:0:0:0:
192,192,31464,1,0,0:0:0:0:
448,192,31464,1,0,0:0:0:0:
64,192,31621,1,0,0:0:0:0:
320,192,31621,1,0,0:0:0:0:
192,192,31779,1,0,0:0:0:0:
448,192,31779,1,0,0:0:0:0:
64,192,31937,1,0,0:0:0:0:
192,192,31937,1,0,0:0:0:0:
192,192,32095,1,0,0:0:0:0:
448,192,32095,1,0,0:0:0:0:
64,192,32253,1,0,0:0:0:0:
320,192,32253,1,0,0:0:0:0:
192,192,32411,1,0,0:0:0:0:
448,192,32411,1,0,0:0:0:0:
64,192,32569,1,0,0:0:0:0:
448,192,32569,1,0,0:0:0:0:
192,192,32727,1,0,0:0:0:0:
320,192,32806,1,0,0:0:0:0:
64,192,32885,1,0,0:0:0:0:
192,192,32885,1,0,0:0:0:0:
448,192,33043,1,0,0:0:0:0:
320,192,33043,1,0,0:0:0:0:
64,192,33200,1,0,0:0:0:0:
320,192,33200,1,0,0:0:0:0:
320,192,33358,1,0,0:0:0:0:
448,192,33358,1,0,0:0:0:0:
64,192,33516,1,0,0:0:0:0:
192,192,33516,1,0,0:0:0:0:
320,192,33674,1,0,0:0:0:0:
448,192,33674,1,0,0:0:0:0:
64,192,33832,1,0,0:0:0:0:
320,192,33832,1,0,0:0:0:0:
320,192,33990,1,0,0:0:0:0:
448,192,33990,1,0,0:0:0:0:
64,192,34148,1,0,0:0:0:0:
192,192,34148,1,0,0:0:0:0:
320,192,34306,1,0,0:0:0:0:
448,192,34306,1,0,0:0:0:0:
64,192,34464,1,0,0:0:0:0:
320,192,34464,1,0,0:0:0:0:
320,192,34621,1,0,0:0:0:0:
448,192,34621,1,0,0:0:0:0:
64,192,34779,1,0,0:0:0:0:
192,192,34779,1,0,0:0:0:0:
320,192,34937,1,0,0:0:0:0:
448,192,34937,1,0,0:0:0:0:
64,192,35095,128,0,35332:0:0:0:0:
192,192,35095,1,0,0:0:0:0:
320,192,35174,1,0,0:0:0:0:
192,192,35253,1,0,0:0:0:0:
320,192,35332,1,0,0:0:0:0:
64,192,35411,1,0,0:0:0:0:
448,192,35411,1,0,0:0:0:0:
64,192,35569,1,0,0:0:0:0:
320,192,35569,1,0,0:0:0:0:
192,192,35727,1,0,0:0:0:0:
448,192,35727,1,0,0:0:0:0:
64,192,35885,1,0,0:0:0:0:
192,192,35885,1,0,0:0:0:0:
320,192,36043,1,0,0:0:0:0:
448,192,36043,1,0,0:0:0:0:
64,192,36200,1,0,0:0:0:0:
320,192,36200,1,0,0:0:0:0:
192,192,36358,1,0,0:0:0:0:
448,192,36358,1,0,0:0:0:0:
320,192,36516,1,0,0:0:0:0:
448,192,36516,1,0,0:0:0:0:
192,192,36595,1,0,0:0:0:0:
64,192,36595,1,0,0:0:0:0:
320,192,36674,1,0,0:0:0:0:
448,192,36674,1,0,0:0:0:0:
448,192,36832,1,0,0:0:0:0:
192,192,36832,1,0,0:0:0:0:
64,192,36990,1,0,0:0:0:0:
320,192,36990,1,0,0:0:0:0:
320,192,37148,1,0,0:0:0:0:
448,192,37148,1,0,0:0:0:0:
64,192,37306,1,0,0:0:0:0:
192,192,37306,1,0,0:0:0:0:
192,192,37464,1,0,0:0:0:0:
448,192,37464,1,0,0:0:0:0:
64,192,37621,1,0,0:0:0:0:
320,192,37621,1,0,0:0:0:0:
64,192,37779,1,0,0:0:0:0:
192,192,37779,1,0,0:0:0:0:
448,192,37858,1,0,0:0:0:0:
320,192,37858,1,0,0:0:0:0:
64,192,37937,1,0,0:0:0:0:
192,192,38016,1,0,0:0:0:0:
320,192,38095,1,0,0:0:0:0:
448,192,38174,1,0,0:0:0:0:
64,192,38253,1,0,0:0:0:0:
320,192,38332,1,0,0:0:0:0:
192,192,38411,1,0,0:0:0:0:
448,192,38490,1,0,0:0:0:0:
64,192,38569,1,0,0:0:0:0:
192,192,38648,1,0,0:0:0:0:
320,192,38727,1,0,0:0:0:0:
448,192,38806,1,0,0:0:0:0:
64,192,38885,1,0,0:0:0:0:
448,192,38964,1,0,0:0:0:0:
192,192,39043,1,0,0:0:0:0:
320,192,39121,1,0,0:0:0:0:
64,192,39200,1,0,0:0:0:0:
192,192,39279,1,0,0:0:0:0:
320,192,39358,1,0,0:0:0:0:
448,192,39437,1,0,0:0:0:0:
64,192,39516,1,0,0:0:0:0:
320,192,39595,1,0,0:0:0:0:
192,192,39674,1,0,0:0:0:0:
448,192,39753,1,0,0:0:0:0:
64,192,39832,1,0,0:0:0:0:
192,192,39832,1,0,0:0:0:0:
320,192,39911,1,0,0:0:0:0:
448,192,39911,1,0,0:0:0:0:
64,192,39990,1,0,0:0:0:0:
192,192,39990,1,0,0:0:0:0:
320,192,40069,1,0,0:0:0:0:
448,192,40069,1,0,0:0:0:0:
64,192,40148,1,0,0:0:0:0:
192,192,40148,1,0,0:0:0:0:
320,192,40227,1,0,0:0:0:0:
448,192,40227,1,0,0:0:0:0:
64,192,40306,1,0,0:0:0:0:
192,192,40306,1,0,0:0:0:0:
320,192,40385,1,0,0:0:0:0:
448,192,40385,1,0,0:0:0:0:
192,192,40464,128,0,41411:0:0:0:0:
64,192,41411,1,0,0:0:0:0:
320,192,41569,128,0,42043:0:0:0:0:
192,192,42043,1,0,0:0:0:0:
192,192,42358,1,0,0:0:0:0:
64,192,42674,1,0,0:0:0:0:
192,192,42832,128,0,43779:0:0:0:0:
64,192,43779,1,0,0:0:0:0:
320,192,43937,1,0,0:0:0:0:
192,192,44095,128,0,44885:0:0:0:0:
64,192,44885,128,0,45516:0:0:0:0:
192,192,45516,128,0,46464:0:0:0:0:
320,192,45516,1,0,0:0:0:0:
448,192,45674,1,0,0:0:0:0:
448,192,45832,1,0,0:0:0:0:
320,192,45990,1,0,0:0:0:0:
448,192,46148,1,0,0:0:0:0:
448,192,46306,1,0,0:0:0:0:
64,192,46464,1,0,0:0:0:0:
448,192,46621,1,0,0:0:0:0:
320,192,46621,128,0,47095:0:0:0:0:
64,192,46779,1,0,0:0:0:0:
192,192,46937,1,0,0:0:0:0:
192,192,47095,1,0,0:0:0:0:
448,192,47095,1,0,0:0:0:0:
64,192,47253,1,0,0:0:0:0:
448,192,47411,1,0,0:0:0:0:
192,192,47411,1,0,0:0:0:0:
192,192,47569,1,0,0:0:0:0:
64,192,47727,1,0,0:0:0:0:
320,192,47727,1,0,0:0:0:0:
192,192,47885,1,0,0:0:0:0:
448,192,47885,128,0,48832:0:0:0:0:
64,192,48043,1,0,0:0:0:0:
320,192,48200,1,0,0:0:0:0:
320,192,48358,1,0,0:0:0:0:
64,192,48516,1,0,0:0:0:0:
320,192,48674,1,0,0:0:0:0:
320,192,48832,1,0,0:0:0:0:
192,192,48832,1,0,0:0:0:0:
64,192,48990,1,0,0:0:0:0:
448,192,48990,1,0,0:0:0:0:
192,192,49148,1,0,0:0:0:0:
320,192,49148,128,0,49937:0:0:0:0:
64,192,49306,1,0,0:0:0:0:
448,192,49464,1,0,0:0:0:0:
448,192,49621,1,0,0:0:0:0:
64,192,49779,1,0,0:0:0:0:
448,192,49937,1,0,0:0:0:0:
192,192,49937,128,0,50569:0:0:0:0:
448,192,50095,1,0,0:0:0:0:
64,192,50253,1,0,0:0:0:0:
448,192,50411,1,0,0:0:0:0:
64,192,50569,1,0,0:0:0:0:
320,192,50569,1,0,0:0:0:0:
192,192,50648,1,0,0:0:0:0:
448,192,50727,1,0,0:0:0:0:
192,192,50806,1,0,0:0:0:0:
320,192,50885,1,0,0:0:0:0:
64,192,50964,1,0,0:0:0:0:
320,192,51043,1,0,0:0:0:0:
192,192,51121,1,0,0:0:0:0:
448,192,51200,1,0,0:0:0:0:
64,192,51279,1,0,0:0:0:0:
448,192,51358,1,0,0:0:0:0:
64,192,51437,1,0,0:0:0:0:
448,192,51516,1,0,0:0:0:0:
192,192,51595,1,0,0:0:0:0:
448,192,51674,1,0,0:0:0:0:
320,192,51753,1,0,0:0:0:0:
64,192,51832,1,0,0:0:0:0:
192,192,51911,1,0,0:0:0:0:
448,192,51990,1,0,0:0:0:0:
192,192,52069,1,0,0:0:0:0:
320,192,52148,1,0,0:0:0:0:
64,192,52227,1,0,0:0:0:0:
320,192,52306,1,0,0:0:0:0:
192,192,52385,1,0,0:0:0:0:
448,192,52464,1,0,0:0:0:0:
64,192,52543,1,0,0:0:0:0:
448,192,52621,1,0,0:0:0:0:
64,192,52700,1,0,0:0:0:0:
448,192,52779,1,0,0:0:0:0:
192,192,52858,1,0,0:0:0:0:
448,192,52937,1,0,0:0:0:0:
320,192,53016,1,0,0:0:0:0:
64,192,53095,1,0,0:0:0:0:
192,192,53174,1,0,0:0:0:0:
448,192,53253,1,0,0:0:0:0:
192,192,53332,1,0,0:0:0:0:
320,192,53411,1,0,0:0:0:0:
64,192,53490,1,0,0:0:0:0:
320,192,53569,1,0,0:0:0:0:
192,192,53648,1,0,0:0:0:0:
448,192,53727,1,0,0:0:0:0:
64,192,53806,1,0,0:0:0:0:
448,192,53885,1,0,0:0:0:0:
64,192,53964,1,0,0:0:0:0:
448,192,54043,1,0,0:0:0:0:
192,192,54121,1,0,0:0:0:0:
448,192,54200,1,0,0:0:0:0:
320,192,54279,1,0,0:0:0:0:
64,192,54358,1,0,0:0:0:0:
192,192,54437,1,0,0:0:0:0:
448,192,54516,1,0,0:0:0:0:
192,192,54595,1,0,0:0:0:0:
320,192,54674,1,0,0:0:0:0:
64,192,54753,1,0,0:0:0:0:
320,192,54832,1,0,0:0:0:0:
192,192,54911,1,0,0:0:0:0:
448,192,54990,1,0,0:0:0:0:
64,192,55069,1,0,0:0:0:0:
448,192,55148,1,0,0:0:0:0:
64,192,55227,1,0,0:0:0:0:
448,192,55306,1,0,0:0:0:0:
192,192,55385,1,0,0:0:0:0:
448,192,55464,1,0,0:0:0:0:
320,192,55543,1,0,0:0:0:0:
64,192,55621,1,0,0:0:0:0:
192,192,55700,1,0,0:0:0:0:
448,192,55779,1,0,0:0:0:0:
64,192,55858,1,0,0:0:0:0:
320,192,55937,1,0,0:0:0:0:
192,192,56016,1,0,0:0:0:0:
448,192,56095,1,0,0:0:0:0:
64,192,56174,1,0,0:0:0:0:
320,192,56253,1,0,0:0:0:0:
192,192,56332,1,0,0:0:0:0:
320,192,56411,1,0,0:0:0:0:
192,192,56490,1,0,0:0:0:0:
320,192,56569,1,0,0:0:0:0:
64,192,56648,1,0,0:0:0:0:
448,192,56727,1,0,0:0:0:0:
320,192,56806,1,0,0:0:0:0:
64,192,56885,1,0,0:0:0:0:
192,192,56964,1,0,0:0:0:0:
448,192,57043,1,0,0:0:0:0:
64,192,57121,1,0,0:0:0:0:
320,192,57200,1,0,0:0:0:0:
192,192,57279,1,0,0:0:0:0:
448,192,57358,1,0,0:0:0:0:
64,192,57437,1,0,0:0:0:0:
320,192,57516,1,0,0:0:0:0:
192,192,57595,1,0,0:0:0:0:
320,192,57674,1,0,0:0:0:0:
192,192,57753,1,0,0:0:0:0:
320,192,57832,1,0,0:0:0:0:
64,192,57911,1,0,0:0:0:0:
448,192,57990,1,0,0:0:0:0:
320,192,58069,1,0,0:0:0:0:
64,192,58148,1,0,0:0:0:0:
448,192,58148,1,0,0:0:0:0:
192,192,58227,1,0,0:0:0:0:
448,192,58306,1,0,0:0:0:0:
320,192,58306,1,0,0:0:0:0:
64,192,58385,1,0,0:0:0:0:
320,192,58464,1,0,0:0:0:0:
448,192,58464,1,0,0:0:0:0:
192,192,58543,1,0,0:0:0:0:
448,192,58621,1,0,0:0:0:0:
320,192,58621,1,0,0:0:0:0:
64,192,58700,1,0,0:0:0:0:
320,192,58779,1,0,0:0:0:0:
448,192,58779,1,0,0:0:0:0:
192,192,58858,1,0,0:0:0:0:
320,192,58937,1,0,0:0:0:0:
448,192,58937,1,0,0:0:0:0:
192,192,59016,1,0,0:0:0:0:
320,192,59095,1,0,0:0:0:0:
448,192,59095,1,0,0:0:0:0:
64,192,59174,1,0,0:0:0:0:
448,192,59253,1,0,0:0:0:0:
320,192,59253,1,0,0:0:0:0:
192,192,59332,1,0,0:0:0:0:
64,192,59411,1,0,0:0:0:0:
448,192,59411,1,0,0:0:0:0:
192,192,59490,1,0,0:0:0:0:
448,192,59569,1,0,0:0:0:0:
320,192,59569,1,0,0:0:0:0:
64,192,59648,1,0,0:0:0:0:
320,192,59727,1,0,0:0:0:0:
448,192,59727,1,0,0:0:0:0:
192,192,59806,1,0,0:0:0:0:
448,192,59885,1,0,0:0:0:0:
320,192,59885,1,0,0:0:0:0:
64,192,59964,1,0,0:0:0:0:
320,192,60043,1,0,0:0:0:0:
448,192,60043,1,0,0:0:0:0:
192,192,60121,1,0,0:0:0:0:
320,192,60200,1,0,0:0:0:0:
448,192,60200,1,0,0:0:0:0:
192,192,60279,1,0,0:0:0:0:
320,192,60358,1,0,0:0:0:0:
448,192,60358,1,0,0:0:0:0:
64,192,60437,1,0,0:0:0:0:
448,192,60516,1,0,0:0:0:0:
320,192,60516,1,0,0:0:0:0:
192,192,60595,1,0,0:0:0:0:
64,192,60674,1,0,0:0:0:0:
448,192,60674,1,0,0:0:0:0:
320,192,60674,1,0,0:0:0:0:
192,192,60753,1,0,0:0:0:0:
320,192,60832,1,0,0:0:0:0:
448,192,60911,1,0,0:0:0:0:
64,192,61148,1,0,0:0:0:0:
192,192,61148,1,0,0:0:0:0:
448,192,61148,1,0,0:0:0:0:
320,192,61227,1,0,0:0:0:0:
192,192,61306,1,0,0:0:0:0:
64,192,61385,1,0,0:0:0:0:
64,192,61621,1,0,0:0:0:0:
320,192,61621,1,0,0:0:0:0:
448,192,61621,1,0,0:0:0:0:
192,192,61700,1,0,0:0:0:0:
320,192,61779,1,0,0:0:0:0:
448,192,61858,1,0,0:0:0:0:
64,192,61937,1,0,0:0:0:0:
64,192,62095,1,0,0:0:0:0:
448,192,62253,1,0,0:0:0:0:
64,192,62253,1,0,0:0:0:0:
64,192,62411,1,0,0:0:0:0:
320,192,62490,1,0,0:0:0:0:
64,192,62569,1,0,0:0:0:0:
320,192,62648,1,0,0:0:0:0:
64,192,62727,1,0,0:0:0:0:
192,192,62727,1,0,0:0:0:0:
64,192,62885,1,0,0:0:0:0:
64,192,63043,1,0,0:0:0:0:
448,192,63043,1,0,0:0:0:0:
64,192,63200,1,0,0:0:0:0:
192,192,63200,1,0,0:0:0:0:
320,192,63200,1,0,0:0:0:0:
448,192,63279,1,0,0:0:0:0:
192,192,63358,1,0,0:0:0:0:
320,192,63437,1,0,0:0:0:0:
192,192,63674,1,0,0:0:0:0:
320,192,63674,1,0,0:0:0:0:
448,192,63674,1,0,0:0:0:0:
64,192,63753,1,0,0:0:0:0:
320,192,63832,1,0,0:0:0:0:
192,192,63911,1,0,0:0:0:0:
64,192,64148,1,0,0:0:0:0:
192,192,64148,1,0,0:0:0:0:
320,192,64148,1,0,0:0:0:0:
448,192,64227,1,0,0:0:0:0:
192,192,64306,1,0,0:0:0:0:
320,192,64385,1,0,0:0:0:0:
64,192,64464,1,0,0:0:0:0:
64,192,64621,1,0,0:0:0:0:
64,192,64779,1,0,0:0:0:0:
448,192,64779,1,0,0:0:0:0:
64,192,64937,1,0,0:0:0:0:
320,192,65016,1,0,0:0:0:0:
192,192,65095,1,0,0:0:0:0:
320,192,65174,1,0,0:0:0:0:
192,192,65253,1,0,0:0:0:0:
320,192,65332,1,0,0:0:0:0:
64,192,65411,1,0,0:0:0:0:
448,192,65411,1,0,0:0:0:0:
64,192,65727,1,0,0:0:0:0:
448,192,65727,1,0,0:0:0:0:
192,192,65806,1,0,0:0:0:0:
320,192,65885,1,0,0:0:0:0:
64,192,65885,1,0,0:0:0:0:
448,192,65964,1,0,0:0:0:0:
192,192,66043,1,0,0:0:0:0:
320,192,66043,1,0,0:0:0:0:
448,192,66121,1,0,0:0:0:0:
64,192,66200,1,0,0:0:0:0:
320,192,66200,1,0,0:0:0:0:
192,192,66279,1,0,0:0:0:0:
64,192,66358,1,0,0:0:0:0:
448,192,66358,1,0,0:0:0:0:
192,192,66437,1,0,0:0:0:0:
64,192,66516,1,0,0:0:0:0:
320,192,66516,1,0,0:0:0:0:
448,192,66595,1,0,0:0:0:0:
320,192,66674,1,0,0:0:0:0:
192,192,66674,1,0,0:0:0:0:
448,192,66753,1,0,0:0:0:0:
64,192,66832,1,0,0:0:0:0:
192,192,66832,1,0,0:0:0:0:
448,192,66911,1,0,0:0:0:0:
320,192,66911,1,0,0:0:0:0:
64,192,66990,1,0,0:0:0:0:
192,192,66990,1,0,0:0:0:0:
320,192,67069,1,0,0:0:0:0:
64,192,67148,1,0,0:0:0:0:
448,192,67148,1,0,0:0:0:0:
192,192,67227,1,0,0:0:0:0:
64,192,67306,1,0,0:0:0:0:
448,192,67306,1,0,0:0:0:0:
320,192,67385,1,0,0:0:0:0:
192,192,67464,1,0,0:0:0:0:
448,192,67464,1,0,0:0:0:0:
64,192,67543,1,0,0:0:0:0:
320,192,67621,1,0,0:0:0:0:
448,192,67621,1,0,0:0:0:0:
64,192,67700,1,0,0:0:0:0:
192,192,67779,1,0,0:0:0:0:
448,192,67779,1,0,0:0:0:0:
320,192,67858,1,0,0:0:0:0:
64,192,67937,1,0,0:0:0:0:
448,192,67937,1,0,0:0:0:0:
320,192,68016,1,0,0:0:0:0:
192,192,68095,1,0,0:0:0:0:
64,192,68095,1,0,0:0:0:0:
320,192,68174,1,0,0:0:0:0:
448,192,68174,1,0,0:0:0:0:
192,192,68253,1,0,0:0:0:0:
64,192,68253,1,0,0:0:0:0:
448,192,68332,1,0,0:0:0:0:
320,192,68332,1,0,0:0:0:0:
192,192,68411,1,0,0:0:0:0:
64,192,68411,1,0,0:0:0:0:
448,192,68490,1,0,0:0:0:0:
320,192,68490,1,0,0:0:0:0:
192,192,68569,1,0,0:0:0:0:
64,192,68569,1,0,0:0:0:0:
448,192,68648,1,0,0:0:0:0:
320,192,68648,1,0,0:0:0:0:
64,192,68727,1,0,0:0:0:0:
192,192,68727,1,0,0:0:0:0:
320,192,68806,1,0,0:0:0:0:
448,192,68806,1,0,0:0:0:0:
64,192,68885,1,0,0:0:0:0:
192,192,68885,1,0,0:0:0:0:
320,192,68964,1,0,0:0:0:0:
448,192,68964,1,0,0:0:0:0:
192,192,69043,1,0,0:0:0:0:
64,192,69043,1,0,0:0:0:0:
448,192,69121,1,0,0:0:0:0:
320,192,69121,1,0,0:0:0:0:
192,192,69200,1,0,0:0:0:0:
64,192,69200,1,0,0:0:0:0:
448,192,69279,1,0,0:0:0:0:
320,192,69279,1,0,0:0:0:0:
64,192,69358,1,0,0:0:0:0:
192,192,69358,1,0,0:0:0:0:
320,192,69437,1,0,0:0:0:0:
448,192,69437,1,0,0:0:0:0:
64,192,69516,1,0,0:0:0:0:
64,192,69832,1,0,0:0:0:0:
64,192,69990,1,0,0:0:0:0:
64,192,70148,1,0,0:0:0:0:
64,192,70464,1,0,0:0:0:0:
448,192,70464,1,0,0:0:0:0:
64,192,70779,1,0,0:0:0:0:
192,192,70779,1,0,0:0:0:0:
320,192,70937,1,0,0:0:0:0:
448,192,70937,1,0,0:0:0:0:
64,192,71095,1,0,0:0:0:0:
192,192,71095,1,0,0:0:0:0:
320,192,71253,1,0,0:0:0:0:
448,192,71253,1,0,0:0:0:0:
320,192,71332,1,0,0:0:0:0:
64,192,71411,1,0,0:0:0:0:
192,192,71411,1,0,0:0:0:0:
192,192,71569,1,0,0:0:0:0:
448,192,71569,1,0,0:0:0:0:
64,192,71727,1,0,0:0:0:0:
320,192,71727,1,0,0:0:0:0:
192,192,71885,1,0,0:0:0:0:
448,192,71885,1,0,0:0:0:0:
64,192,72043,1,0,0:0:0:0:
192,192,72043,1,0,0:0:0:0:
320,192,72200,1,0,0:0:0:0:
448,192,72200,1,0,0:0:0:0:
64,192,72358,1,0,0:0:0:0:
192,192,72358,1,0,0:0:0:0:
64,192,72516,1,0,0:0:0:0:
448,192,72516,1,0,0:0:0:0:
64,192,72674,128,0,72911:0:0:0:0:
192,192,72674,1,0,0:0:0:0:
448,192,72832,1,0,0:0:0:0:
64,192,72990,1,0,0:0:0:0:
192,192,72990,1,0,0:0:0:0:
320,192,73069,1,0,0:0:0:0:
192,192,73148,1,0,0:0:0:0:
448,192,73148,1,0,0:0:0:0:
320,192,73227,1,0,0:0:0:0:
64,192,73306,1,0,0:0:0:0:
192,192,73306,1,0,0:0:0:0:
320,192,73464,1,0,0:0:0:0:
448,192,73464,1,0,0:0:0:0:
64,192,73621,1,0,0:0:0:0:
192,192,73621,1,0,0:0:0:0:
320,192,73779,1,0,0:0:0:0:
448,192,73779,1,0,0:0:0:0:
320,192,73858,1,0,0:0:0:0:
64,192,73937,1,0,0:0:0:0:
192,192,73937,1,0,0:0:0:0:
192,192,74095,1,0,0:0:0:0:
448,192,74095,1,0,0:0:0:0:
64,192,74253,1,0,0:0:0:0:
320,192,74253,1,0,0:0:0:0:
192,192,74411,1,0,0:0:0:0:
448,192,74411,1,0,0:0:0:0:
64,192,74569,1,0,0:0:0:0:
192,192,74569,1,0,0:0:0:0:
320,192,74727,1,0,0:0:0:0:
448,192,74727,1,0,0:0:0:0:
64,192,74885,1,0,0:0:0:0:
192,192,74885,1,0,0:0:0:0:
64,192,75043,1,0,0:0:0:0:
448,192,75043,1,0,0:0:0:0:
64,192,75200,1,0,0:0:0:0:
192,192,75200,1,0,0:0:0:0:
320,192,75200,1,0,0:0:0:0:
192,192,75358,1,0,0:0:0:0:
320,192,75358,1,0,0:0:0:0:
448,192,75358,1,0,0:0:0:0:
64,192,75516,1,0,0:0:0:0:
64,192,75832,1,0,0:0:0:0:
192,192,75832,1,0,0:0:0:0:
320,192,75990,1,0,0:0:0:0:
448,192,75990,1,0,0:0:0:0:
64,192,76148,1,0,0:0:0:0:
192,192,76148,1,0,0:0:0:0:
320,192,76306,1,0,0:0:0:0:
448,192,76306,1,0,0:0:0:0:
320,192,76385,1,0,0:0:0:0:
64,192,76464,1,0,0:0:0:0:
192,192,76464,1,0,0:0:0:0:
192,192,76621,1,0,0:0:0:0:
448,192,76621,1,0,0:0:0:0:
64,192,76779,1,0,0:0:0:0:
320,192,76779,1,0,0:0:0:0:
192,192,76937,1,0,0:0:0:0:
448,192,76937,1,0,0:0:0:0:
64,192,77095,1,0,0:0:0:0:
192,192,77095,1,0,0:0:0:0:
320,192,77253,1,0,0:0:0:0:
448,192,77253,1,0,0:0:0:0:
64,192,77411,1,0,0:0:0:0:
192,192,77411,1,0,0:0:0:0:
64,192,77569,1,0,0:0:0:0:
448,192,77569,1,0,0:0:0:0:
192,192,77727,1,0,0:0:0:0:
64,192,77727,128,0,77964:0:0:0:0:
448,192,77885,1,0,0:0:0:0:
64,192,78043,1,0,0:0:0:0:
192,192,78043,1,0,0:0:0:0:
320,192,78121,1,0,0:0:0:0:
192,192,78200,1,0,0:0:0:0:
448,192,78200,1,0,0:0:0:0:
320,192,78279,1,0,0:0:0:0:
64,192,78358,1,0,0:0:0:0:
192,192,78358,1,0,0:0:0:0:
320,192,78516,1,0,0:0:0:0:
448,192,78516,1,0,0:0:0:0:
64,192,78674,1,0,0:0:0:0:
192,192,78674,1,0,0:0:0:0:
320,192,78832,1,0,0:0:0:0:
448,192,78832,1,0,0:0:0:0:
320,192,78911,1,0,0:0:0:0:
64,192,78990,1,0,0:0:0:0:
192,192,78990,1,0,0:0:0:0:
192,192,79148,1,0,0:0:0:0:
448,192,79148,1,0,0:0:0:0:
64,192,79306,1,0,0:0:0:0:
320,192,79306,1,0,0:0:0:0:
192,192,79464,1,0,0:0:0:0:
448,192,79464,1,0,0:0:0:0:
64,192,79621,128,0,80490:0:0:0:0:
192,192,79621,1,0,0:0:0:0:
448,192,79621,128,0,80490:0:0:0:0:
320,192,79700,1,0,0:0:0:0:
192,192,79779,1,0,0:0:0:0:
320,192,79858,1,0,0:0:0:0:
192,192,79937,1,0,0:0:0:0:
320,192,80016,1,0,0:0:0:0:
192,192,80095,1,0,0:0:0:0:
320,192,80174,1,0,0:0:0:0:
192,192,80253,1,0,0:0:0:0:
320,192,80332,1,0,0:0:0:0:
192,192,80411,1,0,0:0:0:0:
320,192,80490,1,0,0:0:0:0:
64,192,80569,1,0,0:0:0:0:
448,192,80569,1,0,0:0:0:0:
64,192,80885,1,0,0:0:0:0:
192,192,80885,1,0,0:0:0:0:
192,192,81043,1,0,0:0:0:0:
320,192,81043,1,0,0:0:0:0:
448,192,81043,1,0,0:0:0:0:
64,192,81200,1,0,0:0:0:0:
192,192,81200,1,0,0:0:0:0:
192,192,81358,1,0,0:0:0:0:
320,192,81358,1,0,0:0:0:0:
448,192,81358,1,0,0:0:0:0:
320,192,81437,1,0,0:0:0:0:
64,192,81516,1,0,0:0:0:0:
192,192,81516,1,0,0:0:0:0:
192,192,81674,1,0,0:0:0:0:
320,192,81674,1,0,0:0:0:0:
448,192,81674,1,0,0:0:0:0:
64,192,81832,1,0,0:0:0:0:
320,192,81832,1,0,0:0:0:0:
192,192,81990,1,0,0:0:0:0:
320,192,81990,1,0,0:0:0:0:
448,192,81990,1,0,0:0:0:0:
64,192,82148,1,0,0:0:0:0:
192,192,82148,1,0,0:0:0:0:
192,192,82306,1,0,0:0:0:0:
320,192,82306,1,0,0:0:0:0:
448,192,82306,1,0,0:0:0:0:
64,192,82464,1,0,0:0:0:0:
192,192,82464,1,0,0:0:0:0:
64,192,82621,1,0,0:0:0:0:
320,192,82621,1,0,0:0:0:0:
448,192,82621,1,0,0:0:0:0:
192,192,82779,1,0,0:0:0:0:
64,192,82779,128,0,83016:0:0:0:0:
320,192,82937,1,0,0:0:0:0:
448,192,82937,1,0,0:0:0:0:
64,192,83095,1,0,0:0:0:0:
192,192,83095,1,0,0:0:0:0:
320,192,83174,1,0,0:0:0:0:
64,192,83253,1,0,0:0:0:0:
192,192,83253,1,0,0:0:0:0:
448,192,83253,1,0,0:0:0:0:
320,192,83332,1,0,0:0:0:0:
64,192,83411,1,0,0:0:0:0:
192,192,83411,1,0,0:0:0:0:
192,192,83569,1,0,0:0:0:0:
320,192,83569,1,0,0:0:0:0:
448,192,83569,1,0,0:0:0:0:
64,192,83727,1,0,0:0:0:0:
192,192,83727,1,0,0:0:0:0:
192,192,83885,1,0,0:0:0:0:
448,192,83885,1,0,0:0:0:0:
320,192,83885,1,0,0:0:0:0:
320,192,83964,1,0,0:0:0:0:
64,192,84043,1,0,0:0:0:0:
192,192,84043,1,0,0:0:0:0:
192,192,84200,1,0,0:0:0:0:
320,192,84200,1,0,0:0:0:0:
448,192,84200,1,0,0:0:0:0:
64,192,84358,1,0,0:0:0:0:
320,192,84358,1,0,0:0:0:0:
192,192,84516,1,0,0:0:0:0:
320,192,84516,1,0,0:0:0:0:
448,192,84516,1,0,0:0:0:0:
64,192,84674,1,0,0:0:0:0:
192,192,84674,1,0,0:0:0:0:
192,192,84832,1,0,0:0:0:0:
320,192,84832,1,0,0:0:0:0:
448,192,84832,1,0,0:0:0:0:
64,192,84990,1,0,0:0:0:0:
192,192,84990,1,0,0:0:0:0:
64,192,85148,1,0,0:0:0:0:
320,192,85148,1,0,0:0:0:0:
448,192,85148,1,0,0:0:0:0:
64,192,85306,1,0,0:0:0:0:
192,192,85306,1,0,0:0:0:0:
320,192,85306,1,0,0:0:0:0:
192,192,85464,1,0,0:0:0:0:
320,192,85464,1,0,0:0:0:0:
448,192,85464,1,0,0:0:0:0:
64,192,85621,1,0,0:0:0:0:
64,192,85937,1,0,0:0:0:0:
192,192,85937,1,0,0:0:0:0:
448,192,85937,1,0,0:0:0:0:
192,192,86095,1,0,0:0:0:0:
320,192,86095,1,0,0:0:0:0:
448,192,86095,1,0,0:0:0:0:
64,192,86253,1,0,0:0:0:0:
192,192,86253,1,0,0:0:0:0:
448,192,86253,1,0,0:0:0:0:
192,192,86411,1,0,0:0:0:0:
320,192,86411,1,0,0:0:0:0:
448,192,86411,1,0,0:0:0:0:
320,192,86490,1,0,0:0:0:0:
64,192,86569,1,0,0:0:0:0:
192,192,86569,1,0,0:0:0:0:
448,192,86569,1,0,0:0:0:0:
192,192,86727,1,0,0:0:0:0:
448,192,86727,1,0,0:0:0:0:
320,192,86727,1,0,0:0:0:0:
64,192,86885,1,0,0:0:0:0:
320,192,86885,1,0,0:0:0:0:
192,192,86885,1,0,0:0:0:0:
192,192,87043,1,0,0:0:0:0:
320,192,87043,1,0,0:0:0:0:
448,192,87043,1,0,0:0:0:0:
64,192,87200,1,0,0:0:0:0:
192,192,87200,1,0,0:0:0:0:
448,192,87200,1,0,0:0:0:0:
192,192,87358,1,0,0:0:0:0:
320,192,87358,1,0,0:0:0:0:
448,192,87358,1,0,0:0:0:0:
64,192,87516,1,0,0:0:0:0:
192,192,87516,1,0,0:0:0:0:
320,192,87516,1,0,0:0:0:0:
64,192,87674,1,0,0:0:0:0:
320,192,87674,1,0,0:0:0:0:
448,192,87674,1,0,0:0:0:0:
192,192,87832,1,0,0:0:0:0:
320,192,87832,1,0,0:0:0:0:
64,192,87832,128,0,88069:0:0:0:0:
320,192,87990,1,0,0:0:0:0:
448,192,87990,1,0,0:0:0:0:
64,192,88148,1,0,0:0:0:0:
192,192,88148,1,0,0:0:0:0:
448,192,88148,1,0,0:0:0:0:
320,192,88227,1,0,0:0:0:0:
64,192,88306,1,0,0:0:0:0:
192,192,88306,1,0,0:0:0:0:
448,192,88306,1,0,0:0:0:0:
320,192,88385,1,0,0:0:0:0:
64,192,88464,1,0,0:0:0:0:
192,192,88464,1,0,0:0:0:0:
448,192,88464,1,0,0:0:0:0:
64,192,88621,1,0,0:0:0:0:
192,192,88621,1,0,0:0:0:0:
320,192,88621,1,0,0:0:0:0:
192,192,88779,1,0,0:0:0:0:
320,192,88779,1,0,0:0:0:0:
448,192,88779,1,0,0:0:0:0:
64,192,88937,1,0,0:0:0:0:
320,192,88937,1,0,0:0:0:0:
448,192,88937,1,0,0:0:0:0:
64,192,89095,1,0,0:0:0:0:
192,192,89095,1,0,0:0:0:0:
448,192,89095,1,0,0:0:0:0:
64,192,89253,1,0,0:0:0:0:
192,192,89253,1,0,0:0:0:0:
320,192,89253,1,0,0:0:0:0:
192,192,89411,1,0,0:0:0:0:
320,192,89411,1,0,0:0:0:0:
448,192,89411,1,0,0:0:0:0:
64,192,89569,1,0,0:0:0:0:
320,192,89569,1,0,0:0:0:0:
448,192,89569,1,0,0:0:0:0:
192,192,89648,1,0,0:0:0:0:
448,192,89727,1,0,0:0:0:0:
320,192,89727,1,0,0:0:0:0:
64,192,89806,1,0,0:0:0:0:
192,192,89806,1,0,0:0:0:0:
448,192,89885,1,0,0:0:0:0:
320,192,89885,1,0,0:0:0:0:
192,192,89964,1,0,0:0:0:0:
64,192,89964,1,0,0:0:0:0:
448,192,90043,1,0,0:0:0:0:
320,192,90043,1,0,0:0:0:0:
64,192,90121,1,0,0:0:0:0:
192,192,90121,1,0,0:0:0:0:
320,192,90200,1,0,0:0:0:0:
448,192,90200,1,0,0:0:0:0:
64,192,90279,1,0,0:0:0:0:
192,192,90279,1,0,0:0:0:0:
320,192,90358,1,0,0:0:0:0:
448,192,90358,1,0,0:0:0:0:
64,192,90437,1,0,0:0:0:0:
192,192,90437,1,0,0:0:0:0:
320,192,90516,1,0,0:0:0:0:
448,192,90516,1,0,0:0:0:0:
192,192,90595,1,0,0:0:0:0:
64,192,90595,1,0,0:0:0:0:
320,192,90674,1,0,0:0:0:0:
448,192,90674,1,0,0:0:0:0:
64,192,90753,1,0,0:0:0:0:
192,192,90753,1,0,0:0:0:0:
448,192,90832,1,0,0:0:0:0:
320,192,90832,1,0,0:0:0:0:
64,192,90911,1,0,0:0:0:0:
192,192,90911,1,0,0:0:0:0:
448,192,90990,1,0,0:0:0:0:
320,192,90990,1,0,0:0:0:0:
64,192,91069,1,0,0:0:0:0:
192,192,91148,1,0,0:0:0:0:
448,192,91148,1,0,0:0:0:0:
320,192,91227,1,0,0:0:0:0:
64,192,91306,1,0,0:0:0:0:
448,192,91306,1,0,0:0:0:0:
192,192,91385,1,0,0:0:0:0:
64,192,91464,1,0,0:0:0:0:
320,192,91464,1,0,0:0:0:0:
448,192,91543,1,0,0:0:0:0:
320,192,91621,1,0,0:0:0:0:
192,192,91621,1,0,0:0:0:0:
448,192,91700,1,0,0:0:0:0:
64,192,91779,1,0,0:0:0:0:
320,192,91779,1,0,0:0:0:0:
192,192,91858,1,0,0:0:0:0:
64,192,91937,1,0,0:0:0:0:
448,192,91937,1,0,0:0:0:0:
320,192,92016,1,0,0:0:0:0:
192,192,92095,1,0,0:0:0:0:
448,192,92095,1,0,0:0:0:0:
64,192,92174,1,0,0:0:0:0:
192,192,92253,1,0,0:0:0:0:
320,192,92253,1,0,0:0:0:0:
64,192,92332,1,0,0:0:0:0:
192,192,92411,1,0,0:0:0:0:
448,192,92411,1,0,0:0:0:0:
320,192,92490,1,0,0:0:0:0:
64,192,92569,1,0,0:0:0:0:
448,192,92569,1,0,0:0:0:0:
192,192,92648,1,0,0:0:0:0:
64,192,92727,1,0,0:0:0:0:
320,192,92727,1,0,0:0:0:0:
448,192,92806,1,0,0:0:0:0:
192,192,92885,1,0,0:0:0:0:
320,192,92885,1,0,0:0:0:0:
448,192,92964,1,0,0:0:0:0:
64,192,93043,1,0,0:0:0:0:
320,192,93043,1,0,0:0:0:0:
192,192,93121,1,0,0:0:0:0:
64,192,93200,1,0,0:0:0:0:
448,192,93200,1,0,0:0:0:0:
320,192,93279,1,0,0:0:0:0:
64,192,93358,1,0,0:0:0:0:
448,192,93358,1,0,0:0:0:0:
192,192,93437,1,0,0:0:0:0:
320,192,93437,1,0,0:0:0:0:
64,192,93516,1,0,0:0:0:0:
448,192,93516,1,0,0:0:0:0:
192,192,93595,1,0,0:0:0:0:
64,192,93674,1,0,0:0:0:0:
320,192,93674,1,0,0:0:0:0:
448,192,93753,1,0,0:0:0:0:
64,192,93832,1,0,0:0:0:0:
192,192,93832,1,0,0:0:0:0:
320,192,93911,1,0,0:0:0:0:
64,192,93990,1,0,0:0:0:0:
448,192,93990,1,0,0:0:0:0:
192,192,94069,1,0,0:0:0:0:
64,192,94148,1,0,0:0:0:0:
448,192,94148,1,0,0:0:0:0:
320,192,94227,1,0,0:0:0:0:
448,192,94306,1,0,0:0:0:0:
192,192,94306,1,0,0:0:0:0:
64,192,94385,1,0,0:0:0:0:
320,192,94464,1,0,0:0:0:0:
448,192,94464,1,0,0:0:0:0:
192,192,94543,1,0,0:0:0:0:
64,192,94621,1,0,0:0:0:0:
448,192,94621,1,0,0:0:0:0:
320,192,94700,1,0,0:0:0:0:
64,192,94779,1,0,0:0:0:0:
448,192,94779,1,0,0:0:0:0:
192,192,94858,1,0,0:0:0:0:
64,192,94937,1,0,0:0:0:0:
320,192,94937,1,0,0:0:0:0:
448,192,95016,1,0,0:0:0:0:
64,192,95095,1,0,0:0:0:0:
192,192,95095,1,0,0:0:0:0:
320,192,95174,1,0,0:0:0:0:
448,192,95253,1,0,0:0:0:0:
64,192,95253,1,0,0:0:0:0:
192,192,95332,1,0,0:0:0:0:
64,192,95411,1,0,0:0:0:0:
448,192,95411,1,0,0:0:0:0:
320,192,95490,1,0,0:0:0:0:
192,192,95569,1,0,0:0:0:0:
448,192,95569,1,0,0:0:0:0:
64,192,95648,1,0,0:0:0:0:
448,192,95727,1,0,0:0:0:0:
320,192,95727,1,0,0:0:0:0:
192,192,95806,1,0,0:0:0:0:
320,192,95885,1,0,0:0:0:0:
448,192,95885,1,0,0:0:0:0:
64,192,95964,1,0,0:0:0:0:
192,192,95964,1,0,0:0:0:0:
320,192,96043,1,0,0:0:0:0:
448,192,96043,1,0,0:0:0:0:
64,192,96121,1,0,0:0:0:0:
448,192,96200,1,0,0:0:0:0:
192,192,96200,1,0,0:0:0:0:
320,192,96279,1,0,0:0:0:0:
64,192,96358,1,0,0:0:0:0:
448,192,96358,1,0,0:0:0:0:
192,192,96437,1,0,0:0:0:0:
320,192,96516,1,0,0:0:0:0:
64,192,96516,1,0,0:0:0:0:
448,192,96595,1,0,0:0:0:0:
320,192,96674,1,0,0:0:0:0:
192,192,96674,1,0,0:0:0:0:
448,192,96753,1,0,0:0:0:0:
64,192,96832,1,0,0:0:0:0:
320,192,96832,1,0,0:0:0:0:
192,192,96911,1,0,0:0:0:0:
64,192,96990,1,0,0:0:0:0:
448,192,96990,1,0,0:0:0:0:
320,192,97069,1,0,0:0:0:0:
192,192,97148,1,0,0:0:0:0:
448,192,97148,1,0,0:0:0:0:
64,192,97227,1,0,0:0:0:0:
192,192,97306,1,0,0:0:0:0:
320,192,97306,1,0,0:0:0:0:
64,192,97385,1,0,0:0:0:0:
192,192,97464,1,0,0:0:0:0:
448,192,97464,1,0,0:0:0:0:
320,192,97543,1,0,0:0:0:0:
448,192,97621,1,0,0:0:0:0:
64,192,97621,1,0,0:0:0:0:
192,192,97700,1,0,0:0:0:0:
64,192,97779,1,0,0:0:0:0:
320,192,97779,1,0,0:0:0:0:
448,192,97858,1,0,0:0:0:0:
192,192,97937,1,0,0:0:0:0:
320,192,97937,1,0,0:0:0:0:
448,192,98016,1,0,0:0:0:0:
320,192,98095,1,0,0:0:0:0:
64,192,98095,1,0,0:0:0:0:
192,192,98174,1,0,0:0:0:0:
64,192,98253,1,0,0:0:0:0:
448,192,98253,1,0,0:0:0:0:
320,192,98332,1,0,0:0:0:0:
192,192,98411,1,0,0:0:0:0:
64,192,98411,1,0,0:0:0:0:
320,192,98490,1,0,0:0:0:0:
448,192,98490,1,0,0:0:0:0:
64,192,98569,1,0,0:0:0:0:
192,192,98569,1,0,0:0:0:0:
320,192,98648,1,0,0:0:0:0:
448,192,98727,1,0,0:0:0:0:
64,192,98727,1,0,0:0:0:0:
192,192,98806,1,0,0:0:0:0:
64,192,98885,1,0,0:0:0:0:
320,192,98885,1,0,0:0:0:0:
448,192,98964,1,0,0:0:0:0:
64,192,99043,1,0,0:0:0:0:
192,192,99043,1,0,0:0:0:0:
320,192,99121,1,0,0:0:0:0:
448,192,99200,1,0,0:0:0:0:
64,192,99200,1,0,0:0:0:0:
320,192,99279,1,0,0:0:0:0:
192,192,99358,1,0,0:0:0:0:
448,192,99358,1,0,0:0:0:0:
64,192,99437,1,0,0:0:0:0:
320,192,99516,1,0,0:0:0:0:
448,192,99516,1,0,0:0:0:0:
192,192,99595,1,0,0:0:0:0:
64,192,99674,1,0,0:0:0:0:
448,192,99674,1,0,0:0:0:0:
320,192,99753,1,0,0:0:0:0:
64,192,99832,1,0,0:0:0:0:
192,192,99832,1,0,0:0:0:0:
320,192,99911,1,0,0:0:0:0:
448,192,99990,1,0,0:0:0:0:
64,192,99990,1,0,0:0:0:0:
192,192,100069,1,0,0:0:0:0:
64,192,100148,1,0,0:0:0:0:
320,192,100148,1,0,0:0:0:0:
448,192,100227,1,0,0:0:0:0:
64,192,100306,1,0,0:0:0:0:
192,192,100306,1,0,0:0:0:0:
320,192,100385,1,0,0:0:0:0:
64,192,100464,1,0,0:0:0:0:
448,192,100464,1,0,0:0:0:0:
320,192,100543,1,0,0:0:0:0:
192,192,100621,1,0,0:0:0:0:
448,192,100621,1,0,0:0:0:0:
64,192,100700,1,0,0:0:0:0:
448,192,100779,1,0,0:0:0:0:
320,192,100779,1,0,0:0:0:0:
192,192,100858,1,0,0:0:0:0:
64,192,100937,1,0,0:0:0:0:
448,192,100937,1,0,0:0:0:0:
320,192,101016,1,0,0:0:0:0:
192,192,101016,1,0,0:0:0:0:
64,192,101095,1,0,0:0:0:0:
448,192,101095,1,0,0:0:0:0:
192,192,101174,1,0,0:0:0:0:
320,192,101253,1,0,0:0:0:0:
448,192,101253,1,0,0:0:0:0:
64,192,101332,1,0,0:0:0:0:
448,192,101411,1,0,0:0:0:0:
192,192,101411,1,0,0:0:0:0:
320,192,101490,1,0,0:0:0:0:
64,192,101569,1,0,0:0:0:0:
192,192,101569,1,0,0:0:0:0:
320,192,101648,1,0,0:0:0:0:
448,192,101727,1,0,0:0:0:0:
64,192,101727,1,0,0:0:0:0:
320,192,101806,1,0,0:0:0:0:
64,192,101885,1,0,0:0:0:0:
192,192,101885,1,0,0:0:0:0:
448,192,101964,1,0,0:0:0:0:
320,192,102043,1,0,0:0:0:0:
64,192,102043,1,0,0:0:0:0:
192,192,102121,1,0,0:0:0:0:
448,192,102200,1,0,0:0:0:0:
320,192,102200,1,0,0:0:0:0:
192,192,102279,1,0,0:0:0:0:
64,192,102358,1,0,0:0:0:0:
448,192,102358,1,0,0:0:0:0:
192,192,102437,1,0,0:0:0:0:
448,192,102516,1,0,0:0:0:0:
320,192,102516,1,0,0:0:0:0:
64,192,102595,1,0,0:0:0:0:
192,192,102674,1,0,0:0:0:0:
448,192,102674,1,0,0:0:0:0:
320,192,102753,1,0,0:0:0:0:
192,192,102832,1,0,0:0:0:0:
64,192,102832,1,0,0:0:0:0:
320,192,102911,1,0,0:0:0:0:
64,192,102990,1,0,0:0:0:0:
448,192,102990,1,0,0:0:0:0:
320,192,103069,1,0,0:0:0:0:
192,192,103148,1,0,0:0:0:0:
64,192,103148,1,0,0:0:0:0:
448,192,103227,1,0,0:0:0:0:
192,192,103306,1,0,0:0:0:0:
320,192,103306,1,0,0:0:0:0:
64,192,103385,1,0,0:0:0:0:
320,192,103464,1,0,0:0:0:0:
448,192,103464,1,0,0:0:0:0:
192,192,103543,1,0,0:0:0:0:
64,192,103621,1,0,0:0:0:0:
448,192,103621,1,0,0:0:0:0:
192,192,103700,1,0,0:0:0:0:
448,192,103779,1,0,0:0:0:0:
320,192,103779,1,0,0:0:0:0:
64,192,103858,1,0,0:0:0:0:
320,192,103937,1,0,0:0:0:0:
192,192,103937,1,0,0:0:0:0:
448,192,104016,1,0,0:0:0:0:
192,192,104095,1,0,0:0:0:0:
64,192,104095,1,0,0:0:0:0:
320,192,104174,1,0,0:0:0:0:
448,192,104253,1,0,0:0:0:0:
64,192,104253,1,0,0:0:0:0:
320,192,104332,1,0,0:0:0:0:
64,192,104411,1,0,0:0:0:0:
192,192,104411,1,0,0:0:0:0:
448,192,104490,1,0,0:0:0:0:
192,192,104569,1,0,0:0:0:0:
320,192,104569,1,0,0:0:0:0:
64,192,104648,1,0,0:0:0:0:
448,192,104727,1,0,0:0:0:0:
320,192,104727,1,0,0:0:0:0:
192,192,104806,1,0,0:0:0:0:
448,192,104885,1,0,0:0:0:0:
64,192,104885,1,0,0:0:0:0:
192,192,104964,1,0,0:0:0:0:
448,192,105043,1,0,0:0:0:0:
320,192,105043,1,0,0:0:0:0:
64,192,105121,1,0,0:0:0:0:
192,192,105200,1,0,0:0:0:0:
320,192,105200,1,0,0:0:0:0:
448,192,105279,1,0,0:0:0:0:
64,192,105358,1,0,0:0:0:0:
192,192,105358,1,0,0:0:0:0:
320,192,105437,1,0,0:0:0:0:
64,192,105516,1,0,0:0:0:0:
448,192,105516,1,0,0:0:0:0:
320,192,105595,1,0,0:0:0:0:
192,192,105674,1,0,0:0:0:0:
64,192,105674,1,0,0:0:0:0:
448,192,105753,1,0,0:0:0:0:
320,192,105832,1,0,0:0:0:0:
192,192,105832,1,0,0:0:0:0:
64,192,105911,1,0,0:0:0:0:
448,192,105990,1,0,0:0:0:0:
320,192,105990,1,0,0:0:0:0:
192,192,106069,1,0,0:0:0:0:
64,192,106069,1,0,0:0:0:0:
448,192,106148,1,0,0:0:0:0:
320,192,106148,1,0,0:0:0:0:
192,192,106306,1,0,0:0:0:0:
320,192,106306,1,0,0:0:0:0:
448,192,106306,1,0,0:0:0:0:
64,192,106464,1,0,0:0:0:0:
192,192,106464,1,0,0:0:0:0:
320,192,106464,1,0,0:0:0:0:
192,192,106621,1,0,0:0:0:0:
320,192,106621,1,0,0:0:0:0:
448,192,106621,1,0,0:0:0:0:
64,192,106779,1,0,0:0:0:0:
320,192,106779,1,0,0:0:0:0:
448,192,106779,1,0,0:0:0:0:
64,192,106937,1,0,0:0:0:0:
192,192,106937,1,0,0:0:0:0:
320,192,106937,1,0,0:0:0:0:
64,192,107095,1,0,0:0:0:0:
320,192,107095,1,0,0:0:0:0:
448,192,107095,1,0,0:0:0:0:
192,192,107253,1,0,0:0:0:0:
320,192,107253,1,0,0:0:0:0:
64,192,107332,1,0,0:0:0:0:
448,192,107332,1,0,0:0:0:0:
192,192,107411,1,0,0:0:0:0:
320,192,107411,1,0,0:0:0:0:
64,192,107569,1,0,0:0:0:0:
192,192,107569,1,0,0:0:0:0:
320,192,107569,1,0,0:0:0:0:
192,192,107727,1,0,0:0:0:0:
320,192,107727,1,0,0:0:0:0:
448,192,107727,1,0,0:0:0:0:
64,192,107885,1,0,0:0:0:0:
192,192,107885,1,0,0:0:0:0:
320,192,107885,1,0,0:0:0:0:
64,192,108043,1,0,0:0:0:0:
192,192,108043,1,0,0:0:0:0:
448,192,108043,1,0,0:0:0:0:
192,192,108200,1,0,0:0:0:0:
320,192,108200,1,0,0:0:0:0:
448,192,108200,1,0,0:0:0:0:
64,192,108358,1,0,0:0:0:0:
192,192,108358,1,0,0:0:0:0:
448,192,108358,1,0,0:0:0:0:
320,192,108516,1,0,0:0:0:0:
448,192,108516,1,0,0:0:0:0:
64,192,108595,1,0,0:0:0:0:
192,192,108595,1,0,0:0:0:0:
320,192,108674,1,0,0:0:0:0:
448,192,108674,1,0,0:0:0:0:
64,192,108753,1,0,0:0:0:0:
192,192,108832,1,0,0:0:0:0:
448,192,108832,1,0,0:0:0:0:
320,192,108911,1,0,0:0:0:0:
64,192,108990,1,0,0:0:0:0:
448,192,108990,1,0,0:0:0:0:
192,192,108990,1,0,0:0:0:0:
320,192,109069,1,0,0:0:0:0:
64,192,109148,1,0,0:0:0:0:
448,192,109148,1,0,0:0:0:0:
192,192,109227,1,0,0:0:0:0:
320,192,109306,1,0,0:0:0:0:
64,192,109306,1,0,0:0:0:0:
448,192,109306,1,0,0:0:0:0:
192,192,109385,1,0,0:0:0:0:
64,192,109464,1,0,0:0:0:0:
448,192,109464,1,0,0:0:0:0:
320,192,109543,1,0,0:0:0:0:
64,192,109621,1,0,0:0:0:0:
448,192,109621,1,0,0:0:0:0:
192,192,109621,1,0,0:0:0:0:
320,192,109700,1,0,0:0:0:0:
192,192,109779,1,0,0:0:0:0:
448,192,109779,1,0,0:0:0:0:
64,192,109858,1,0,0:0:0:0:
320,192,109937,1,0,0:0:0:0:
448,192,109937,1,0,0:0:0:0:
192,192,110016,1,0,0:0:0:0:
320,192,110095,1,0,0:0:0:0:
448,192,110095,1,0,0:0:0:0:
64,192,110174,1,0,0:0:0:0:
320,192,110253,1,0,0:0:0:0:
448,192,110253,1,0,0:0:0:0:
192,192,110332,1,0,0:0:0:0:
320,192,110411,1,0,0:0:0:0:
448,192,110411,1,0,0:0:0:0:
192,192,110490,1,0,0:0:0:0:
320,192,110569,1,0,0:0:0:0:
448,192,110569,1,0,0:0:0:0:
64,192,110569,1,0,0:0:0:0:
192,192,110727,1,0,0:0:0:0:
448,192,110727,1,0,0:0:0:0:
320,192,110727,1,0,0:0:0:0:
320,192,110885,1,0,0:0:0:0:
64,192,110885,1,0,0:0:0:0:
448,192,110885,1,0,0:0:0:0:
320,192,111043,1,0,0:0:0:0:
448,192,111043,1,0,0:0:0:0:
192,192,111043,1,0,0:0:0:0:
64,192,111200,1,0,0:0:0:0:
320,192,111200,1,0,0:0:0:0:
448,192,111200,1,0,0:0:0:0:
192,192,111279,1,0,0:0:0:0:
320,192,111358,1,0,0:0:0:0:
448,192,111437,1,0,0:0:0:0:
64,192,111674,1,0,0:0:0:0:
192,192,111674,1,0,0:0:0:0:
448,192,111674,1,0,0:0:0:0:
320,192,111753,1,0,0:0:0:0:
192,192,111832,1,0,0:0:0:0:
64,192,111911,1,0,0:0:0:0:
64,192,112148,1,0,0:0:0:0:
320,192,112148,1,0,0:0:0:0:
448,192,112148,1,0,0:0:0:0:
192,192,112227,1,0,0:0:0:0:
320,192,112306,1,0,0:0:0:0:
448,192,112385,1,0,0:0:0:0:
64,192,112464,1,0,0:0:0:0:
64,192,112621,1,0,0:0:0:0:
64,192,112779,1,0,0:0:0:0:
448,192,112779,1,0,0:0:0:0:
64,192,112937,1,0,0:0:0:0:
320,192,113016,1,0,0:0:0:0:
64,192,113095,1,0,0:0:0:0:
320,192,113174,1,0,0:0:0:0:
64,192,113253,1,0,0:0:0:0:
192,192,113253,1,0,0:0:0:0:
64,192,113411,1,0,0:0:0:0:
64,192,113569,1,0,0:0:0:0:
448,192,113569,1,0,0:0:0:0:
64,192,113727,1,0,0:0:0:0:
192,192,113727,1,0,0:0:0:0:
320,192,113727,1,0,0:0:0:0:
448,192,113806,1,0,0:0:0:0:
192,192,113885,1,0,0:0:0:0:
320,192,113964,1,0,0:0:0:0:
192,192,114200,1,0,0:0:0:0:
320,192,114200,1,0,0:0:0:0:
448,192,114200,1,0,0:0:0:0:
64,192,114279,1,0,0:0:0:0:
320,192,114358,1,0,0:0:0:0:
192,192,114437,1,0,0:0:0:0:
192,192,114674,1,0,0:0:0:0:
64,192,114674,1,0,0:0:0:0:
320,192,114674,1,0,0:0:0:0:
448,192,114753,1,0,0:0:0:0:
192,192,114832,1,0,0:0:0:0:
320,192,114911,1,0,0:0:0:0:
64,192,114990,1,0,0:0:0:0:
64,192,115148,1,0,0:0:0:0:
64,192,115306,1,0,0:0:0:0:
448,192,115306,1,0,0:0:0:0:
64,192,115464,1,0,0:0:0:0:
320,192,115543,1,0,0:0:0:0:
192,192,115621,1,0,0:0:0:0:
320,192,115700,1,0,0:0:0:0:
192,192,115779,1,0,0:0:0:0:
320,192,115858,1,0,0:0:0:0:
64,192,115937,1,0,0:0:0:0:
448,192,115937,1,0,0:0:0:0:
64,192,116253,1,0,0:0:0:0:
448,192,116253,1,0,0:0:0:0:
192,192,116332,1,0,0:0:0:0:
320,192,116411,1,0,0:0:0:0:
64,192,116411,1,0,0:0:0:0:
448,192,116490,1,0,0:0:0:0:
192,192,116569,1,0,0:0:0:0:
320,192,116569,1,0,0:0:0:0:
448,192,116648,1,0,0:0:0:0:
64,192,116727,1,0,0:0:0:0:
320,192,116727,1,0,0:0:0:0:
192,192,116806,1,0,0:0:0:0:
64,192,116885,1,0,0:0:0:0:
448,192,116885,1,0,0:0:0:0:
192,192,116964,1,0,0:0:0:0:
64,192,117043,1,0,0:0:0:0:
320,192,117043,1,0,0:0:0:0:
448,192,117121,1,0,0:0:0:0:
320,192,117200,1,0,0:0:0:0:
192,192,117200,1,0,0:0:0:0:
448,192,117279,1,0,0:0:0:0:
64,192,117358,1,0,0:0:0:0:
192,192,117358,1,0,0:0:0:0:
448,192,117437,1,0,0:0:0:0:
320,192,117437,1,0,0:0:0:0:
64,192,117516,1,0,0:0:0:0:
192,192,117516,1,0,0:0:0:0:
320,192,117595,1,0,0:0:0:0:
64,192,117674,1,0,0:0:0:0:
448,192,117674,1,0,0:0:0:0:
192,192,117753,1,0,0:0:0:0:
64,192,117832,1,0,0:0:0:0:
448,192,117832,1,0,0:0:0:0:
320,192,117911,1,0,0:0:0:0:
192,192,117990,1,0,0:0:0:0:
448,192,117990,1,0,0:0:0:0:
64,192,118069,1,0,0:0:0:0:
320,192,118148,1,0,0:0:0:0:
448,192,118148,1,0,0:0:0:0:
64,192,118227,1,0,0:0:0:0:
192,192,118306,1,0,0:0:0:0:
448,192,118306,1,0,0:0:0:0:
320,192,118385,1,0,0:0:0:0:
64,192,118464,1,0,0:0:0:0:
448,192,118464,1,0,0:0:0:0:
320,192,118543,1,0,0:0:0:0:
192,192,118621,1,0,0:0:0:0:
64,192,118621,1,0,0:0:0:0:
320,192,118700,1,0,0:0:0:0:
448,192,118700,1,0,0:0:0:0:
192,192,118779,1,0,0:0:0:0:
64,192,118779,1,0,0:0:0:0:
448,192,118858,1,0,0:0:0:0:
320,192,118858,1,0,0:0:0:0:
192,192,118937,1,0,0:0:0:0:
64,192,118937,1,0,0:0:0:0:
448,192,119016,1,0,0:0:0:0:
320,192,119016,1,0,0:0:0:0:
192,192,119095,1,0,0:0:0:0:
64,192,119095,1,0,0:0:0:0:
448,192,119174,1,0,0:0:0:0:
320,192,119174,1,0,0:0:0:0:
64,192,119253,1,0,0:0:0:0:
192,192,119253,1,0,0:0:0:0:
320,192,119332,1,0,0:0:0:0:
448,192,119332,1,0,0:0:0:0:
64,192,119411,1,0,0:0:0:0:
192,192,119411,1,0,0:0:0:0:
320,192,119490,1,0,0:0:0:0:
448,192,119490,1,0,0:0:0:0:
192,192,119569,1,0,0:0:0:0:
64,192,119569,1,0,0:0:0:0:
448,192,119648,1,0,0:0:0:0:
320,192,119648,1,0,0:0:0:0:
192,192,119727,1,0,0:0:0:0:
64,192,119727,1,0,0:0:0:0:
448,192,119806,1,0,0:0:0:0:
320,192,119806,1,0,0:0:0:0:
64,192,119885,1,0,0:0:0:0:
192,192,119885,1,0,0:0:0:0:
320,192,119964,1,0,0:0:0:0:
448,192,119964,1,0,0:0:0:0:
64,192,120043,1,0,0:0:0:0:
64,192,120358,1,0,0:0:0:0:
64,192,120516,1,0,0:0:0:0:
64,192,120674,128,0,121227:0:0:0:0:
64,192,121306,1,0,0:0:0:0:
192,192,121306,1,0,0:0:0:0:
320,192,121306,1,0,0:0:0:0:
448,192,121306,1,0,0:0:0:0:
