osu file format v14

[General]
AudioFilename: audio.mp3
AudioLeadIn: 0
PreviewTime: 90852
Countdown: 0
SampleSet: Normal
StackLeniency: 0.7
Mode: 1
LetterboxInBreaks: 0
WidescreenStoryboard: 0

[Editor]
Bookmarks: 176,17473,26122,43419,52068,60716,78014
DistanceSpacing: 0.6
BeatDivisor: 4
GridSize: 32
TimelineZoom: 1.7

[Metadata]
Title:GOODRAGE
TitleUnicode:GOODRAGE
Artist:EBIMAYO
ArtistUnicode:EBIMAYO
Creator:-xNaCLx-
Version:Oni
Source:
Tags:bofu2017 goodmen bms
BeatmapID:2404628
BeatmapSetID:681490

[Difficulty]
HPDrainRate:5
CircleSize:5
OverallDifficulty:5.5
ApproachRate:5
SliderMultiplier:1.4
SliderTickRate:1

[Events]
//Background and Video events
0,0,"goodrage.jpg",0,0
//Break Periods
//Storyboard Layer 0 (Background)
//Storyboard Layer 1 (Fail)
//Storyboard Layer 2 (Pass)
//Storyboard Layer 3 (Foreground)
//Storyboard Layer 4 (Overlay)
//Storyboard Sound Samples

[TimingPoints]
176.37329313545,270.27027027027,4,1,0,100,1,0
60716,-100,4,1,0,80,0,0
78014,-100,4,1,0,90,0,0
90987,-100,4,1,0,100,0,1
108014,-100,4,1,0,100,0,0
108284,-100,4,1,0,100,0,1
116933,-100,4,1,0,100,0,0

[HitObjects]
256,192,176,5,4,0:0:0:0:
256,192,446,1,12,0:0:0:0:
256,192,716,1,8,0:0:0:0:
256,192,784,1,8,0:0:0:0:
256,192,852,1,0,0:0:0:0:
256,192,987,1,8,0:0:0:0:
256,192,1122,1,0,0:0:0:0:
256,192,1257,1,4,0:0:0:0:
256,192,1527,1,0,0:0:0:0:
256,192,1662,1,12,0:0:0:0:
256,192,1933,1,8,0:0:0:0:
256,192,2068,1,0,0:0:0:0:
256,192,2203,1,8,0:0:0:0:
256,192,2338,1,4,0:0:0:0:
256,192,2608,1,12,0:0:0:0:
256,192,2879,1,8,0:0:0:0:
256,192,2946,1,8,0:0:0:0:
256,192,3014,1,0,0:0:0:0:
256,192,3149,1,8,0:0:0:0:
256,192,3284,1,0,0:0:0:0:
256,192,3419,1,4,0:0:0:0:
256,192,3689,1,8,0:0:0:0:
256,192,3825,1,4,0:0:0:0:
256,192,4095,1,12,0:0:0:0:
256,192,4500,1,4,0:0:0:0:
256,192,4770,1,12,0:0:0:0:
256,192,5041,1,8,0:0:0:0:
256,192,5108,1,8,0:0:0:0:
256,192,5176,1,0,0:0:0:0:
256,192,5311,1,8,0:0:0:0:
256,192,5446,1,0,0:0:0:0:
256,192,5581,1,4,0:0:0:0:
256,192,5852,1,0,0:0:0:0:
256,192,5987,1,12,0:0:0:0:
256,192,6257,1,8,0:0:0:0:
256,192,6392,1,0,0:0:0:0:
256,192,6527,1,8,0:0:0:0:
256,192,6662,1,4,0:0:0:0:
256,192,6797,1,0,0:0:0:0:
256,192,6865,1,0,0:0:0:0:
256,192,6933,1,8,0:0:0:0:
256,192,7203,1,4,0:0:0:0:
256,192,7338,1,0,0:0:0:0:
256,192,7406,1,0,0:0:0:0:
256,192,7473,1,8,0:0:0:0:
256,192,7743,1,4,0:0:0:0:
256,192,8014,1,4,0:0:0:0:
256,192,8284,1,4,0:0:0:0:
256,192,8419,1,4,0:0:0:0:
256,192,8554,1,4,0:0:0:0:
256,192,8689,1,4,0:0:0:0:
256,192,8825,1,4,0:0:0:0:
256,192,9027,1,0,0:0:0:0:
256,192,9095,1,8,0:0:0:0:
256,192,9230,1,0,0:0:0:0:
256,192,9365,1,8,0:0:0:0:
256,192,9433,1,8,0:0:0:0:
256,192,9500,1,0,0:0:0:0:
256,192,9635,1,8,0:0:0:0:
256,192,9906,1,4,0:0:0:0:
256,192,10176,1,0,0:0:0:0:
256,192,10311,1,12,0:0:0:0:
256,192,10581,1,0,0:0:0:0:
256,192,10716,1,8,0:0:0:0:
256,192,10784,1,8,0:0:0:0:
256,192,10852,1,8,0:0:0:0:
256,192,10987,1,4,0:0:0:0:
256,192,11189,1,0,0:0:0:0:
256,192,11257,1,8,0:0:0:0:
256,192,11392,1,0,0:0:0:0:
256,192,11527,1,8,0:0:0:0:
256,192,11595,1,8,0:0:0:0:
256,192,11662,1,0,0:0:0:0:
256,192,11797,1,8,0:0:0:0:
256,192,12068,1,4,0:0:0:0:
256,192,12338,1,8,0:0:0:0:
256,192,12473,1,4,0:0:0:0:
256,192,12743,1,12,0:0:0:0:
256,192,13149,1,4,0:0:0:0:
256,192,13352,1,0,0:0:0:0:
256,192,13419,1,8,0:0:0:0:
256,192,13554,1,0,0:0:0:0:
256,192,13689,1,8,0:0:0:0:
256,192,13757,1,8,0:0:0:0:
256,192,13825,1,0,0:0:0:0:
256,192,13960,1,8,0:0:0:0:
256,192,14230,1,4,0:0:0:0:
256,192,14500,1,0,0:0:0:0:
256,192,14635,1,12,0:0:0:0:
256,192,14906,1,0,0:0:0:0:
256,192,15041,1,8,0:0:0:0:
256,192,15108,1,8,0:0:0:0:
256,192,15176,1,8,0:0:0:0:
256,192,15311,1,4,0:0:0:0:
256,192,15446,1,0,0:0:0:0:
256,192,15514,1,0,0:0:0:0:
256,192,15581,1,8,0:0:0:0:
256,192,15852,1,0,0:0:0:0:
256,192,15987,1,0,0:0:0:0:
256,192,16054,1,0,0:0:0:0:
256,192,16122,1,8,0:0:0:0:
256,192,16392,1,0,0:0:0:0:
256,192,16527,1,0,0:0:0:0:
256,192,16662,1,0,0:0:0:0:
256,192,16797,1,0,0:0:0:0:
256,192,16933,1,0,0:0:0:0:
256,192,17000,1,0,0:0:0:0:
256,192,17068,1,0,0:0:0:0:
256,192,17203,1,12,0:0:0:0:
256,192,17473,1,4,0:0:0:0:
256,192,17743,1,0,0:0:0:0:
256,192,17879,1,8,0:0:0:0:
256,192,18014,1,0,0:0:0:0:
256,192,18149,1,8,0:0:0:0:
256,192,18284,1,0,0:0:0:0:
256,192,18419,1,8,0:0:0:0:
256,192,18554,1,4,0:0:0:0:
256,192,18825,1,0,0:0:0:0:
256,192,18960,1,12,0:0:0:0:
256,192,19230,1,8,0:0:0:0:
256,192,19365,1,0,0:0:0:0:
256,192,19500,1,8,0:0:0:0:
256,192,19635,1,4,0:0:0:0:
256,192,19906,1,0,0:0:0:0:
256,192,20041,1,8,0:0:0:0:
256,192,20176,1,0,0:0:0:0:
256,192,20311,1,8,0:0:0:0:
256,192,20446,1,0,0:0:0:0:
256,192,20581,1,8,0:0:0:0:
256,192,20716,1,4,0:0:0:0:
256,192,20987,1,8,0:0:0:0:
256,192,21122,1,4,0:0:0:0:
256,192,21392,1,12,0:0:0:0:
256,192,21662,1,8,0:0:0:0:
256,192,21797,1,0,0:0:0:0:
256,192,21933,1,0,0:0:0:0:
256,192,22000,1,0,0:0:0:0:
256,192,22068,1,8,0:0:0:0:
256,192,22203,1,8,0:0:0:0:
256,192,22338,1,0,0:0:0:0:
256,192,22473,1,8,0:0:0:0:
256,192,22608,1,0,0:0:0:0:
256,192,22743,1,8,0:0:0:0:
256,192,22879,1,0,0:0:0:0:
256,192,23014,1,0,0:0:0:0:
256,192,23081,1,0,0:0:0:0:
256,192,23149,1,8,0:0:0:0:
256,192,23284,1,8,0:0:0:0:
256,192,23419,1,0,0:0:0:0:
256,192,23554,1,8,0:0:0:0:
256,192,23689,1,0,0:0:0:0:
256,192,23825,1,8,0:0:0:0:
256,192,23960,1,0,0:0:0:0:
256,192,24027,1,0,0:0:0:0:
256,192,24095,1,0,0:0:0:0:
256,192,24230,1,8,0:0:0:0:
256,192,24365,1,8,0:0:0:0:
256,192,24500,1,0,0:0:0:0:
256,192,24568,1,0,0:0:0:0:
256,192,24635,1,0,0:0:0:0:
256,192,24770,1,8,0:0:0:0:
256,192,24906,1,8,0:0:0:0:
256,192,25041,1,0,0:0:0:0:
256,192,25221,1,8,0:0:0:0:
256,192,25401,1,0,0:0:0:0:
256,192,25491,1,0,0:0:0:0:
256,192,25581,1,8,0:0:0:0:
256,192,25852,1,0,0:0:0:0:
256,192,26122,1,4,0:0:0:0:
256,192,26392,1,8,0:0:0:0:
256,192,26527,1,0,0:0:0:0:
256,192,26662,1,8,0:0:0:0:
256,192,26730,1,8,0:0:0:0:
256,192,26797,1,8,0:0:0:0:
256,192,26933,1,8,0:0:0:0:
256,192,27068,1,8,0:0:0:0:
256,192,27203,1,0,0:0:0:0:
256,192,27473,1,8,0:0:0:0:
256,192,27608,1,0,0:0:0:0:
256,192,27879,1,8,0:0:0:0:
256,192,28014,1,8,0:0:0:0:
256,192,28149,1,8,0:0:0:0:
256,192,28284,1,0,0:0:0:0:
256,192,28554,1,8,0:0:0:0:
256,192,28689,1,0,0:0:0:0:
256,192,28825,1,8,0:0:0:0:
256,192,28960,1,8,0:0:0:0:
256,192,29027,1,8,0:0:0:0:
256,192,29095,1,8,0:0:0:0:
256,192,29365,1,0,0:0:0:0:
256,192,29500,1,0,0:0:0:0:
256,192,29568,1,0,0:0:0:0:
256,192,29635,1,8,0:0:0:0:
256,192,29770,1,0,0:0:0:0:
256,192,29906,1,4,0:0:0:0:
256,192,30176,1,12,0:0:0:0:
256,192,30446,1,4,0:0:0:0:
256,192,30716,1,8,0:0:0:0:
256,192,30852,1,0,0:0:0:0:
256,192,30987,1,8,0:0:0:0:
256,192,31054,1,8,0:0:0:0:
256,192,31122,1,8,0:0:0:0:
256,192,31257,1,8,0:0:0:0:
256,192,31392,1,8,0:0:0:0:
256,192,31527,1,0,0:0:0:0:
256,192,31797,1,8,0:0:0:0:
256,192,31933,1,0,0:0:0:0:
256,192,32068,1,8,0:0:0:0:
256,192,32203,1,8,0:0:0:0:
256,192,32270,1,8,0:0:0:0:
256,192,32338,1,8,0:0:0:0:
256,192,32608,1,8,0:0:0:0:
256,192,32743,1,8,0:0:0:0:
256,192,32879,1,0,0:0:0:0:
256,192,33014,1,8,0:0:0:0:
256,192,33149,1,0,0:0:0:0:
256,192,33284,1,0,0:0:0:0:
256,192,33419,1,8,0:0:0:0:
256,192,33554,1,0,0:0:0:0:
256,192,33689,1,8,0:0:0:0:
256,192,33825,1,8,0:0:0:0:
256,192,33892,1,8,0:0:0:0:
256,192,33960,1,0,0:0:0:0:
256,192,34095,1,0,0:0:0:0:
256,192,34230,1,12,0:0:0:0:
256,192,34500,1,4,0:0:0:0:
256,192,34770,1,4,0:0:0:0:
256,192,35041,1,8,0:0:0:0:
256,192,35176,1,0,0:0:0:0:
256,192,35311,1,8,0:0:0:0:
256,192,35379,1,8,0:0:0:0:
256,192,35446,1,8,0:0:0:0:
256,192,35582,1,8,0:0:0:0:
256,192,35717,1,8,0:0:0:0:
256,192,35852,1,0,0:0:0:0:
256,192,36122,1,8,0:0:0:0:
256,192,36257,1,0,0:0:0:0:
256,192,36528,1,8,0:0:0:0:
256,192,36663,1,8,0:0:0:0:
256,192,36798,1,8,0:0:0:0:
256,192,36933,1,0,0:0:0:0:
256,192,37203,1,8,0:0:0:0:
256,192,37338,1,0,0:0:0:0:
256,192,37474,1,8,0:0:0:0:
256,192,37609,1,8,0:0:0:0:
256,192,37676,1,8,0:0:0:0:
256,192,37744,1,8,0:0:0:0:
256,192,38014,1,0,0:0:0:0:
256,192,38149,1,0,0:0:0:0:
256,192,38217,1,0,0:0:0:0:
256,192,38284,1,8,0:0:0:0:
256,192,38419,1,0,0:0:0:0:
256,192,38555,1,4,0:0:0:0:
256,192,38825,1,12,0:0:0:0:
256,192,39095,1,4,0:0:0:0:
256,192,39365,1,8,0:0:0:0:
256,192,39501,1,0,0:0:0:0:
256,192,39636,1,8,0:0:0:0:
256,192,39703,1,8,0:0:0:0:
256,192,39771,1,8,0:0:0:0:
256,192,39906,1,8,0:0:0:0:
256,192,40041,1,8,0:0:0:0:
256,192,40176,1,0,0:0:0:0:
256,192,40446,1,8,0:0:0:0:
256,192,40581,1,0,0:0:0:0:
256,192,40716,1,8,0:0:0:0:
256,192,40852,1,8,0:0:0:0:
256,192,40919,1,8,0:0:0:0:
256,192,40987,1,8,0:0:0:0:
256,192,41257,1,0,0:0:0:0:
256,192,41392,1,0,0:0:0:0:
256,192,41527,1,8,0:0:0:0:
256,192,41662,1,0,0:0:0:0:
256,192,41797,1,8,0:0:0:0:
256,192,41933,1,8,0:0:0:0:
256,192,42068,1,0,0:0:0:0:
256,192,42203,1,8,0:0:0:0:
256,192,42338,1,8,0:0:0:0:
256,192,42473,1,8,0:0:0:0:
256,192,42541,1,8,0:0:0:0:
256,192,42608,1,0,0:0:0:0:
256,192,42743,1,0,0:0:0:0:
256,192,42879,1,8,0:0:0:0:
256,192,43014,1,0,0:0:0:0:
256,192,43419,1,4,0:0:0:0:
256,192,43689,1,8,0:0:0:0:
256,192,43824,1,0,0:0:0:0:
256,192,43959,1,8,0:0:0:0:
256,192,44027,1,8,0:0:0:0:
256,192,44094,1,8,0:0:0:0:
256,192,44230,1,8,0:0:0:0:
256,192,44365,1,8,0:0:0:0:
256,192,44500,1,0,0:0:0:0:
256,192,44770,1,8,0:0:0:0:
256,192,44905,1,0,0:0:0:0:
256,192,45176,1,8,0:0:0:0:
256,192,45311,1,8,0:0:0:0:
256,192,45446,1,8,0:0:0:0:
256,192,45581,1,0,0:0:0:0:
256,192,45851,1,8,0:0:0:0:
256,192,45986,1,0,0:0:0:0:
256,192,46122,1,8,0:0:0:0:
256,192,46257,1,8,0:0:0:0:
256,192,46324,1,8,0:0:0:0:
256,192,46392,1,8,0:0:0:0:
256,192,46662,1,0,0:0:0:0:
256,192,46797,1,0,0:0:0:0:
256,192,46865,1,0,0:0:0:0:
256,192,46932,1,8,0:0:0:0:
256,192,47067,1,0,0:0:0:0:
256,192,47203,1,4,0:0:0:0:
256,192,47473,1,12,0:0:0:0:
256,192,47743,1,4,0:0:0:0:
256,192,48013,1,8,0:0:0:0:
256,192,48149,1,0,0:0:0:0:
256,192,48284,1,8,0:0:0:0:
256,192,48351,1,8,0:0:0:0:
256,192,48419,1,8,0:0:0:0:
256,192,48554,1,8,0:0:0:0:
256,192,48689,1,8,0:0:0:0:
256,192,48824,1,0,0:0:0:0:
256,192,49094,1,8,0:0:0:0:
256,192,49230,1,0,0:0:0:0:
256,192,49365,1,8,0:0:0:0:
256,192,49500,1,8,0:0:0:0:
256,192,49567,1,8,0:0:0:0:
256,192,49635,1,8,0:0:0:0:
256,192,49905,1,8,0:0:0:0:
256,192,50040,1,8,0:0:0:0:
256,192,50176,1,0,0:0:0:0:
256,192,50311,1,8,0:0:0:0:
256,192,50446,1,0,0:0:0:0:
256,192,50581,1,0,0:0:0:0:
256,192,50716,1,8,0:0:0:0:
256,192,50851,1,0,0:0:0:0:
256,192,50986,1,8,0:0:0:0:
256,192,51122,1,8,0:0:0:0:
256,192,51189,1,8,0:0:0:0:
256,192,51257,1,0,0:0:0:0:
256,192,51392,1,0,0:0:0:0:
256,192,51527,1,12,0:0:0:0:
256,192,51797,1,4,0:0:0:0:
256,192,52067,1,4,0:0:0:0:
256,192,52338,1,0,0:0:0:0:
256,192,52473,1,8,0:0:0:0:
256,192,52608,1,0,0:0:0:0:
256,192,52676,1,0,0:0:0:0:
256,192,52743,1,8,0:0:0:0:
256,192,52879,1,8,0:0:0:0:
256,192,53014,1,8,0:0:0:0:
256,192,53149,1,0,0:0:0:0:
256,192,53419,1,8,0:0:0:0:
256,192,53554,1,0,0:0:0:0:
256,192,53689,1,8,0:0:0:0:
256,192,53825,1,8,0:0:0:0:
256,192,53892,1,8,0:0:0:0:
256,192,53960,1,8,0:0:0:0:
256,192,54095,1,8,0:0:0:0:
256,192,54230,1,0,0:0:0:0:
256,192,54500,1,0,0:0:0:0:
256,192,54635,1,8,0:0:0:0:
256,192,54770,1,8,0:0:0:0:
256,192,54906,1,8,0:0:0:0:
256,192,54973,1,8,0:0:0:0:
256,192,55041,1,8,0:0:0:0:
256,192,55176,1,0,0:0:0:0:
256,192,55311,1,0,0:0:0:0:
256,192,55581,1,0,0:0:0:0:
256,192,55716,1,8,0:0:0:0:
256,192,55852,1,0,0:0:0:0:
256,192,55987,1,0,0:0:0:0:
256,192,56054,1,0,0:0:0:0:
256,192,56122,1,8,0:0:0:0:
256,192,56257,1,0,0:0:0:0:
256,192,56392,1,4,0:0:0:0:
256,192,56662,1,0,0:0:0:0:
256,192,56797,1,8,0:0:0:0:
256,192,56933,1,0,0:0:0:0:
256,192,57000,1,0,0:0:0:0:
256,192,57068,1,8,0:0:0:0:
256,192,57203,1,8,0:0:0:0:
256,192,57338,1,8,0:0:0:0:
256,192,57473,1,0,0:0:0:0:
256,192,57743,1,8,0:0:0:0:
256,192,57879,1,8,0:0:0:0:
256,192,58014,1,8,0:0:0:0:
256,192,58149,1,8,0:0:0:0:
256,192,58216,1,8,0:0:0:0:
256,192,58284,1,8,0:0:0:0:
256,192,58419,1,8,0:0:0:0:
256,192,58554,1,0,0:0:0:0:
256,192,58689,1,0,0:0:0:0:
256,192,58757,1,0,0:0:0:0:
256,192,58825,1,8,0:0:0:0:
256,192,58960,1,8,0:0:0:0:
256,192,59095,1,0,0:0:0:0:
256,192,59230,1,8,0:0:0:0:
256,192,59365,1,0,0:0:0:0:
256,192,59500,1,8,0:0:0:0:
256,192,59635,1,8,0:0:0:0:
256,192,59770,1,8,0:0:0:0:
256,192,59838,1,8,0:0:0:0:
256,192,59906,1,0,0:0:0:0:
256,192,60041,1,0,0:0:0:0:
256,192,60176,1,8,0:0:0:0:
256,192,60311,1,8,0:0:0:0:
256,192,60379,1,0,0:0:0:0:
256,192,60446,1,8,0:0:0:0:
256,192,60581,1,0,0:0:0:0:
256,192,60716,1,0,0:0:0:0:
256,192,60852,1,8,0:0:0:0:
256,192,60987,1,8,0:0:0:0:
256,192,61122,1,0,0:0:0:0:
256,192,61189,1,0,0:0:0:0:
256,192,61257,1,8,0:0:0:0:
256,192,61527,1,0,0:0:0:0:
256,192,61662,1,8,0:0:0:0:
256,192,61797,1,0,0:0:0:0:
256,192,61933,1,8,0:0:0:0:
256,192,62068,1,8,0:0:0:0:
256,192,62203,1,0,0:0:0:0:
256,192,62270,1,0,0:0:0:0:
256,192,62338,1,8,0:0:0:0:
256,192,62473,1,8,0:0:0:0:
256,192,62608,1,0,0:0:0:0:
256,192,62743,1,8,0:0:0:0:
256,192,62879,1,0,0:0:0:0:
256,192,63014,1,8,0:0:0:0:
256,192,63149,1,8,0:0:0:0:
256,192,63284,1,0,0:0:0:0:
256,192,63352,1,0,0:0:0:0:
256,192,63419,1,8,0:0:0:0:
256,192,63689,1,0,0:0:0:0:
256,192,63825,1,8,0:0:0:0:
256,192,63960,1,0,0:0:0:0:
256,192,64095,1,8,0:0:0:0:
256,192,64230,1,8,0:0:0:0:
256,192,64365,1,0,0:0:0:0:
256,192,64433,1,0,0:0:0:0:
256,192,64500,1,8,0:0:0:0:
256,192,64635,1,8,0:0:0:0:
256,192,64770,1,8,0:0:0:0:
256,192,65041,1,0,0:0:0:0:
256,192,65311,1,8,0:0:0:0:
256,192,65446,1,0,0:0:0:0:
256,192,65581,1,8,0:0:0:0:
256,192,65716,1,0,0:0:0:0:
256,192,65784,1,0,0:0:0:0:
256,192,65852,1,8,0:0:0:0:
256,192,65987,1,8,0:0:0:0:
256,192,66257,1,0,0:0:0:0:
256,192,66392,1,8,0:0:0:0:
256,192,66527,1,0,0:0:0:0:
256,192,66595,1,0,0:0:0:0:
256,192,66662,1,8,0:0:0:0:
256,192,66797,1,8,0:0:0:0:
256,192,66865,1,0,0:0:0:0:
256,192,66933,1,8,0:0:0:0:
256,192,67068,1,0,0:0:0:0:
256,192,67203,1,8,0:0:0:0:
256,192,67338,1,8,0:0:0:0:
256,192,67406,1,8,0:0:0:0:
256,192,67473,1,0,0:0:0:0:
256,192,67608,1,8,0:0:0:0:
256,192,67743,1,8,0:0:0:0:
256,192,67879,1,0,0:0:0:0:
256,192,68014,1,8,0:0:0:0:
256,192,68149,1,0,0:0:0:0:
256,192,68284,1,8,0:0:0:0:
256,192,68554,1,8,0:0:0:0:
256,192,68689,1,8,0:0:0:0:
256,192,68825,1,8,0:0:0:0:
256,192,68960,1,8,0:0:0:0:
256,192,69095,1,8,0:0:0:0:
256,192,69162,1,8,0:0:0:0:
256,192,69230,1,8,0:0:0:0:
256,192,69297,1,8,0:0:0:0:
256,192,69365,1,0,0:0:0:0:
256,192,69635,1,8,0:0:0:0:
256,192,69906,1,0,0:0:0:0:
256,192,70041,1,0,0:0:0:0:
256,192,70108,1,0,0:0:0:0:
256,192,70176,1,8,0:0:0:0:
256,192,70311,1,8,0:0:0:0:
256,192,70581,1,0,0:0:0:0:
256,192,70716,1,8,0:0:0:0:
256,192,70852,1,0,0:0:0:0:
256,192,70987,1,8,0:0:0:0:
256,192,71122,1,8,0:0:0:0:
256,192,71189,1,0,0:0:0:0:
256,192,71257,1,8,0:0:0:0:
256,192,71392,1,0,0:0:0:0:
256,192,71460,1,0,0:0:0:0:
256,192,71527,1,8,0:0:0:0:
256,192,71662,1,0,0:0:0:0:
256,192,71933,1,8,0:0:0:0:
256,192,72068,1,0,0:0:0:0:
256,192,72203,1,0,0:0:0:0:
256,192,72270,1,0,0:0:0:0:
256,192,72338,1,8,0:0:0:0:
256,192,72473,1,8,0:0:0:0:
256,192,72743,1,0,0:0:0:0:
256,192,72879,1,8,0:0:0:0:
256,192,73014,1,0,0:0:0:0:
256,192,73284,1,8,0:0:0:0:
256,192,73419,1,8,0:0:0:0:
256,192,73689,1,0,0:0:0:0:
256,192,73960,1,8,0:0:0:0:
256,192,74230,1,0,0:0:0:0:
256,192,74365,1,0,0:0:0:0:
256,192,74433,1,0,0:0:0:0:
256,192,74500,1,8,0:0:0:0:
256,192,74635,1,8,0:0:0:0:
256,192,74906,1,0,0:0:0:0:
256,192,75041,1,8,0:0:0:0:
256,192,75176,1,0,0:0:0:0:
256,192,75243,1,0,0:0:0:0:
256,192,75311,1,8,0:0:0:0:
256,192,75446,1,0,0:0:0:0:
256,192,75581,1,8,0:0:0:0:
256,192,75716,1,0,0:0:0:0:
256,192,75852,1,8,0:0:0:0:
256,192,75987,1,8,0:0:0:0:
256,192,76122,1,0,0:0:0:0:
256,192,76257,1,8,0:0:0:0:
256,192,76392,1,8,0:0:0:0:
256,192,76527,1,0,0:0:0:0:
256,192,76662,1,8,0:0:0:0:
256,192,76797,1,0,0:0:0:0:
256,192,76933,1,8,0:0:0:0:
256,192,77203,1,8,0:0:0:0:
256,192,77338,1,8,0:0:0:0:
256,192,77473,1,8,0:0:0:0:
256,192,77608,1,8,0:0:0:0:
256,192,77743,1,12,0:0:0:0:
256,192,78014,1,4,0:0:0:0:
256,192,78284,1,8,0:0:0:0:
256,192,78419,1,0,0:0:0:0:
256,192,78554,1,8,0:0:0:0:
256,192,78622,1,8,0:0:0:0:
256,192,78689,1,8,0:0:0:0:
256,192,78825,1,8,0:0:0:0:
256,192,78960,1,8,0:0:0:0:
256,192,79095,1,0,0:0:0:0:
256,192,79365,1,8,0:0:0:0:
256,192,79500,1,0,0:0:0:0:
256,192,79771,1,8,0:0:0:0:
256,192,79906,1,8,0:0:0:0:
256,192,80041,1,8,0:0:0:0:
256,192,80176,1,0,0:0:0:0:
256,192,80446,1,8,0:0:0:0:
256,192,80581,1,0,0:0:0:0:
256,192,80717,1,8,0:0:0:0:
256,192,80852,1,8,0:0:0:0:
256,192,80919,1,8,0:0:0:0:
256,192,80987,1,8,0:0:0:0:
256,192,81257,1,0,0:0:0:0:
256,192,81392,1,0,0:0:0:0:
256,192,81460,1,0,0:0:0:0:
256,192,81527,1,8,0:0:0:0:
256,192,81662,1,0,0:0:0:0:
256,192,81798,1,4,0:0:0:0:
256,192,82068,1,12,0:0:0:0:
256,192,82338,1,4,0:0:0:0:
256,192,82608,1,8,0:0:0:0:
256,192,82744,1,0,0:0:0:0:
256,192,82879,1,8,0:0:0:0:
256,192,82946,1,8,0:0:0:0:
256,192,83014,1,8,0:0:0:0:
256,192,83149,1,8,0:0:0:0:
256,192,83284,1,8,0:0:0:0:
256,192,83419,1,0,0:0:0:0:
256,192,83689,1,8,0:0:0:0:
256,192,83825,1,0,0:0:0:0:
256,192,84095,1,8,0:0:0:0:
256,192,84230,1,8,0:0:0:0:
256,192,84365,1,8,0:0:0:0:
256,192,84500,1,0,0:0:0:0:
256,192,84770,1,8,0:0:0:0:
256,192,84906,1,0,0:0:0:0:
256,192,85041,1,8,0:0:0:0:
256,192,85176,1,8,0:0:0:0:
256,192,85243,1,8,0:0:0:0:
256,192,85311,1,8,0:0:0:0:
256,192,85581,1,0,0:0:0:0:
256,192,85716,1,0,0:0:0:0:
256,192,85784,1,0,0:0:0:0:
256,192,85852,1,8,0:0:0:0:
256,192,85987,1,0,0:0:0:0:
256,192,86122,1,4,0:0:0:0:
256,192,86392,1,12,0:0:0:0:
256,192,86662,1,0,0:0:0:0:
256,192,86797,1,0,0:0:0:0:
256,192,86933,1,8,0:0:0:0:
256,192,87068,1,8,0:0:0:0:
256,192,87203,1,0,0:0:0:0:
256,192,87338,1,8,0:0:0:0:
256,192,87473,1,0,0:0:0:0:
256,192,87608,1,8,0:0:0:0:
256,192,87743,1,0,0:0:0:0:
256,192,87879,1,0,0:0:0:0:
256,192,87946,1,0,0:0:0:0:
256,192,88014,1,8,0:0:0:0:
256,192,88149,1,8,0:0:0:0:
256,192,88284,1,0,0:0:0:0:
256,192,88419,1,8,0:0:0:0:
256,192,88554,1,0,0:0:0:0:
256,192,88689,1,8,0:0:0:0:
256,192,88825,1,0,0:0:0:0:
256,192,88892,1,0,0:0:0:0:
256,192,88960,1,0,0:0:0:0:
256,192,89095,1,0,0:0:0:0:
256,192,89230,1,0,0:0:0:0:
256,192,89365,1,8,0:0:0:0:
256,192,89433,1,8,0:0:0:0:
256,192,89500,1,8,0:0:0:0:
256,192,89635,1,8,0:0:0:0:
256,192,89770,1,8,0:0:0:0:
256,192,89906,1,0,0:0:0:0:
256,192,90041,1,0,0:0:0:0:
256,192,90108,1,0,0:0:0:0:
256,192,90176,1,8,0:0:0:0:
256,192,90311,1,0,0:0:0:0:
256,192,90446,1,8,0:0:0:0:
256,192,90716,1,0,0:0:0:0:
256,192,90987,1,12,0:0:0:0:
256,192,91257,1,8,0:0:0:0:
256,192,91325,1,8,0:0:0:0:
256,192,91392,1,0,0:0:0:0:
256,192,91527,1,8,0:0:0:0:
256,192,91662,1,0,0:0:0:0:
256,192,91730,1,0,0:0:0:0:
256,192,91797,1,0,0:0:0:0:
256,192,91933,1,8,0:0:0:0:
256,192,92203,1,0,0:0:0:0:
256,192,92338,1,8,0:0:0:0:
256,192,92473,1,0,0:0:0:0:
256,192,92541,1,0,0:0:0:0:
256,192,92608,1,0,0:0:0:0:
256,192,92743,1,0,0:0:0:0:
256,192,92879,1,8,0:0:0:0:
256,192,93149,1,8,0:0:0:0:
256,192,93284,1,0,0:0:0:0:
256,192,93554,1,8,0:0:0:0:
256,192,93689,1,8,0:0:0:0:
256,192,93825,1,0,0:0:0:0:
256,192,93960,1,0,0:0:0:0:
256,192,94027,1,0,0:0:0:0:
256,192,94095,1,8,0:0:0:0:
256,192,94230,1,0,0:0:0:0:
256,192,94365,1,0,0:0:0:0:
256,192,94433,1,0,0:0:0:0:
256,192,94500,1,8,0:0:0:0:
256,192,94635,1,0,0:0:0:0:
256,192,94906,1,8,0:0:0:0:
256,192,95041,1,8,0:0:0:0:
256,192,95311,1,0,0:0:0:0:
256,192,95581,1,8,0:0:0:0:
256,192,95649,1,8,0:0:0:0:
256,192,95716,1,0,0:0:0:0:
256,192,95852,1,8,0:0:0:0:
256,192,95987,1,0,0:0:0:0:
256,192,96054,1,0,0:0:0:0:
256,192,96122,1,0,0:0:0:0:
256,192,96257,1,8,0:0:0:0:
256,192,96527,1,0,0:0:0:0:
256,192,96662,1,8,0:0:0:0:
256,192,96797,1,0,0:0:0:0:
256,192,96865,1,0,0:0:0:0:
256,192,96933,1,8,0:0:0:0:
256,192,97068,1,0,0:0:0:0:
256,192,97203,1,8,0:0:0:0:
256,192,97338,1,0,0:0:0:0:
256,192,97406,1,0,0:0:0:0:
256,192,97473,1,8,0:0:0:0:
256,192,97608,1,8,0:0:0:0:
256,192,97743,1,0,0:0:0:0:
256,192,97879,1,8,0:0:0:0:
256,192,98014,1,8,0:0:0:0:
256,192,98149,1,0,0:0:0:0:
256,192,98284,1,8,0:0:0:0:
256,192,98419,1,0,0:0:0:0:
256,192,98487,1,0,0:0:0:0:
256,192,98554,1,8,0:0:0:0:
256,192,98825,1,8,0:0:0:0:
256,192,98960,1,8,0:0:0:0:
256,192,99095,1,8,0:0:0:0:
256,192,99230,1,8,0:0:0:0:
256,192,99365,1,12,0:0:0:0:
256,192,99635,1,4,0:0:0:0:
256,192,99906,1,8,0:0:0:0:
256,192,99974,1,8,0:0:0:0:
256,192,100041,1,0,0:0:0:0:
256,192,100176,1,8,0:0:0:0:
256,192,100311,1,0,0:0:0:0:
256,192,100379,1,0,0:0:0:0:
256,192,100446,1,0,0:0:0:0:
256,192,100582,1,8,0:0:0:0:
256,192,100852,1,0,0:0:0:0:
256,192,100987,1,8,0:0:0:0:
256,192,101122,1,0,0:0:0:0:
256,192,101190,1,0,0:0:0:0:
256,192,101257,1,0,0:0:0:0:
256,192,101392,1,0,0:0:0:0:
256,192,101528,1,8,0:0:0:0:
256,192,101662,1,0,0:0:0:0:
256,192,101798,1,8,0:0:0:0:
256,192,101933,1,0,0:0:0:0:
256,192,102203,1,8,0:0:0:0:
256,192,102338,1,8,0:0:0:0:
256,192,102474,1,0,0:0:0:0:
256,192,102609,1,0,0:0:0:0:
256,192,102676,1,0,0:0:0:0:
256,192,102744,1,8,0:0:0:0:
256,192,102879,1,0,0:0:0:0:
256,192,103014,1,0,0:0:0:0:
256,192,103082,1,0,0:0:0:0:
256,192,103149,1,8,0:0:0:0:
256,192,103284,1,0,0:0:0:0:
256,192,103555,1,8,0:0:0:0:
256,192,103690,1,8,0:0:0:0:
256,192,103825,1,0,0:0:0:0:
256,192,103960,1,12,0:0:0:0:
256,192,104230,1,8,0:0:0:0:
256,192,104298,1,8,0:0:0:0:
256,192,104365,1,0,0:0:0:0:
256,192,104501,1,8,0:0:0:0:
256,192,104635,1,8,0:0:0:0:
256,192,104703,1,8,0:0:0:0:
256,192,104771,1,0,0:0:0:0:
256,192,104906,1,8,0:0:0:0:
256,192,105176,1,8,0:0:0:0:
256,192,105311,1,0,0:0:0:0:
256,192,105446,1,0,0:0:0:0:
256,192,105514,1,0,0:0:0:0:
256,192,105582,1,8,0:0:0:0:
256,192,105716,1,8,0:0:0:0:
256,192,105852,1,0,0:0:0:0:
256,192,105987,1,8,0:0:0:0:
256,192,106122,1,8,0:0:0:0:
256,192,106257,1,0,0:0:0:0:
256,192,106325,1,0,0:0:0:0:
256,192,106392,1,8,0:0:0:0:
256,192,106527,1,8,0:0:0:0:
256,192,106662,1,8,0:0:0:0:
256,192,106797,1,0,0:0:0:0:
256,192,106865,1,0,0:0:0:0:
256,192,106933,1,8,0:0:0:0:
256,192,107068,1,8,0:0:0:0:
256,192,107203,1,8,0:0:0:0:
256,192,107338,1,0,0:0:0:0:
256,192,107473,1,8,0:0:0:0:
256,192,107608,1,0,0:0:0:0:
256,192,107743,1,8,0:0:0:0:
256,192,107879,1,8,0:0:0:0:
256,192,108014,1,0,0:0:0:0:
256,192,108284,1,4,0:0:0:0:
256,192,108554,1,0,0:0:0:0:
256,192,108690,1,8,0:0:0:0:
256,192,108825,1,0,0:0:0:0:
256,192,108960,1,8,0:0:0:0:
256,192,109095,1,0,0:0:0:0:
256,192,109230,1,8,0:0:0:0:
256,192,109365,1,4,0:0:0:0:
256,192,109636,1,0,0:0:0:0:
256,192,109771,1,12,0:0:0:0:
256,192,110041,1,8,0:0:0:0:
256,192,110176,1,0,0:0:0:0:
256,192,110311,1,8,0:0:0:0:
256,192,110446,1,4,0:0:0:0:
256,192,110717,1,0,0:0:0:0:
256,192,110852,1,8,0:0:0:0:
256,192,110987,1,0,0:0:0:0:
256,192,111122,1,8,0:0:0:0:
256,192,111257,1,0,0:0:0:0:
256,192,111392,1,8,0:0:0:0:
256,192,111527,1,4,0:0:0:0:
256,192,111798,1,8,0:0:0:0:
256,192,111933,1,4,0:0:0:0:
256,192,112203,1,12,0:0:0:0:
256,192,112473,1,8,0:0:0:0:
256,192,112608,1,0,0:0:0:0:
256,192,112744,1,0,0:0:0:0:
256,192,112811,1,0,0:0:0:0:
256,192,112879,1,8,0:0:0:0:
256,192,113014,1,8,0:0:0:0:
256,192,113149,1,0,0:0:0:0:
256,192,113284,1,8,0:0:0:0:
256,192,113419,1,0,0:0:0:0:
256,192,113554,1,8,0:0:0:0:
256,192,113690,1,0,0:0:0:0:
256,192,113825,1,0,0:0:0:0:
256,192,113892,1,0,0:0:0:0:
256,192,113960,1,8,0:0:0:0:
256,192,114095,1,8,0:0:0:0:
256,192,114230,1,0,0:0:0:0:
256,192,114365,1,8,0:0:0:0:
256,192,114500,1,0,0:0:0:0:
256,192,114636,1,8,0:0:0:0:
256,192,114771,1,0,0:0:0:0:
256,192,114838,1,0,0:0:0:0:
256,192,114906,1,0,0:0:0:0:
256,192,115041,1,8,0:0:0:0:
256,192,115176,1,8,0:0:0:0:
256,192,115311,1,0,0:0:0:0:
256,192,115379,1,0,0:0:0:0:
256,192,115446,1,0,0:0:0:0:
256,192,115581,1,8,0:0:0:0:
256,192,115717,1,8,0:0:0:0:
256,192,115852,1,0,0:0:0:0:
256,192,116032,1,8,0:0:0:0:
256,192,116212,1,0,0:0:0:0:
256,192,116302,1,0,0:0:0:0:
256,192,116392,1,8,0:0:0:0:
256,192,116663,1,0,0:0:0:0:
256,192,116933,1,4,0:0:0:0:
