osu file format v14

[General]
AudioFilename: audio.mp3
AudioLeadIn: 0
PreviewTime: -1
Countdown: 0
SampleSet: Soft
StackLeniency: 0.7
Mode: 3
LetterboxInBreaks: 0
SpecialStyle: 1
WidescreenStoryboard: 1

[Editor]
DistanceSpacing: 0.85
BeatDivisor: 4
GridSize: 32
TimelineZoom: 1.3

[Metadata]
Title:GOODBOUNCE
TitleUnicode:GOODBOUNCE
Artist:EBIMAYO
ArtistUnicode:EBIMAYO
Creator:[Emiria]
Version:Easy
Source:BMS
Tags:bofu2016 donkbass hardcore
BeatmapID:1259645
BeatmapSetID:583647

[Difficulty]
HPDrainRate:8
CircleSize:8
OverallDifficulty:8
ApproachRate:5
SliderMultiplier:1.4
SliderTickRate:1

[Events]
//Background and Video events
0,0,"goodbounce.jpg",0,0
//Break Periods
//Storyboard Layer 0 (Background)
//Storyboard Layer 1 (Fail)
//Storyboard Layer 2 (Pass)
//Storyboard Layer 3 (Foreground)
//Storyboard Sound Samples

[TimingPoints]
0,333.333333333333,4,2,0,0,1,0

[HitObjects]
96,192,0,5,0,0:0:0:0:
352,192,333,1,0,0:0:0:0:
96,192,666,1,0,0:0:0:0:
352,192,999,1,0,0:0:0:0:
96,192,1333,1,0,0:0:0:0:
352,192,1666,1,0,0:0:0:0:
224,192,1999,1,0,0:0:0:0:
96,192,2333,1,0,0:0:0:0:
480,192,2666,1,0,0:0:0:0:
352,192,2999,1,0,0:0:0:0:
224,192,3333,1,0,0:0:0:0:
96,192,3666,1,0,0:0:0:0:
352,192,3999,1,0,0:0:0:0:
224,192,4333,1,0,0:0:0:0:
96,192,4666,1,0,0:0:0:0:
224,192,4999,1,0,0:0:0:0:
352,192,5333,1,0,0:0:0:0:
480,192,5666,1,0,0:0:0:0:
96,192,5999,1,0,0:0:0:0:
352,192,6333,1,0,0:0:0:0:
96,192,6666,1,0,0:0:0:0:
352,192,6999,1,0,0:0:0:0:
96,192,7333,1,0,0:0:0:0:
352,192,7666,1,0,0:0:0:0:
96,192,7999,1,0,0:0:0:0:
224,192,8333,1,0,0:0:0:0:
288,192,8666,1,0,0:0:0:0:
416,192,8999,1,0,0:0:0:0:
32,192,9333,1,0,0:0:0:0:
32,192,9666,1,0,0:0:0:0:
32,192,9999,1,0,0:0:0:0:
288,192,10333,1,0,0:0:0:0:
96,192,10666,1,0,0:0:0:0:
160,192,11333,1,0,0:0:0:0:
352,192,11999,1,0,0:0:0:0:
480,192,12666,1,0,0:0:0:0:
96,192,12999,1,0,0:0:0:0:
352,192,13166,1,0,0:0:0:0:
96,192,13333,1,0,0:0:0:0:
224,192,13999,1,0,0:0:0:0:
288,192,14666,1,0,0:0:0:0:
416,192,15333,1,0,0:0:0:0:
288,192,15666,1,0,0:0:0:0:
160,192,15833,1,0,0:0:0:0:
352,192,15999,1,0,0:0:0:0:
352,192,16666,1,0,0:0:0:0:
96,192,17333,1,0,0:0:0:0:
224,192,17999,1,0,0:0:0:0:
480,192,18333,1,0,0:0:0:0:
352,192,18499,1,0,0:0:0:0:
224,192,18666,1,0,0:0:0:0:
288,192,19333,1,0,0:0:0:0:
160,192,19999,1,0,0:0:0:0:
288,192,20666,1,0,0:0:0:0:
32,192,20999,1,0,0:0:0:0:
32,192,21333,1,0,0:0:0:0:
480,192,21333,1,0,0:0:0:0:
288,192,21666,1,0,0:0:0:0:
160,192,21833,1,0,0:0:0:0:
480,192,21999,1,0,0:0:0:0:
352,192,22333,1,0,0:0:0:0:
224,192,22499,1,0,0:0:0:0:
416,192,22666,1,0,0:0:0:0:
288,192,22999,1,0,0:0:0:0:
160,192,23166,1,0,0:0:0:0:
416,192,23333,1,0,0:0:0:0:
288,192,23666,1,0,0:0:0:0:
160,192,23833,1,0,0:0:0:0:
96,192,23999,1,0,0:0:0:0:
416,192,24333,1,0,0:0:0:0:
288,192,24499,1,0,0:0:0:0:
96,192,24666,1,0,0:0:0:0:
416,192,24999,1,0,0:0:0:0:
288,192,25166,1,0,0:0:0:0:
96,192,25333,1,0,0:0:0:0:
416,192,25666,1,0,0:0:0:0:
288,192,25833,1,0,0:0:0:0:
96,192,25999,1,0,0:0:0:0:
480,192,26333,1,0,0:0:0:0:
352,192,26499,1,0,0:0:0:0:
96,192,26666,1,0,0:0:0:0:
416,192,26999,1,0,0:0:0:0:
288,192,27166,1,0,0:0:0:0:
96,192,27333,1,0,0:0:0:0:
480,192,27666,1,0,0:0:0:0:
352,192,27833,1,0,0:0:0:0:
96,192,27999,1,0,0:0:0:0:
416,192,28333,1,0,0:0:0:0:
288,192,28499,1,0,0:0:0:0:
96,192,28666,1,0,0:0:0:0:
288,192,28999,1,0,0:0:0:0:
160,192,29166,1,0,0:0:0:0:
480,192,29333,1,0,0:0:0:0:
96,192,29666,1,0,0:0:0:0:
224,192,29833,1,0,0:0:0:0:
480,192,29999,1,0,0:0:0:0:
96,192,30333,1,0,0:0:0:0:
224,192,30499,1,0,0:0:0:0:
32,192,30666,1,0,0:0:0:0:
224,192,31666,1,0,0:0:0:0:
32,192,31999,1,0,0:0:0:0:
480,192,31999,1,0,0:0:0:0:
352,192,32249,1,0,0:0:0:0:
288,192,32499,1,0,0:0:0:0:
416,192,32833,1,0,0:0:0:0:
160,192,32999,1,0,0:0:0:0:
352,192,33166,1,0,0:0:0:0:
224,192,33333,1,0,0:0:0:0:
480,192,33499,1,0,0:0:0:0:
96,192,33666,1,0,0:0:0:0:
352,192,33749,1,0,0:0:0:0:
224,192,33916,1,0,0:0:0:0:
96,192,34166,1,0,0:0:0:0:
480,192,34666,1,0,0:0:0:0:
352,192,34916,1,0,0:0:0:0:
224,192,35166,1,0,0:0:0:0:
96,192,35499,1,0,0:0:0:0:
352,192,35666,1,0,0:0:0:0:
224,192,35833,1,0,0:0:0:0:
416,192,35999,1,0,0:0:0:0:
288,192,36166,1,0,0:0:0:0:
96,192,36333,1,0,0:0:0:0:
224,192,36416,1,0,0:0:0:0:
480,192,36583,1,0,0:0:0:0:
160,192,36749,1,0,0:0:0:0:
288,192,36833,1,0,0:0:0:0:
352,192,36999,1,0,0:0:0:0:
160,192,37166,1,0,0:0:0:0:
352,192,37333,1,0,0:0:0:0:
224,192,37666,1,0,0:0:0:0:
224,192,37916,1,0,0:0:0:0:
416,192,38083,1,0,0:0:0:0:
288,192,38249,1,0,0:0:0:0:
160,192,38499,1,0,0:0:0:0:
480,192,38666,1,0,0:0:0:0:
352,192,38999,1,0,0:0:0:0:
224,192,39166,1,0,0:0:0:0:
480,192,39333,1,0,0:0:0:0:
352,192,39666,1,0,0:0:0:0:
288,192,39999,1,0,0:0:0:0:
416,192,40333,1,0,0:0:0:0:
224,192,40583,1,0,0:0:0:0:
416,192,40666,1,0,0:0:0:0:
96,192,40749,1,0,0:0:0:0:
352,192,40916,1,0,0:0:0:0:
224,192,41166,1,0,0:0:0:0:
480,192,41333,1,0,0:0:0:0:
352,192,41583,1,0,0:0:0:0:
224,192,41833,1,0,0:0:0:0:
416,192,41999,1,0,0:0:0:0:
288,192,42249,1,0,0:0:0:0:
160,192,42499,1,0,0:0:0:0:
352,192,42666,1,0,0:0:0:0:
160,192,42916,1,0,0:0:0:0:
352,192,43166,1,0,0:0:0:0:
96,192,43499,1,0,0:0:0:0:
480,192,43583,1,0,0:0:0:0:
224,192,43666,1,0,0:0:0:0:
352,192,43833,1,0,0:0:0:0:
480,192,43999,1,0,0:0:0:0:
160,192,44166,1,0,0:0:0:0:
352,192,44333,1,0,0:0:0:0:
480,192,44416,1,0,0:0:0:0:
224,192,44583,1,0,0:0:0:0:
96,192,44833,1,0,0:0:0:0:
480,192,45333,1,0,0:0:0:0:
96,192,45583,1,0,0:0:0:0:
352,192,45833,1,0,0:0:0:0:
96,192,46166,1,0,0:0:0:0:
480,192,46333,1,0,0:0:0:0:
352,192,46499,1,0,0:0:0:0:
96,192,46666,1,0,0:0:0:0:
224,192,46833,1,0,0:0:0:0:
352,192,46999,1,0,0:0:0:0:
480,192,47083,1,0,0:0:0:0:
160,192,47249,1,0,0:0:0:0:
288,192,47416,1,0,0:0:0:0:
416,192,47499,1,0,0:0:0:0:
352,192,47666,1,0,0:0:0:0:
224,192,47833,1,0,0:0:0:0:
96,192,47999,1,0,0:0:0:0:
416,192,48333,1,0,0:0:0:0:
96,192,48499,1,0,0:0:0:0:
224,192,48583,1,0,0:0:0:0:
416,192,48749,1,0,0:0:0:0:
288,192,48833,1,0,0:0:0:0:
416,192,48916,1,0,0:0:0:0:
288,192,49166,1,0,0:0:0:0:
96,192,49333,1,0,0:0:0:0:
224,192,49499,1,0,0:0:0:0:
352,192,49666,1,0,0:0:0:0:
160,192,49833,1,0,0:0:0:0:
480,192,49999,1,0,0:0:0:0:
352,192,50333,1,0,0:0:0:0:
96,192,50666,1,0,0:0:0:0:
416,192,50999,1,0,0:0:0:0:
96,192,51166,1,0,0:0:0:0:
224,192,51249,1,0,0:0:0:0:
480,192,51416,1,0,0:0:0:0:
352,192,51499,1,0,0:0:0:0:
480,192,51583,1,0,0:0:0:0:
160,192,51833,1,0,0:0:0:0:
480,192,51999,1,0,0:0:0:0:
352,192,52249,1,0,0:0:0:0:
224,192,52499,1,0,0:0:0:0:
416,192,52666,1,0,0:0:0:0:
288,192,52916,1,0,0:0:0:0:
160,192,53166,1,0,0:0:0:0:
96,192,53333,1,0,0:0:0:0:
32,192,53333,1,0,0:0:0:0:
352,192,53666,1,0,0:0:0:0:
96,192,53999,1,0,0:0:0:0:
352,192,54333,1,0,0:0:0:0:
224,192,54666,1,0,0:0:0:0:
480,192,54999,1,0,0:0:0:0:
224,192,55333,1,0,0:0:0:0:
480,192,55666,1,0,0:0:0:0:
96,192,55999,1,0,0:0:0:0:
352,192,56333,1,0,0:0:0:0:
96,192,56666,1,0,0:0:0:0:
352,192,56999,1,0,0:0:0:0:
96,192,57333,1,0,0:0:0:0:
352,192,57666,1,0,0:0:0:0:
96,192,57999,1,0,0:0:0:0:
352,192,58333,1,0,0:0:0:0:
32,192,58666,1,0,0:0:0:0:
96,192,58666,1,0,0:0:0:0:
224,192,58999,1,0,0:0:0:0:
352,192,59333,1,0,0:0:0:0:
480,192,59666,1,0,0:0:0:0:
96,192,59999,1,0,0:0:0:0:
32,192,59999,1,0,0:0:0:0:
224,192,60333,1,0,0:0:0:0:
352,192,60666,1,0,0:0:0:0:
480,192,60999,1,0,0:0:0:0:
32,192,61333,1,0,0:0:0:0:
96,192,61333,1,0,0:0:0:0:
224,192,61666,1,0,0:0:0:0:
352,192,61999,1,0,0:0:0:0:
32,192,61999,1,0,0:0:0:0:
480,192,62333,1,0,0:0:0:0:
32,192,62666,1,0,0:0:0:0:
32,192,62999,1,0,0:0:0:0:
32,192,63333,1,0,0:0:0:0:
32,192,63666,1,0,0:0:0:0:
96,192,63999,1,0,0:0:0:0:
352,192,64333,1,0,0:0:0:0:
96,192,64666,1,0,0:0:0:0:
352,192,64999,1,0,0:0:0:0:
96,192,65333,1,0,0:0:0:0:
352,192,65666,1,0,0:0:0:0:
96,192,65999,1,0,0:0:0:0:
352,192,66333,1,0,0:0:0:0:
224,192,66666,1,0,0:0:0:0:
480,192,66999,1,0,0:0:0:0:
224,192,67333,1,0,0:0:0:0:
480,192,67666,1,0,0:0:0:0:
96,192,67999,1,0,0:0:0:0:
224,192,68333,1,0,0:0:0:0:
96,192,68666,1,0,0:0:0:0:
224,192,68999,1,0,0:0:0:0:
352,192,69333,1,0,0:0:0:0:
224,192,69666,1,0,0:0:0:0:
96,192,69999,1,0,0:0:0:0:
480,192,70333,1,0,0:0:0:0:
352,192,70666,1,0,0:0:0:0:
224,192,70999,1,0,0:0:0:0:
96,192,71333,1,0,0:0:0:0:
224,192,71666,1,0,0:0:0:0:
352,192,71999,1,0,0:0:0:0:
480,192,72333,1,0,0:0:0:0:
352,192,72666,1,0,0:0:0:0:
224,192,72999,1,0,0:0:0:0:
96,192,73333,1,0,0:0:0:0:
224,192,73666,1,0,0:0:0:0:
352,192,73999,1,0,0:0:0:0:
480,192,74333,1,0,0:0:0:0:
32,192,74333,1,0,0:0:0:0:
32,192,74666,1,0,0:0:0:0:
288,192,74833,1,0,0:0:0:0:
288,192,75166,1,0,0:0:0:0:
416,192,75499,1,0,0:0:0:0:
416,192,75833,1,0,0:0:0:0:
160,192,76166,1,0,0:0:0:0:
160,192,76499,1,0,0:0:0:0:
288,192,76833,1,0,0:0:0:0:
288,192,77166,1,0,0:0:0:0:
416,192,77499,1,0,0:0:0:0:
416,192,77833,1,0,0:0:0:0:
160,192,78166,1,0,0:0:0:0:
160,192,78499,1,0,0:0:0:0:
352,192,78833,1,0,0:0:0:0:
352,192,79166,1,0,0:0:0:0:
416,192,79499,1,0,0:0:0:0:
160,192,79666,1,0,0:0:0:0:
416,192,79833,1,0,0:0:0:0:
160,192,80166,1,0,0:0:0:0:
288,192,80499,1,0,0:0:0:0:
416,192,80833,1,0,0:0:0:0:
96,192,81166,1,0,0:0:0:0:
224,192,81499,1,0,0:0:0:0:
352,192,81833,1,0,0:0:0:0:
480,192,82166,1,0,0:0:0:0:
288,192,82499,1,0,0:0:0:0:
160,192,82833,1,0,0:0:0:0:
416,192,83166,1,0,0:0:0:0:
288,192,83499,1,0,0:0:0:0:
160,192,83833,1,0,0:0:0:0:
416,192,84166,1,0,0:0:0:0:
160,192,84499,1,0,0:0:0:0:
416,192,84833,1,0,0:0:0:0:
32,192,85333,1,0,0:0:0:0:
96,192,85333,1,0,0:0:0:0:
480,192,85666,1,0,0:0:0:0:
96,192,85999,1,0,0:0:0:0:
480,192,86333,1,0,0:0:0:0:
96,192,86666,1,0,0:0:0:0:
480,192,86999,1,0,0:0:0:0:
96,192,87333,1,0,0:0:0:0:
480,192,87666,1,0,0:0:0:0:
96,192,87999,1,0,0:0:0:0:
480,192,88333,1,0,0:0:0:0:
96,192,88666,1,0,0:0:0:0:
352,192,88999,1,0,0:0:0:0:
96,192,89333,1,0,0:0:0:0:
352,192,89666,1,0,0:0:0:0:
96,192,89999,1,0,0:0:0:0:
224,192,90166,1,0,0:0:0:0:
480,192,90333,1,0,0:0:0:0:
352,192,90499,1,0,0:0:0:0:
96,192,90666,1,0,0:0:0:0:
480,192,90999,1,0,0:0:0:0:
96,192,91333,1,0,0:0:0:0:
480,192,91666,1,0,0:0:0:0:
96,192,91999,1,0,0:0:0:0:
480,192,92333,1,0,0:0:0:0:
96,192,92666,1,0,0:0:0:0:
352,192,92999,1,0,0:0:0:0:
96,192,93333,1,0,0:0:0:0:
352,192,93666,1,0,0:0:0:0:
96,192,93999,1,0,0:0:0:0:
224,192,94333,1,0,0:0:0:0:
480,192,94666,1,0,0:0:0:0:
352,192,94999,1,0,0:0:0:0:
96,192,95333,1,0,0:0:0:0:
352,192,95499,1,0,0:0:0:0:
96,192,95666,1,0,0:0:0:0:
352,192,95833,1,0,0:0:0:0:
96,192,95999,1,0,0:0:0:0:
480,192,96333,1,0,0:0:0:0:
96,192,96666,1,0,0:0:0:0:
352,192,96999,1,0,0:0:0:0:
96,192,97333,1,0,0:0:0:0:
352,192,97666,1,0,0:0:0:0:
224,192,97999,1,0,0:0:0:0:
480,192,98333,1,0,0:0:0:0:
96,192,98666,1,0,0:0:0:0:
352,192,98999,1,0,0:0:0:0:
96,192,99333,1,0,0:0:0:0:
480,192,99666,1,0,0:0:0:0:
96,192,99999,1,0,0:0:0:0:
352,192,100333,1,0,0:0:0:0:
96,192,100666,1,0,0:0:0:0:
352,192,100999,1,0,0:0:0:0:
96,192,101333,1,0,0:0:0:0:
480,192,101666,1,0,0:0:0:0:
96,192,101999,1,0,0:0:0:0:
480,192,102333,1,0,0:0:0:0:
96,192,102666,1,0,0:0:0:0:
224,192,102999,1,0,0:0:0:0:
480,192,103333,1,0,0:0:0:0:
352,192,103666,1,0,0:0:0:0:
96,192,103999,1,0,0:0:0:0:
288,192,104333,1,0,0:0:0:0:
96,192,104666,1,0,0:0:0:0:
416,192,104999,1,0,0:0:0:0:
96,192,105333,1,0,0:0:0:0:
352,192,105666,1,0,0:0:0:0:
160,192,105999,1,0,0:0:0:0:
288,192,106333,1,0,0:0:0:0:
32,192,106666,1,0,0:0:0:0:
480,192,106666,1,0,0:0:0:0:
160,192,106916,1,0,0:0:0:0:
352,192,107166,1,0,0:0:0:0:
96,192,107666,1,0,0:0:0:0:
288,192,107833,1,0,0:0:0:0:
480,192,107999,1,0,0:0:0:0:
160,192,108166,1,0,0:0:0:0:
352,192,108333,1,0,0:0:0:0:
480,192,108416,1,0,0:0:0:0:
224,192,108666,1,0,0:0:0:0:
352,192,108833,1,0,0:0:0:0:
480,192,109333,1,0,0:0:0:0:
96,192,109583,1,0,0:0:0:0:
352,192,109833,1,0,0:0:0:0:
96,192,110333,1,0,0:0:0:0:
224,192,110499,1,0,0:0:0:0:
352,192,110666,1,0,0:0:0:0:
160,192,110833,1,0,0:0:0:0:
288,192,110999,1,0,0:0:0:0:
416,192,111083,1,0,0:0:0:0:
96,192,111249,1,0,0:0:0:0:
224,192,111416,1,0,0:0:0:0:
352,192,111499,1,0,0:0:0:0:
160,192,111666,1,0,0:0:0:0:
352,192,111833,1,0,0:0:0:0:
480,192,111999,1,0,0:0:0:0:
480,192,112333,1,0,0:0:0:0:
224,192,112499,1,0,0:0:0:0:
352,192,112583,1,0,0:0:0:0:
224,192,112749,1,0,0:0:0:0:
96,192,112833,1,0,0:0:0:0:
224,192,112916,1,0,0:0:0:0:
288,192,113166,1,0,0:0:0:0:
96,192,113333,1,0,0:0:0:0:
352,192,113583,1,0,0:0:0:0:
224,192,113833,1,0,0:0:0:0:
480,192,113999,1,0,0:0:0:0:
352,192,114333,1,0,0:0:0:0:
96,192,114666,1,0,0:0:0:0:
96,192,114999,1,0,0:0:0:0:
288,192,115249,1,0,0:0:0:0:
160,192,115499,1,0,0:0:0:0:
416,192,115583,1,0,0:0:0:0:
160,192,115833,1,0,0:0:0:0:
480,192,115999,1,0,0:0:0:0:
352,192,116249,1,0,0:0:0:0:
224,192,116499,1,0,0:0:0:0:
416,192,116666,1,0,0:0:0:0:
288,192,116916,1,0,0:0:0:0:
160,192,117166,1,0,0:0:0:0:
32,192,117333,1,0,0:0:0:0:
480,192,117333,1,0,0:0:0:0:
352,192,117666,1,0,0:0:0:0:
224,192,117999,1,0,0:0:0:0:
352,192,118333,1,0,0:0:0:0:
224,192,118666,1,0,0:0:0:0:
96,192,118999,1,0,0:0:0:0:
224,192,119333,1,0,0:0:0:0:
352,192,119666,1,0,0:0:0:0:
160,192,119999,1,0,0:0:0:0:
288,192,120333,1,0,0:0:0:0:
416,192,120666,1,0,0:0:0:0:
288,192,120999,1,0,0:0:0:0:
160,192,121333,1,0,0:0:0:0:
96,192,121666,1,0,0:0:0:0:
480,192,121999,1,0,0:0:0:0:
352,192,122333,1,0,0:0:0:0:
224,192,122666,1,0,0:0:0:0:
96,192,122999,1,0,0:0:0:0:
480,192,123333,1,0,0:0:0:0:
224,192,123666,1,0,0:0:0:0:
96,192,123999,1,0,0:0:0:0:
352,192,124333,1,0,0:0:0:0:
96,192,124666,1,0,0:0:0:0:
416,192,124999,1,0,0:0:0:0:
224,192,125333,1,0,0:0:0:0:
416,192,125666,1,0,0:0:0:0:
288,192,125999,1,0,0:0:0:0:
224,192,126333,1,0,0:0:0:0:
480,192,126666,1,0,0:0:0:0:
352,192,126916,1,0,0:0:0:0:
224,192,127166,1,0,0:0:0:0:
480,192,127333,1,0,0:0:0:0:
352,192,127583,1,0,0:0:0:0:
224,192,127833,1,0,0:0:0:0:
96,192,127999,1,0,0:0:0:0:
32,192,127999,1,0,0:0:0:0:
480,192,127999,1,0,0:0:0:0:
