osu file format v14

[General]
AudioFilename: audio.mp3
AudioLeadIn: 0
PreviewTime: -1
Countdown: 0
SampleSet: Soft
StackLeniency: 0.7
Mode: 3
LetterboxInBreaks: 0
SpecialStyle: 1
WidescreenStoryboard: 0

[Editor]
DistanceSpacing: 0.85
BeatDivisor: 4
GridSize: 32
TimelineZoom: 1.3

[Metadata]
Title:GOODBOUNCE
TitleUnicode:GOODBOUNCE
Artist:EBIMAYO
ArtistUnicode:EBIMAYO
Creator:[Emiria]
Version:123
Source:BMS
Tags:bofu2016 donkbass hardcore
BeatmapID:1235031
BeatmapSetID:583647

[Difficulty]
HPDrainRate:8
CircleSize:8
OverallDifficulty:8
ApproachRate:5
SliderMultiplier:1.4
SliderTickRate:1

[Events]
//Background and Video events
0,0,"goodbounce.jpg",0,0
//Break Periods
//Storyboard Layer 0 (Background)
//Storyboard Layer 1 (Fail)
//Storyboard Layer 2 (Pass)
//Storyboard Layer 3 (Foreground)
//Storyboard Sound Samples

[TimingPoints]
0,333.333333333333,4,2,0,0,1,0

[HitObjects]
96,192,0,5,0,0:0:0:0:
480,192,0,1,0,0:0:0:0:
224,192,166,1,0,0:0:0:0:
352,192,249,1,0,0:0:0:0:
160,192,249,1,0,0:0:0:0:
96,192,333,1,0,0:0:0:0:
288,192,333,1,0,0:0:0:0:
480,192,333,1,0,0:0:0:0:
352,192,499,1,0,0:0:0:0:
224,192,499,1,0,0:0:0:0:
96,192,666,1,0,0:0:0:0:
480,192,833,1,0,0:0:0:0:
288,192,833,1,0,0:0:0:0:
96,192,999,1,0,0:0:0:0:
352,192,1166,1,0,0:0:0:0:
416,192,1166,1,0,0:0:0:0:
96,192,1333,1,0,0:0:0:0:
224,192,1333,1,0,0:0:0:0:
416,192,1499,1,0,0:0:0:0:
288,192,1583,1,0,0:0:0:0:
352,192,1583,1,0,0:0:0:0:
160,192,1666,1,0,0:0:0:0:
96,192,1666,1,0,0:0:0:0:
480,192,1666,1,0,0:0:0:0:
352,192,1833,1,0,0:0:0:0:
224,192,1833,1,0,0:0:0:0:
96,192,1999,1,0,0:0:0:0:
288,192,1999,1,0,0:0:0:0:
416,192,2083,1,0,0:0:0:0:
352,192,2166,1,0,0:0:0:0:
416,192,2249,1,0,0:0:0:0:
96,192,2333,1,0,0:0:0:0:
288,192,2333,1,0,0:0:0:0:
416,192,2499,1,0,0:0:0:0:
288,192,2499,1,0,0:0:0:0:
96,192,2666,1,0,0:0:0:0:
480,192,2666,1,0,0:0:0:0:
352,192,2833,1,0,0:0:0:0:
224,192,2916,1,0,0:0:0:0:
480,192,2916,1,0,0:0:0:0:
96,192,2999,1,0,0:0:0:0:
416,192,2999,1,0,0:0:0:0:
352,192,2999,1,0,0:0:0:0:
288,192,3166,1,0,0:0:0:0:
416,192,3166,1,0,0:0:0:0:
96,192,3333,1,0,0:0:0:0:
416,192,3499,1,0,0:0:0:0:
224,192,3499,1,0,0:0:0:0:
96,192,3666,1,0,0:0:0:0:
352,192,3833,1,0,0:0:0:0:
224,192,3833,1,0,0:0:0:0:
96,192,3999,1,0,0:0:0:0:
480,192,3999,1,0,0:0:0:0:
416,192,4166,1,0,0:0:0:0:
288,192,4249,1,0,0:0:0:0:
160,192,4249,1,0,0:0:0:0:
224,192,4333,1,0,0:0:0:0:
96,192,4333,1,0,0:0:0:0:
480,192,4333,1,0,0:0:0:0:
352,192,4499,1,0,0:0:0:0:
288,192,4499,1,0,0:0:0:0:
96,192,4666,1,0,0:0:0:0:
416,192,4666,1,0,0:0:0:0:
480,192,4749,1,0,0:0:0:0:
224,192,4833,1,0,0:0:0:0:
480,192,4916,1,0,0:0:0:0:
96,192,4999,1,0,0:0:0:0:
416,192,4999,1,0,0:0:0:0:
352,192,5166,1,0,0:0:0:0:
416,192,5166,1,0,0:0:0:0:
96,192,5333,1,0,0:0:0:0:
480,192,5333,1,0,0:0:0:0:
288,192,5499,1,0,0:0:0:0:
224,192,5583,1,0,0:0:0:0:
416,192,5583,1,0,0:0:0:0:
96,192,5666,1,0,0:0:0:0:
352,192,5666,1,0,0:0:0:0:
480,192,5666,1,0,0:0:0:0:
416,192,5833,1,0,0:0:0:0:
288,192,5833,1,0,0:0:0:0:
96,192,5999,1,0,0:0:0:0:
224,192,6166,1,0,0:0:0:0:
416,192,6166,1,0,0:0:0:0:
96,192,6333,1,0,0:0:0:0:
352,192,6499,1,0,0:0:0:0:
416,192,6499,1,0,0:0:0:0:
96,192,6666,1,0,0:0:0:0:
224,192,6666,1,0,0:0:0:0:
480,192,6833,1,0,0:0:0:0:
352,192,6916,1,0,0:0:0:0:
160,192,6916,1,0,0:0:0:0:
224,192,6999,1,0,0:0:0:0:
96,192,6999,1,0,0:0:0:0:
416,192,6999,1,0,0:0:0:0:
288,192,7166,1,0,0:0:0:0:
480,192,7166,1,0,0:0:0:0:
96,192,7333,1,0,0:0:0:0:
224,192,7333,1,0,0:0:0:0:
352,192,7416,1,0,0:0:0:0:
416,192,7499,1,0,0:0:0:0:
352,192,7583,1,0,0:0:0:0:
96,192,7666,1,0,0:0:0:0:
224,192,7666,1,0,0:0:0:0:
288,192,7833,1,0,0:0:0:0:
224,192,7833,1,0,0:0:0:0:
96,192,7999,1,0,0:0:0:0:
480,192,7999,1,0,0:0:0:0:
160,192,8166,1,0,0:0:0:0:
224,192,8249,1,0,0:0:0:0:
416,192,8249,1,0,0:0:0:0:
288,192,8333,1,0,0:0:0:0:
96,192,8333,1,0,0:0:0:0:
480,192,8333,1,0,0:0:0:0:
352,192,8333,1,0,0:0:0:0:
224,192,8416,1,0,0:0:0:0:
96,192,8499,1,0,0:0:0:0:
352,192,8499,1,0,0:0:0:0:
416,192,8499,1,0,0:0:0:0:
224,192,8583,1,0,0:0:0:0:
96,192,8666,1,0,0:0:0:0:
480,192,8666,1,0,0:0:0:0:
224,192,8749,1,0,0:0:0:0:
96,192,8833,1,0,0:0:0:0:
416,192,8833,1,0,0:0:0:0:
288,192,8833,1,0,0:0:0:0:
224,192,8916,1,0,0:0:0:0:
96,192,8999,1,0,0:0:0:0:
480,192,8999,1,0,0:0:0:0:
224,192,9083,1,0,0:0:0:0:
96,192,9166,1,0,0:0:0:0:
352,192,9166,1,0,0:0:0:0:
416,192,9166,1,0,0:0:0:0:
224,192,9249,1,0,0:0:0:0:
32,192,9333,5,0,0:0:0:0:
96,192,9333,1,0,0:0:0:0:
288,192,9333,1,0,0:0:0:0:
480,192,9333,1,0,0:0:0:0:
32,192,9666,1,0,0:0:0:0:
32,192,10000,1,0,0:0:0:0:
32,192,10333,1,0,0:0:0:0:
96,192,10333,1,0,0:0:0:0:
480,192,10333,1,0,0:0:0:0:
96,192,10666,1,0,0:0:0:0:
352,192,10666,1,0,0:0:0:0:
224,192,10666,1,0,0:0:0:0:
160,192,10833,1,0,0:0:0:0:
288,192,10833,1,0,0:0:0:0:
352,192,10916,1,0,0:0:0:0:
224,192,10916,1,0,0:0:0:0:
416,192,10999,1,0,0:0:0:0:
480,192,10999,1,0,0:0:0:0:
96,192,10999,1,0,0:0:0:0:
288,192,11166,1,0,0:0:0:0:
160,192,11249,1,0,0:0:0:0:
96,192,11333,1,0,0:0:0:0:
352,192,11333,1,0,0:0:0:0:
480,192,11333,1,0,0:0:0:0:
416,192,11416,1,0,0:0:0:0:
288,192,11499,1,0,0:0:0:0:
160,192,11499,1,0,0:0:0:0:
416,192,11583,1,0,0:0:0:0:
224,192,11583,1,0,0:0:0:0:
288,192,11666,1,0,0:0:0:0:
96,192,11666,1,0,0:0:0:0:
160,192,11666,1,0,0:0:0:0:
352,192,11833,1,0,0:0:0:0:
224,192,11833,1,0,0:0:0:0:
96,192,11999,1,0,0:0:0:0:
288,192,11999,1,0,0:0:0:0:
480,192,11999,1,0,0:0:0:0:
288,192,12166,1,0,0:0:0:0:
160,192,12166,1,0,0:0:0:0:
352,192,12249,1,0,0:0:0:0:
224,192,12249,1,0,0:0:0:0:
416,192,12333,1,0,0:0:0:0:
96,192,12333,1,0,0:0:0:0:
480,192,12333,1,0,0:0:0:0:
352,192,12499,1,0,0:0:0:0:
160,192,12499,1,0,0:0:0:0:
224,192,12583,1,0,0:0:0:0:
480,192,12583,1,0,0:0:0:0:
416,192,12666,1,0,0:0:0:0:
96,192,12666,1,0,0:0:0:0:
288,192,12666,1,0,0:0:0:0:
352,192,12749,1,0,0:0:0:0:
160,192,12833,1,0,0:0:0:0:
288,192,12916,1,0,0:0:0:0:
160,192,12999,1,0,0:0:0:0:
352,192,12999,1,0,0:0:0:0:
480,192,12999,1,0,0:0:0:0:
96,192,12999,1,0,0:0:0:0:
416,192,13166,1,0,0:0:0:0:
224,192,13166,1,0,0:0:0:0:
96,192,13333,1,0,0:0:0:0:
288,192,13333,1,0,0:0:0:0:
480,192,13333,1,0,0:0:0:0:
160,192,13499,1,0,0:0:0:0:
416,192,13499,1,0,0:0:0:0:
352,192,13583,1,0,0:0:0:0:
224,192,13583,1,0,0:0:0:0:
480,192,13666,1,0,0:0:0:0:
96,192,13666,1,0,0:0:0:0:
160,192,13666,1,0,0:0:0:0:
288,192,13833,1,0,0:0:0:0:
416,192,13833,1,0,0:0:0:0:
224,192,13916,1,0,0:0:0:0:
352,192,13999,1,0,0:0:0:0:
96,192,13999,1,0,0:0:0:0:
480,192,13999,1,0,0:0:0:0:
160,192,14083,1,0,0:0:0:0:
288,192,14166,1,0,0:0:0:0:
160,192,14249,1,0,0:0:0:0:
288,192,14333,1,0,0:0:0:0:
96,192,14333,1,0,0:0:0:0:
480,192,14333,1,0,0:0:0:0:
416,192,14333,1,0,0:0:0:0:
352,192,14499,1,0,0:0:0:0:
160,192,14499,1,0,0:0:0:0:
96,192,14666,1,0,0:0:0:0:
224,192,14666,1,0,0:0:0:0:
416,192,14666,1,0,0:0:0:0:
160,192,14833,1,0,0:0:0:0:
352,192,14833,1,0,0:0:0:0:
288,192,14916,1,0,0:0:0:0:
416,192,14916,1,0,0:0:0:0:
480,192,14999,1,0,0:0:0:0:
224,192,14999,1,0,0:0:0:0:
96,192,14999,1,0,0:0:0:0:
352,192,15166,1,0,0:0:0:0:
160,192,15166,1,0,0:0:0:0:
224,192,15249,1,0,0:0:0:0:
96,192,15333,1,0,0:0:0:0:
288,192,15333,1,0,0:0:0:0:
480,192,15333,1,0,0:0:0:0:
416,192,15416,1,0,0:0:0:0:
224,192,15499,1,0,0:0:0:0:
480,192,15583,1,0,0:0:0:0:
352,192,15666,1,0,0:0:0:0:
160,192,15666,1,0,0:0:0:0:
96,192,15666,1,0,0:0:0:0:
288,192,15666,1,0,0:0:0:0:
224,192,15833,1,0,0:0:0:0:
416,192,15833,1,0,0:0:0:0:
96,192,15999,1,0,0:0:0:0:
288,192,15999,1,0,0:0:0:0:
480,192,15999,1,0,0:0:0:0:
416,192,16166,1,0,0:0:0:0:
160,192,16166,1,0,0:0:0:0:
288,192,16249,1,0,0:0:0:0:
352,192,16249,1,0,0:0:0:0:
160,192,16333,1,0,0:0:0:0:
96,192,16333,1,0,0:0:0:0:
480,192,16333,1,0,0:0:0:0:
288,192,16499,1,0,0:0:0:0:
416,192,16583,1,0,0:0:0:0:
96,192,16666,1,0,0:0:0:0:
288,192,16666,1,0,0:0:0:0:
480,192,16666,1,0,0:0:0:0:
160,192,16749,1,0,0:0:0:0:
352,192,16833,1,0,0:0:0:0:
416,192,16833,1,0,0:0:0:0:
224,192,16916,1,0,0:0:0:0:
288,192,16916,1,0,0:0:0:0:
96,192,16999,1,0,0:0:0:0:
160,192,16999,1,0,0:0:0:0:
480,192,16999,1,0,0:0:0:0:
288,192,17166,1,0,0:0:0:0:
416,192,17166,1,0,0:0:0:0:
96,192,17333,1,0,0:0:0:0:
224,192,17333,1,0,0:0:0:0:
352,192,17333,1,0,0:0:0:0:
160,192,17499,1,0,0:0:0:0:
416,192,17499,1,0,0:0:0:0:
288,192,17583,1,0,0:0:0:0:
352,192,17583,1,0,0:0:0:0:
96,192,17666,1,0,0:0:0:0:
224,192,17666,1,0,0:0:0:0:
480,192,17666,1,0,0:0:0:0:
416,192,17749,1,0,0:0:0:0:
224,192,17833,1,0,0:0:0:0:
352,192,17916,1,0,0:0:0:0:
96,192,17999,1,0,0:0:0:0:
288,192,17999,1,0,0:0:0:0:
480,192,17999,1,0,0:0:0:0:
160,192,18083,1,0,0:0:0:0:
352,192,18166,1,0,0:0:0:0:
96,192,18166,1,0,0:0:0:0:
224,192,18249,1,0,0:0:0:0:
288,192,18249,1,0,0:0:0:0:
416,192,18333,1,0,0:0:0:0:
160,192,18333,1,0,0:0:0:0:
480,192,18333,1,0,0:0:0:0:
96,192,18333,1,0,0:0:0:0:
352,192,18499,1,0,0:0:0:0:
224,192,18499,1,0,0:0:0:0:
96,192,18666,1,0,0:0:0:0:
288,192,18666,1,0,0:0:0:0:
416,192,18666,1,0,0:0:0:0:
160,192,18833,1,0,0:0:0:0:
480,192,18833,1,0,0:0:0:0:
352,192,18916,1,0,0:0:0:0:
288,192,18916,1,0,0:0:0:0:
224,192,18999,1,0,0:0:0:0:
96,192,18999,1,0,0:0:0:0:
416,192,18999,1,0,0:0:0:0:
416,192,19166,1,0,0:0:0:0:
288,192,19249,1,0,0:0:0:0:
96,192,19333,1,0,0:0:0:0:
224,192,19333,1,0,0:0:0:0:
480,192,19333,1,0,0:0:0:0:
416,192,19416,1,0,0:0:0:0:
288,192,19416,1,0,0:0:0:0:
352,192,19499,1,0,0:0:0:0:
160,192,19499,1,0,0:0:0:0:
224,192,19583,1,0,0:0:0:0:
288,192,19583,1,0,0:0:0:0:
416,192,19666,1,0,0:0:0:0:
96,192,19666,1,0,0:0:0:0:
480,192,19666,1,0,0:0:0:0:
160,192,19749,1,0,0:0:0:0:
288,192,19833,5,0,0:0:0:0:
352,192,19833,1,0,0:0:0:0:
224,192,19916,1,0,0:0:0:0:
352,192,19999,1,0,0:0:0:0:
480,192,19999,1,0,0:0:0:0:
96,192,19999,1,0,0:0:0:0:
224,192,20083,1,0,0:0:0:0:
416,192,20166,1,0,0:0:0:0:
160,192,20166,1,0,0:0:0:0:
288,192,20249,1,0,0:0:0:0:
96,192,20249,1,0,0:0:0:0:
224,192,20333,1,0,0:0:0:0:
352,192,20333,1,0,0:0:0:0:
480,192,20333,1,0,0:0:0:0:
416,192,20416,1,0,0:0:0:0:
160,192,20416,1,0,0:0:0:0:
288,192,20499,1,0,0:0:0:0:
96,192,20499,1,0,0:0:0:0:
480,192,20583,1,0,0:0:0:0:
160,192,20583,1,0,0:0:0:0:
224,192,20666,1,0,0:0:0:0:
352,192,20666,1,0,0:0:0:0:
416,192,20666,1,0,0:0:0:0:
288,192,20749,1,0,0:0:0:0:
96,192,20749,1,0,0:0:0:0:
160,192,20833,1,0,0:0:0:0:
480,192,20833,1,0,0:0:0:0:
224,192,20916,1,0,0:0:0:0:
416,192,20916,1,0,0:0:0:0:
96,192,20999,1,0,0:0:0:0:
352,192,20999,1,0,0:0:0:0:
288,192,20999,1,0,0:0:0:0:
480,192,20999,1,0,0:0:0:0:
32,192,21000,5,0,0:0:0:0:
32,192,21333,1,0,0:0:0:0:
160,192,21333,1,0,0:0:0:0:
96,192,21333,1,0,0:0:0:0:
352,192,21333,1,0,0:0:0:0:
480,192,21333,1,0,0:0:0:0:
224,192,21499,1,0,0:0:0:0:
416,192,21499,1,0,0:0:0:0:
160,192,21583,1,0,0:0:0:0:
96,192,21666,1,0,0:0:0:0:
288,192,21666,1,0,0:0:0:0:
480,192,21666,1,0,0:0:0:0:
224,192,21833,1,0,0:0:0:0:
352,192,21833,1,0,0:0:0:0:
352,192,21916,1,0,0:0:0:0:
416,192,21999,1,0,0:0:0:0:
96,192,21999,1,0,0:0:0:0:
480,192,21999,1,0,0:0:0:0:
288,192,21999,1,0,0:0:0:0:
224,192,22083,1,0,0:0:0:0:
160,192,22166,1,0,0:0:0:0:
352,192,22166,1,0,0:0:0:0:
224,192,22249,1,0,0:0:0:0:
96,192,22333,1,0,0:0:0:0:
480,192,22333,1,0,0:0:0:0:
352,192,22333,1,0,0:0:0:0:
160,192,22333,1,0,0:0:0:0:
224,192,22499,1,0,0:0:0:0:
416,192,22499,1,0,0:0:0:0:
96,192,22666,1,0,0:0:0:0:
160,192,22666,1,0,0:0:0:0:
480,192,22666,1,0,0:0:0:0:
288,192,22666,1,0,0:0:0:0:
224,192,22833,1,0,0:0:0:0:
352,192,22833,1,0,0:0:0:0:
160,192,22916,1,0,0:0:0:0:
416,192,22999,1,0,0:0:0:0:
96,192,22999,1,0,0:0:0:0:
224,192,22999,1,0,0:0:0:0:
480,192,22999,1,0,0:0:0:0:
352,192,23166,1,0,0:0:0:0:
160,192,23166,1,0,0:0:0:0:
352,192,23249,1,0,0:0:0:0:
96,192,23333,1,0,0:0:0:0:
224,192,23333,1,0,0:0:0:0:
480,192,23333,1,0,0:0:0:0:
416,192,23333,1,0,0:0:0:0:
288,192,23416,1,0,0:0:0:0:
416,192,23499,1,0,0:0:0:0:
224,192,23499,1,0,0:0:0:0:
160,192,23583,1,0,0:0:0:0:
96,192,23666,1,0,0:0:0:0:
224,192,23666,1,0,0:0:0:0:
352,192,23666,1,0,0:0:0:0:
480,192,23666,1,0,0:0:0:0:
416,192,23749,1,0,0:0:0:0:
288,192,23833,1,0,0:0:0:0:
224,192,23833,1,0,0:0:0:0:
96,192,23999,1,0,0:0:0:0:
480,192,23999,1,0,0:0:0:0:
352,192,23999,1,0,0:0:0:0:
160,192,23999,1,0,0:0:0:0:
224,192,24166,1,0,0:0:0:0:
416,192,24166,1,0,0:0:0:0:
288,192,24249,1,0,0:0:0:0:
352,192,24333,1,0,0:0:0:0:
96,192,24333,1,0,0:0:0:0:
160,192,24333,1,0,0:0:0:0:
96,192,24499,1,0,0:0:0:0:
416,192,24499,1,0,0:0:0:0:
288,192,24583,1,0,0:0:0:0:
160,192,24666,1,0,0:0:0:0:
352,192,24666,1,0,0:0:0:0:
480,192,24666,1,0,0:0:0:0:
224,192,24666,1,0,0:0:0:0:
416,192,24749,1,0,0:0:0:0:
160,192,24833,1,0,0:0:0:0:
288,192,24833,1,0,0:0:0:0:
352,192,24916,1,0,0:0:0:0:
224,192,24999,1,0,0:0:0:0:
96,192,24999,1,0,0:0:0:0:
480,192,24999,1,0,0:0:0:0:
416,192,24999,1,0,0:0:0:0:
224,192,25166,1,0,0:0:0:0:
352,192,25166,1,0,0:0:0:0:
96,192,25333,1,0,0:0:0:0:
160,192,25333,1,0,0:0:0:0:
480,192,25333,1,0,0:0:0:0:
288,192,25333,1,0,0:0:0:0:
416,192,25499,1,0,0:0:0:0:
288,192,25583,1,0,0:0:0:0:
96,192,25666,1,0,0:0:0:0:
224,192,25666,1,0,0:0:0:0:
352,192,25666,1,0,0:0:0:0:
480,192,25666,1,0,0:0:0:0:
288,192,25833,1,0,0:0:0:0:
352,192,25833,1,0,0:0:0:0:
160,192,25916,1,0,0:0:0:0:
416,192,25999,1,0,0:0:0:0:
96,192,25999,1,0,0:0:0:0:
224,192,25999,1,0,0:0:0:0:
480,192,25999,1,0,0:0:0:0:
352,192,26083,1,0,0:0:0:0:
416,192,26166,1,0,0:0:0:0:
160,192,26166,1,0,0:0:0:0:
288,192,26249,1,0,0:0:0:0:
480,192,26333,1,0,0:0:0:0:
96,192,26333,1,0,0:0:0:0:
224,192,26333,1,0,0:0:0:0:
352,192,26416,1,0,0:0:0:0:
288,192,26416,1,0,0:0:0:0:
480,192,26499,1,0,0:0:0:0:
160,192,26499,1,0,0:0:0:0:
288,192,26583,1,0,0:0:0:0:
416,192,26583,1,0,0:0:0:0:
96,192,26666,1,0,0:0:0:0:
224,192,26666,1,0,0:0:0:0:
352,192,26666,1,0,0:0:0:0:
480,192,26666,1,0,0:0:0:0:
160,192,26833,1,0,0:0:0:0:
288,192,26833,1,0,0:0:0:0:
352,192,26916,1,0,0:0:0:0:
224,192,26916,1,0,0:0:0:0:
288,192,26999,1,0,0:0:0:0:
416,192,26999,1,0,0:0:0:0:
96,192,26999,1,0,0:0:0:0:
480,192,26999,1,0,0:0:0:0:
224,192,27166,1,0,0:0:0:0:
160,192,27166,1,0,0:0:0:0:
352,192,27249,1,0,0:0:0:0:
288,192,27249,1,0,0:0:0:0:
96,192,27333,1,0,0:0:0:0:
160,192,27333,1,0,0:0:0:0:
480,192,27333,1,0,0:0:0:0:
416,192,27333,1,0,0:0:0:0:
352,192,27416,1,0,0:0:0:0:
224,192,27499,1,0,0:0:0:0:
416,192,27499,1,0,0:0:0:0:
352,192,27583,1,0,0:0:0:0:
160,192,27583,1,0,0:0:0:0:
96,192,27666,1,0,0:0:0:0:
288,192,27666,1,0,0:0:0:0:
480,192,27666,1,0,0:0:0:0:
416,192,27666,1,0,0:0:0:0:
224,192,27833,1,0,0:0:0:0:
416,192,27833,1,0,0:0:0:0:
288,192,27916,1,0,0:0:0:0:
96,192,27999,1,0,0:0:0:0:
160,192,27999,1,0,0:0:0:0:
480,192,27999,1,0,0:0:0:0:
352,192,27999,1,0,0:0:0:0:
416,192,28083,1,0,0:0:0:0:
288,192,28166,1,0,0:0:0:0:
160,192,28166,1,0,0:0:0:0:
352,192,28249,1,0,0:0:0:0:
224,192,28249,1,0,0:0:0:0:
96,192,28333,1,0,0:0:0:0:
288,192,28333,1,0,0:0:0:0:
416,192,28333,1,0,0:0:0:0:
480,192,28333,1,0,0:0:0:0:
160,192,28416,1,0,0:0:0:0:
352,192,28499,1,0,0:0:0:0:
224,192,28499,1,0,0:0:0:0:
288,192,28583,1,0,0:0:0:0:
416,192,28583,1,0,0:0:0:0:
352,192,28666,1,0,0:0:0:0:
480,192,28666,1,0,0:0:0:0:
96,192,28666,1,0,0:0:0:0:
160,192,28666,1,0,0:0:0:0:
224,192,28749,1,0,0:0:0:0:
416,192,28749,1,0,0:0:0:0:
288,192,28833,1,0,0:0:0:0:
480,192,28833,1,0,0:0:0:0:
352,192,28916,1,0,0:0:0:0:
160,192,28916,1,0,0:0:0:0:
288,192,28999,1,0,0:0:0:0:
416,192,28999,1,0,0:0:0:0:
480,192,28999,1,0,0:0:0:0:
96,192,28999,1,0,0:0:0:0:
224,192,29083,1,0,0:0:0:0:
352,192,29166,1,0,0:0:0:0:
288,192,29166,1,0,0:0:0:0:
160,192,29249,1,0,0:0:0:0:
96,192,29333,1,0,0:0:0:0:
224,192,29333,1,0,0:0:0:0:
416,192,29333,1,0,0:0:0:0:
480,192,29333,1,0,0:0:0:0:
288,192,29416,1,0,0:0:0:0:
160,192,29499,5,0,0:0:0:0:
352,192,29499,1,0,0:0:0:0:
224,192,29583,1,0,0:0:0:0:
416,192,29583,1,0,0:0:0:0:
480,192,29666,1,0,0:0:0:0:
96,192,29666,1,0,0:0:0:0:
288,192,29666,1,0,0:0:0:0:
352,192,29666,1,0,0:0:0:0:
160,192,29749,1,0,0:0:0:0:
416,192,29833,1,0,0:0:0:0:
288,192,29833,1,0,0:0:0:0:
224,192,29916,1,0,0:0:0:0:
352,192,29916,1,0,0:0:0:0:
96,192,29999,1,0,0:0:0:0:
288,192,29999,1,0,0:0:0:0:
480,192,29999,1,0,0:0:0:0:
416,192,29999,1,0,0:0:0:0:
160,192,30083,1,0,0:0:0:0:
352,192,30083,1,0,0:0:0:0:
224,192,30166,1,0,0:0:0:0:
416,192,30166,1,0,0:0:0:0:
288,192,30249,1,0,0:0:0:0:
160,192,30249,1,0,0:0:0:0:
96,192,30333,1,0,0:0:0:0:
352,192,30333,1,0,0:0:0:0:
480,192,30333,1,0,0:0:0:0:
224,192,30333,1,0,0:0:0:0:
416,192,30416,1,0,0:0:0:0:
352,192,30499,1,0,0:0:0:0:
160,192,30499,1,0,0:0:0:0:
288,192,30583,1,0,0:0:0:0:
32,192,30666,5,0,0:0:0:0:
96,192,30666,1,0,0:0:0:0:
224,192,30666,1,0,0:0:0:0:
480,192,30666,1,0,0:0:0:0:
32,192,30833,1,0,0:0:0:0:
32,192,30916,1,0,0:0:0:0:
32,192,31000,1,0,0:0:0:0:
32,192,31166,1,0,0:0:0:0:
32,192,31333,1,0,0:0:0:0:
32,192,31416,1,0,0:0:0:0:
32,192,31500,1,0,0:0:0:0:
32,192,31583,1,0,0:0:0:0:
32,192,31666,1,0,0:0:0:0:
96,192,31666,1,0,0:0:0:0:
480,192,31666,1,0,0:0:0:0:
480,192,31999,1,0,0:0:0:0:
96,192,31999,1,0,0:0:0:0:
32,192,32000,1,0,0:0:0:0:
480,192,32249,1,0,0:0:0:0:
224,192,32249,1,0,0:0:0:0:
480,192,32499,1,0,0:0:0:0:
160,192,32499,1,0,0:0:0:0:
480,192,32833,1,0,0:0:0:0:
352,192,32833,1,0,0:0:0:0:
224,192,32916,1,0,0:0:0:0:
96,192,32999,1,0,0:0:0:0:
480,192,33166,1,0,0:0:0:0:
160,192,33166,1,0,0:0:0:0:
480,192,33333,1,0,0:0:0:0:
224,192,33333,1,0,0:0:0:0:
160,192,33499,1,0,0:0:0:0:
480,192,33583,1,0,0:0:0:0:
352,192,33666,1,0,0:0:0:0:
224,192,33749,1,0,0:0:0:0:
480,192,33833,1,0,0:0:0:0:
288,192,33833,1,0,0:0:0:0:
160,192,33916,1,0,0:0:0:0:
480,192,33999,1,0,0:0:0:0:
96,192,33999,1,0,0:0:0:0:
224,192,34166,1,0,0:0:0:0:
480,192,34249,1,0,0:0:0:0:
480,192,34499,1,0,0:0:0:0:
480,192,34666,1,0,0:0:0:0:
288,192,34666,1,0,0:0:0:0:
480,192,34916,1,0,0:0:0:0:
224,192,34916,1,0,0:0:0:0:
480,192,35166,1,0,0:0:0:0:
160,192,35166,1,0,0:0:0:0:
480,192,35499,1,0,0:0:0:0:
224,192,35499,1,0,0:0:0:0:
160,192,35583,1,0,0:0:0:0:
96,192,35666,1,0,0:0:0:0:
480,192,35833,1,0,0:0:0:0:
288,192,35833,1,0,0:0:0:0:
480,192,35999,1,0,0:0:0:0:
160,192,35999,1,0,0:0:0:0:
352,192,36166,1,0,0:0:0:0:
480,192,36249,1,0,0:0:0:0:
96,192,36333,1,0,0:0:0:0:
224,192,36416,1,0,0:0:0:0:
480,192,36499,1,0,0:0:0:0:
288,192,36583,1,0,0:0:0:0:
480,192,36666,1,0,0:0:0:0:
288,192,36749,1,0,0:0:0:0:
160,192,36833,1,0,0:0:0:0:
480,192,36916,1,0,0:0:0:0:
224,192,36999,1,0,0:0:0:0:
480,192,37166,1,0,0:0:0:0:
288,192,37166,1,0,0:0:0:0:
480,192,37333,1,0,0:0:0:0:
352,192,37333,1,0,0:0:0:0:
480,192,37583,1,0,0:0:0:0:
288,192,37666,1,0,0:0:0:0:
480,192,37833,1,0,0:0:0:0:
96,192,37833,1,0,0:0:0:0:
224,192,37916,1,0,0:0:0:0:
160,192,38083,1,0,0:0:0:0:
480,192,38166,1,0,0:0:0:0:
288,192,38166,1,0,0:0:0:0:
224,192,38249,1,0,0:0:0:0:
480,192,38499,1,0,0:0:0:0:
160,192,38499,1,0,0:0:0:0:
480,192,38666,1,0,0:0:0:0:
96,192,38666,1,0,0:0:0:0:
160,192,38749,1,0,0:0:0:0:
224,192,38833,1,0,0:0:0:0:
480,192,38916,1,0,0:0:0:0:
288,192,38916,1,0,0:0:0:0:
352,192,38999,1,0,0:0:0:0:
480,192,39166,1,0,0:0:0:0:
224,192,39166,1,0,0:0:0:0:
480,192,39333,1,0,0:0:0:0:
288,192,39333,1,0,0:0:0:0:
480,192,39583,1,0,0:0:0:0:
160,192,39666,1,0,0:0:0:0:
480,192,39833,1,0,0:0:0:0:
480,192,39999,1,0,0:0:0:0:
288,192,39999,1,0,0:0:0:0:
480,192,40249,1,0,0:0:0:0:
224,192,40333,1,0,0:0:0:0:
480,192,40499,1,0,0:0:0:0:
160,192,40499,1,0,0:0:0:0:
288,192,40583,1,0,0:0:0:0:
352,192,40749,1,0,0:0:0:0:
480,192,40833,1,0,0:0:0:0:
288,192,40833,1,0,0:0:0:0:
224,192,40916,1,0,0:0:0:0:
480,192,41166,1,0,0:0:0:0:
288,192,41166,1,0,0:0:0:0:
480,192,41333,1,0,0:0:0:0:
96,192,41333,1,0,0:0:0:0:
416,192,41333,1,0,0:0:0:0:
224,192,41416,1,0,0:0:0:0:
96,192,41499,1,0,0:0:0:0:
480,192,41583,5,0,0:0:0:0:
352,192,41583,1,0,0:0:0:0:
224,192,41583,1,0,0:0:0:0:
96,192,41666,1,0,0:0:0:0:
224,192,41749,1,0,0:0:0:0:
480,192,41833,1,0,0:0:0:0:
288,192,41833,1,0,0:0:0:0:
96,192,41833,1,0,0:0:0:0:
224,192,41916,1,0,0:0:0:0:
480,192,41999,1,0,0:0:0:0:
96,192,41999,1,0,0:0:0:0:
416,192,41999,1,0,0:0:0:0:
224,192,42083,1,0,0:0:0:0:
96,192,42166,1,0,0:0:0:0:
480,192,42249,1,0,0:0:0:0:
224,192,42249,1,0,0:0:0:0:
352,192,42249,1,0,0:0:0:0:
96,192,42333,1,0,0:0:0:0:
224,192,42416,1,0,0:0:0:0:
480,192,42499,1,0,0:0:0:0:
96,192,42499,1,0,0:0:0:0:
288,192,42499,1,0,0:0:0:0:
224,192,42583,1,0,0:0:0:0:
32,192,42666,5,0,0:0:0:0:
480,192,42666,1,0,0:0:0:0:
96,192,42666,1,0,0:0:0:0:
352,192,42666,1,0,0:0:0:0:
160,192,42666,1,0,0:0:0:0:
224,192,42916,1,0,0:0:0:0:
480,192,42916,1,0,0:0:0:0:
96,192,42999,1,0,0:0:0:0:
352,192,42999,1,0,0:0:0:0:
288,192,43166,1,0,0:0:0:0:
480,192,43166,1,0,0:0:0:0:
96,192,43333,1,0,0:0:0:0:
352,192,43333,1,0,0:0:0:0:
288,192,43499,1,0,0:0:0:0:
480,192,43499,1,0,0:0:0:0:
224,192,43583,1,0,0:0:0:0:
96,192,43666,1,0,0:0:0:0:
416,192,43666,1,0,0:0:0:0:
288,192,43666,1,0,0:0:0:0:
352,192,43833,1,0,0:0:0:0:
480,192,43833,1,0,0:0:0:0:
224,192,43999,1,0,0:0:0:0:
480,192,43999,1,0,0:0:0:0:
96,192,43999,1,0,0:0:0:0:
352,192,44166,1,0,0:0:0:0:
480,192,44249,1,0,0:0:0:0:
160,192,44333,1,0,0:0:0:0:
96,192,44333,1,0,0:0:0:0:
288,192,44333,1,0,0:0:0:0:
288,192,44499,1,0,0:0:0:0:
480,192,44499,1,0,0:0:0:0:
352,192,44583,1,0,0:0:0:0:
96,192,44666,1,0,0:0:0:0:
416,192,44666,1,0,0:0:0:0:
288,192,44749,1,0,0:0:0:0:
224,192,44833,1,0,0:0:0:0:
416,192,44833,1,0,0:0:0:0:
480,192,44833,1,0,0:0:0:0:
288,192,44916,1,0,0:0:0:0:
160,192,44999,1,0,0:0:0:0:
96,192,44999,1,0,0:0:0:0:
352,192,44999,1,0,0:0:0:0:
288,192,45166,1,0,0:0:0:0:
480,192,45166,1,0,0:0:0:0:
224,192,45249,1,0,0:0:0:0:
96,192,45333,1,0,0:0:0:0:
416,192,45333,1,0,0:0:0:0:
480,192,45333,1,0,0:0:0:0:
288,192,45333,1,0,0:0:0:0:
352,192,45583,1,0,0:0:0:0:
480,192,45583,1,0,0:0:0:0:
96,192,45666,1,0,0:0:0:0:
224,192,45666,1,0,0:0:0:0:
288,192,45833,1,0,0:0:0:0:
480,192,45833,1,0,0:0:0:0:
160,192,45833,1,0,0:0:0:0:
224,192,45916,1,0,0:0:0:0:
96,192,45999,1,0,0:0:0:0:
160,192,46083,1,0,0:0:0:0:
288,192,46166,1,0,0:0:0:0:
416,192,46166,1,0,0:0:0:0:
480,192,46166,1,0,0:0:0:0:
224,192,46249,1,0,0:0:0:0:
352,192,46249,1,0,0:0:0:0:
288,192,46333,1,0,0:0:0:0:
96,192,46333,1,0,0:0:0:0:
480,192,46333,1,0,0:0:0:0:
160,192,46333,1,0,0:0:0:0:
352,192,46499,1,0,0:0:0:0:
480,192,46499,1,0,0:0:0:0:
288,192,46666,1,0,0:0:0:0:
480,192,46666,1,0,0:0:0:0:
96,192,46666,1,0,0:0:0:0:
160,192,46833,1,0,0:0:0:0:
480,192,46916,1,0,0:0:0:0:
288,192,46999,1,0,0:0:0:0:
96,192,46999,1,0,0:0:0:0:
224,192,46999,1,0,0:0:0:0:
416,192,47083,1,0,0:0:0:0:
480,192,47166,1,0,0:0:0:0:
352,192,47249,1,0,0:0:0:0:
480,192,47333,1,0,0:0:0:0:
96,192,47333,1,0,0:0:0:0:
352,192,47416,1,0,0:0:0:0:
224,192,47499,1,0,0:0:0:0:
480,192,47583,1,0,0:0:0:0:
96,192,47666,1,0,0:0:0:0:
288,192,47666,1,0,0:0:0:0:
416,192,47666,1,0,0:0:0:0:
160,192,47666,1,0,0:0:0:0:
352,192,47749,1,0,0:0:0:0:
288,192,47833,1,0,0:0:0:0:
480,192,47833,1,0,0:0:0:0:
160,192,47833,1,0,0:0:0:0:
224,192,47916,1,0,0:0:0:0:
480,192,47999,1,0,0:0:0:0:
96,192,47999,1,0,0:0:0:0:
352,192,47999,1,0,0:0:0:0:
288,192,47999,1,0,0:0:0:0:
480,192,48249,1,0,0:0:0:0:
288,192,48333,1,0,0:0:0:0:
96,192,48333,1,0,0:0:0:0:
416,192,48333,1,0,0:0:0:0:
160,192,48499,1,0,0:0:0:0:
480,192,48499,1,0,0:0:0:0:
352,192,48583,1,0,0:0:0:0:
96,192,48666,1,0,0:0:0:0:
224,192,48749,1,0,0:0:0:0:
416,192,48833,1,0,0:0:0:0:
480,192,48833,1,0,0:0:0:0:
288,192,48916,1,0,0:0:0:0:
96,192,48999,1,0,0:0:0:0:
352,192,48999,1,0,0:0:0:0:
224,192,49166,1,0,0:0:0:0:
480,192,49166,1,0,0:0:0:0:
96,192,49333,1,0,0:0:0:0:
480,192,49333,1,0,0:0:0:0:
352,192,49333,1,0,0:0:0:0:
160,192,49416,1,0,0:0:0:0:
224,192,49499,1,0,0:0:0:0:
160,192,49583,1,0,0:0:0:0:
480,192,49583,1,0,0:0:0:0:
96,192,49666,1,0,0:0:0:0:
352,192,49666,1,0,0:0:0:0:
224,192,49833,1,0,0:0:0:0:
480,192,49833,1,0,0:0:0:0:
416,192,49999,1,0,0:0:0:0:
480,192,49999,1,0,0:0:0:0:
96,192,49999,1,0,0:0:0:0:
288,192,49999,1,0,0:0:0:0:
224,192,50083,1,0,0:0:0:0:
160,192,50166,1,0,0:0:0:0:
480,192,50249,1,0,0:0:0:0:
352,192,50249,1,0,0:0:0:0:
288,192,50333,1,0,0:0:0:0:
96,192,50333,1,0,0:0:0:0:
416,192,50333,1,0,0:0:0:0:
160,192,50333,1,0,0:0:0:0:
224,192,50416,1,0,0:0:0:0:
480,192,50499,1,0,0:0:0:0:
160,192,50499,1,0,0:0:0:0:
288,192,50583,1,0,0:0:0:0:
352,192,50666,1,0,0:0:0:0:
480,192,50666,1,0,0:0:0:0:
224,192,50666,1,0,0:0:0:0:
96,192,50666,1,0,0:0:0:0:
480,192,50916,1,0,0:0:0:0:
288,192,50999,1,0,0:0:0:0:
96,192,50999,1,0,0:0:0:0:
416,192,50999,1,0,0:0:0:0:
288,192,51166,1,0,0:0:0:0:
480,192,51166,1,0,0:0:0:0:
160,192,51249,1,0,0:0:0:0:
96,192,51333,1,0,0:0:0:0:
416,192,51416,1,0,0:0:0:0:
288,192,51499,1,0,0:0:0:0:
480,192,51499,1,0,0:0:0:0:
224,192,51583,1,0,0:0:0:0:
96,192,51666,1,0,0:0:0:0:
288,192,51666,1,0,0:0:0:0:
416,192,51666,1,0,0:0:0:0:
352,192,51833,1,0,0:0:0:0:
480,192,51833,1,0,0:0:0:0:
416,192,51999,1,0,0:0:0:0:
480,192,51999,1,0,0:0:0:0:
96,192,51999,1,0,0:0:0:0:
352,192,52249,5,0,0:0:0:0:
480,192,52249,1,0,0:0:0:0:
288,192,52333,1,0,0:0:0:0:
96,192,52333,1,0,0:0:0:0:
416,192,52333,1,0,0:0:0:0:
224,192,52416,1,0,0:0:0:0:
288,192,52499,1,0,0:0:0:0:
480,192,52499,1,0,0:0:0:0:
160,192,52499,1,0,0:0:0:0:
224,192,52583,1,0,0:0:0:0:
416,192,52666,1,0,0:0:0:0:
480,192,52666,1,0,0:0:0:0:
96,192,52666,1,0,0:0:0:0:
352,192,52666,1,0,0:0:0:0:
224,192,52749,1,0,0:0:0:0:
96,192,52833,1,0,0:0:0:0:
352,192,52916,1,0,0:0:0:0:
480,192,52916,1,0,0:0:0:0:
224,192,52916,1,0,0:0:0:0:
160,192,52999,1,0,0:0:0:0:
96,192,52999,1,0,0:0:0:0:
288,192,52999,1,0,0:0:0:0:
416,192,53083,1,0,0:0:0:0:
288,192,53166,1,0,0:0:0:0:
480,192,53166,1,0,0:0:0:0:
160,192,53166,1,0,0:0:0:0:
416,192,53249,1,0,0:0:0:0:
32,192,53333,5,0,0:0:0:0:
224,192,53333,1,0,0:0:0:0:
480,192,53333,1,0,0:0:0:0:
96,192,53333,1,0,0:0:0:0:
160,192,53416,1,0,0:0:0:0:
288,192,53499,1,0,0:0:0:0:
416,192,53499,1,0,0:0:0:0:
160,192,53583,1,0,0:0:0:0:
96,192,53666,1,0,0:0:0:0:
224,192,53666,1,0,0:0:0:0:
480,192,53666,1,0,0:0:0:0:
352,192,53749,1,0,0:0:0:0:
288,192,53833,1,0,0:0:0:0:
416,192,53833,1,0,0:0:0:0:
224,192,53916,1,0,0:0:0:0:
96,192,53999,1,0,0:0:0:0:
160,192,53999,1,0,0:0:0:0:
480,192,53999,1,0,0:0:0:0:
352,192,54083,1,0,0:0:0:0:
288,192,54166,1,0,0:0:0:0:
224,192,54166,1,0,0:0:0:0:
416,192,54249,1,0,0:0:0:0:
96,192,54333,1,0,0:0:0:0:
224,192,54333,1,0,0:0:0:0:
480,192,54333,1,0,0:0:0:0:
352,192,54416,1,0,0:0:0:0:
160,192,54499,1,0,0:0:0:0:
288,192,54499,1,0,0:0:0:0:
480,192,54499,1,0,0:0:0:0:
224,192,54583,1,0,0:0:0:0:
416,192,54583,1,0,0:0:0:0:
96,192,54666,1,0,0:0:0:0:
288,192,54666,1,0,0:0:0:0:
480,192,54666,1,0,0:0:0:0:
352,192,54666,1,0,0:0:0:0:
160,192,54749,1,0,0:0:0:0:
224,192,54833,1,0,0:0:0:0:
416,192,54833,1,0,0:0:0:0:
288,192,54916,1,0,0:0:0:0:
352,192,54999,1,0,0:0:0:0:
480,192,54999,1,0,0:0:0:0:
96,192,54999,1,0,0:0:0:0:
288,192,55083,1,0,0:0:0:0:
224,192,55166,1,0,0:0:0:0:
416,192,55166,1,0,0:0:0:0:
160,192,55249,1,0,0:0:0:0:
96,192,55333,1,0,0:0:0:0:
480,192,55333,1,0,0:0:0:0:
288,192,55333,1,0,0:0:0:0:
352,192,55416,1,0,0:0:0:0:
416,192,55499,1,0,0:0:0:0:
224,192,55499,1,0,0:0:0:0:
288,192,55499,1,0,0:0:0:0:
480,192,55583,1,0,0:0:0:0:
96,192,55666,1,0,0:0:0:0:
352,192,55666,1,0,0:0:0:0:
160,192,55666,1,0,0:0:0:0:
288,192,55749,1,0,0:0:0:0:
480,192,55749,1,0,0:0:0:0:
224,192,55833,1,0,0:0:0:0:
416,192,55833,1,0,0:0:0:0:
160,192,55916,1,0,0:0:0:0:
288,192,55916,1,0,0:0:0:0:
96,192,55999,1,0,0:0:0:0:
352,192,55999,1,0,0:0:0:0:
480,192,55999,1,0,0:0:0:0:
224,192,55999,1,0,0:0:0:0:
288,192,56083,1,0,0:0:0:0:
160,192,56166,1,0,0:0:0:0:
416,192,56166,1,0,0:0:0:0:
352,192,56249,1,0,0:0:0:0:
288,192,56333,1,0,0:0:0:0:
480,192,56333,1,0,0:0:0:0:
96,192,56333,1,0,0:0:0:0:
416,192,56416,1,0,0:0:0:0:
224,192,56499,1,0,0:0:0:0:
160,192,56499,1,0,0:0:0:0:
352,192,56583,1,0,0:0:0:0:
160,192,56666,1,0,0:0:0:0:
96,192,56666,1,0,0:0:0:0:
480,192,56666,1,0,0:0:0:0:
288,192,56749,1,0,0:0:0:0:
224,192,56833,1,0,0:0:0:0:
416,192,56833,1,0,0:0:0:0:
352,192,56916,1,0,0:0:0:0:
480,192,56999,1,0,0:0:0:0:
96,192,56999,1,0,0:0:0:0:
160,192,56999,1,0,0:0:0:0:
288,192,57083,1,0,0:0:0:0:
480,192,57166,1,0,0:0:0:0:
224,192,57166,1,0,0:0:0:0:
416,192,57249,1,0,0:0:0:0:
160,192,57249,1,0,0:0:0:0:
96,192,57333,1,0,0:0:0:0:
224,192,57333,1,0,0:0:0:0:
288,192,57333,1,0,0:0:0:0:
352,192,57333,1,0,0:0:0:0:
416,192,57416,1,0,0:0:0:0:
480,192,57499,5,0,0:0:0:0:
160,192,57499,1,0,0:0:0:0:
416,192,57583,1,0,0:0:0:0:
352,192,57666,1,0,0:0:0:0:
96,192,57666,1,0,0:0:0:0:
224,192,57666,1,0,0:0:0:0:
288,192,57749,1,0,0:0:0:0:
352,192,57833,1,0,0:0:0:0:
480,192,57833,1,0,0:0:0:0:
288,192,57916,1,0,0:0:0:0:
224,192,57999,1,0,0:0:0:0:
96,192,57999,1,0,0:0:0:0:
416,192,57999,1,0,0:0:0:0:
160,192,58166,1,0,0:0:0:0:
352,192,58166,1,0,0:0:0:0:
480,192,58166,1,0,0:0:0:0:
288,192,58249,1,0,0:0:0:0:
96,192,58333,1,0,0:0:0:0:
224,192,58333,1,0,0:0:0:0:
416,192,58333,1,0,0:0:0:0:
352,192,58333,1,0,0:0:0:0:
160,192,58416,1,0,0:0:0:0:
288,192,58416,1,0,0:0:0:0:
224,192,58499,1,0,0:0:0:0:
480,192,58499,1,0,0:0:0:0:
352,192,58499,1,0,0:0:0:0:
288,192,58583,1,0,0:0:0:0:
416,192,58583,1,0,0:0:0:0:
32,192,58666,5,0,0:0:0:0:
352,192,58666,1,0,0:0:0:0:
480,192,58666,1,0,0:0:0:0:
96,192,58666,1,0,0:0:0:0:
160,192,58666,1,0,0:0:0:0:
288,192,58749,1,0,0:0:0:0:
224,192,58833,1,0,0:0:0:0:
160,192,58916,1,0,0:0:0:0:
96,192,58999,1,0,0:0:0:0:
224,192,58999,1,0,0:0:0:0:
352,192,58999,1,0,0:0:0:0:
480,192,58999,1,0,0:0:0:0:
288,192,59083,1,0,0:0:0:0:
224,192,59166,1,0,0:0:0:0:
160,192,59249,1,0,0:0:0:0:
224,192,59333,1,0,0:0:0:0:
96,192,59333,1,0,0:0:0:0:
480,192,59333,1,0,0:0:0:0:
416,192,59333,1,0,0:0:0:0:
352,192,59416,1,0,0:0:0:0:
288,192,59499,1,0,0:0:0:0:
224,192,59583,1,0,0:0:0:0:
96,192,59666,1,0,0:0:0:0:
480,192,59666,1,0,0:0:0:0:
160,192,59666,1,0,0:0:0:0:
352,192,59666,1,0,0:0:0:0:
416,192,59749,1,0,0:0:0:0:
352,192,59833,1,0,0:0:0:0:
288,192,59916,1,0,0:0:0:0:
96,192,59999,1,0,0:0:0:0:
480,192,59999,1,0,0:0:0:0:
224,192,59999,1,0,0:0:0:0:
416,192,59999,1,0,0:0:0:0:
32,192,60000,1,0,0:0:0:0:
352,192,60083,1,0,0:0:0:0:
416,192,60166,1,0,0:0:0:0:
288,192,60249,1,0,0:0:0:0:
96,192,60333,1,0,0:0:0:0:
480,192,60333,1,0,0:0:0:0:
160,192,60333,1,0,0:0:0:0:
416,192,60333,1,0,0:0:0:0:
288,192,60416,1,0,0:0:0:0:
352,192,60499,1,0,0:0:0:0:
224,192,60583,1,0,0:0:0:0:
288,192,60666,1,0,0:0:0:0:
416,192,60666,1,0,0:0:0:0:
480,192,60666,1,0,0:0:0:0:
96,192,60666,1,0,0:0:0:0:
224,192,60749,1,0,0:0:0:0:
352,192,60833,1,0,0:0:0:0:
160,192,60916,1,0,0:0:0:0:
224,192,60999,1,0,0:0:0:0:
96,192,60999,1,0,0:0:0:0:
416,192,60999,1,0,0:0:0:0:
480,192,60999,1,0,0:0:0:0:
352,192,61083,1,0,0:0:0:0:
160,192,61166,1,0,0:0:0:0:
288,192,61249,1,0,0:0:0:0:
96,192,61333,1,0,0:0:0:0:
160,192,61333,1,0,0:0:0:0:
352,192,61333,1,0,0:0:0:0:
480,192,61333,1,0,0:0:0:0:
224,192,61416,1,0,0:0:0:0:
96,192,61499,1,0,0:0:0:0:
288,192,61499,1,0,0:0:0:0:
416,192,61499,1,0,0:0:0:0:
224,192,61583,1,0,0:0:0:0:
96,192,61666,1,0,0:0:0:0:
352,192,61666,1,0,0:0:0:0:
480,192,61666,1,0,0:0:0:0:
288,192,61666,1,0,0:0:0:0:
224,192,61749,1,0,0:0:0:0:
96,192,61833,1,0,0:0:0:0:
416,192,61833,1,0,0:0:0:0:
288,192,61833,1,0,0:0:0:0:
160,192,61916,1,0,0:0:0:0:
480,192,61999,1,0,0:0:0:0:
96,192,61999,1,0,0:0:0:0:
288,192,61999,1,0,0:0:0:0:
224,192,61999,1,0,0:0:0:0:
352,192,62083,1,0,0:0:0:0:
160,192,62083,1,0,0:0:0:0:
480,192,62166,1,0,0:0:0:0:
96,192,62166,1,0,0:0:0:0:
224,192,62166,1,0,0:0:0:0:
352,192,62249,1,0,0:0:0:0:
288,192,62249,1,0,0:0:0:0:
416,192,62333,1,0,0:0:0:0:
96,192,62333,1,0,0:0:0:0:
160,192,62333,1,0,0:0:0:0:
480,192,62333,1,0,0:0:0:0:
224,192,62416,1,0,0:0:0:0:
352,192,62416,1,0,0:0:0:0:
160,192,62499,1,0,0:0:0:0:
288,192,62499,1,0,0:0:0:0:
480,192,62499,1,0,0:0:0:0:
96,192,62583,1,0,0:0:0:0:
416,192,62583,1,0,0:0:0:0:
32,192,62666,1,0,0:0:0:0:
32,192,63000,1,0,0:0:0:0:
32,192,63333,1,0,0:0:0:0:
32,192,63666,1,0,0:0:0:0:
96,192,63666,1,0,0:0:0:0:
480,192,63666,1,0,0:0:0:0:
96,192,63999,1,0,0:0:0:0:
224,192,63999,1,0,0:0:0:0:
352,192,63999,1,0,0:0:0:0:
160,192,64166,1,0,0:0:0:0:
288,192,64166,1,0,0:0:0:0:
96,192,64333,1,0,0:0:0:0:
352,192,64333,1,0,0:0:0:0:
480,192,64333,1,0,0:0:0:0:
416,192,64416,1,0,0:0:0:0:
288,192,64416,1,0,0:0:0:0:
224,192,64583,1,0,0:0:0:0:
352,192,64583,1,0,0:0:0:0:
96,192,64666,1,0,0:0:0:0:
288,192,64666,1,0,0:0:0:0:
480,192,64666,1,0,0:0:0:0:
352,192,64833,1,0,0:0:0:0:
224,192,64833,1,0,0:0:0:0:
96,192,64999,1,0,0:0:0:0:
288,192,64999,1,0,0:0:0:0:
480,192,64999,1,0,0:0:0:0:
416,192,65083,1,0,0:0:0:0:
224,192,65083,1,0,0:0:0:0:
352,192,65166,1,0,0:0:0:0:
160,192,65166,1,0,0:0:0:0:
96,192,65333,1,0,0:0:0:0:
288,192,65333,1,0,0:0:0:0:
480,192,65333,1,0,0:0:0:0:
416,192,65499,1,0,0:0:0:0:
224,192,65499,1,0,0:0:0:0:
96,192,65666,1,0,0:0:0:0:
288,192,65666,1,0,0:0:0:0:
160,192,65666,1,0,0:0:0:0:
224,192,65749,1,0,0:0:0:0:
352,192,65749,1,0,0:0:0:0:
288,192,65916,1,0,0:0:0:0:
416,192,65916,1,0,0:0:0:0:
352,192,65999,1,0,0:0:0:0:
480,192,65999,1,0,0:0:0:0:
96,192,65999,1,0,0:0:0:0:
224,192,66166,1,0,0:0:0:0:
416,192,66166,1,0,0:0:0:0:
96,192,66333,1,0,0:0:0:0:
352,192,66333,1,0,0:0:0:0:
160,192,66333,1,0,0:0:0:0:
288,192,66416,1,0,0:0:0:0:
480,192,66416,1,0,0:0:0:0:
224,192,66499,1,0,0:0:0:0:
416,192,66499,1,0,0:0:0:0:
96,192,66666,1,0,0:0:0:0:
288,192,66666,1,0,0:0:0:0:
480,192,66666,1,0,0:0:0:0:
416,192,66833,1,0,0:0:0:0:
224,192,66833,1,0,0:0:0:0:
96,192,66999,1,0,0:0:0:0:
288,192,66999,1,0,0:0:0:0:
352,192,66999,1,0,0:0:0:0:
416,192,67083,1,0,0:0:0:0:
480,192,67083,1,0,0:0:0:0:
160,192,67249,1,0,0:0:0:0:
288,192,67249,1,0,0:0:0:0:
224,192,67333,1,0,0:0:0:0:
352,192,67333,1,0,0:0:0:0:
96,192,67333,1,0,0:0:0:0:
288,192,67499,1,0,0:0:0:0:
160,192,67499,1,0,0:0:0:0:
96,192,67666,1,0,0:0:0:0:
480,192,67666,1,0,0:0:0:0:
416,192,67666,1,0,0:0:0:0:
352,192,67749,1,0,0:0:0:0:
288,192,67749,1,0,0:0:0:0:
224,192,67833,1,0,0:0:0:0:
160,192,67833,1,0,0:0:0:0:
96,192,67999,1,0,0:0:0:0:
352,192,67999,1,0,0:0:0:0:
480,192,67999,1,0,0:0:0:0:
480,192,68166,1,0,0:0:0:0:
352,192,68166,1,0,0:0:0:0:
96,192,68333,1,0,0:0:0:0:
224,192,68333,1,0,0:0:0:0:
416,192,68333,1,0,0:0:0:0:
160,192,68416,1,0,0:0:0:0:
288,192,68416,1,0,0:0:0:0:
96,192,68583,1,0,0:0:0:0:
224,192,68583,1,0,0:0:0:0:
160,192,68666,1,0,0:0:0:0:
288,192,68666,1,0,0:0:0:0:
480,192,68666,1,0,0:0:0:0:
96,192,68833,1,0,0:0:0:0:
224,192,68833,1,0,0:0:0:0:
160,192,68916,1,0,0:0:0:0:
288,192,68916,1,0,0:0:0:0:
352,192,68999,1,0,0:0:0:0:
480,192,68999,1,0,0:0:0:0:
160,192,69083,1,0,0:0:0:0:
288,192,69083,1,0,0:0:0:0:
224,192,69166,1,0,0:0:0:0:
96,192,69166,1,0,0:0:0:0:
352,192,69249,1,0,0:0:0:0:
416,192,69333,1,0,0:0:0:0:
96,192,69333,1,0,0:0:0:0:
288,192,69333,1,0,0:0:0:0:
288,192,69499,1,0,0:0:0:0:
416,192,69499,1,0,0:0:0:0:
96,192,69666,1,0,0:0:0:0:
224,192,69666,1,0,0:0:0:0:
480,192,69666,1,0,0:0:0:0:
352,192,69749,1,0,0:0:0:0:
160,192,69749,1,0,0:0:0:0:
224,192,69916,1,0,0:0:0:0:
288,192,69916,1,0,0:0:0:0:
352,192,69999,1,0,0:0:0:0:
480,192,69999,1,0,0:0:0:0:
96,192,69999,1,0,0:0:0:0:
160,192,70166,1,0,0:0:0:0:
288,192,70166,1,0,0:0:0:0:
96,192,70333,1,0,0:0:0:0:
224,192,70333,1,0,0:0:0:0:
416,192,70333,1,0,0:0:0:0:
160,192,70416,1,0,0:0:0:0:
288,192,70416,1,0,0:0:0:0:
224,192,70499,1,0,0:0:0:0:
352,192,70499,1,0,0:0:0:0:
352,192,70666,1,0,0:0:0:0:
480,192,70666,1,0,0:0:0:0:
96,192,70666,1,0,0:0:0:0:
224,192,70833,1,0,0:0:0:0:
416,192,70833,1,0,0:0:0:0:
96,192,70999,1,0,0:0:0:0:
160,192,70999,1,0,0:0:0:0:
352,192,70999,1,0,0:0:0:0:
224,192,71083,1,0,0:0:0:0:
288,192,71083,1,0,0:0:0:0:
352,192,71249,1,0,0:0:0:0:
416,192,71249,1,0,0:0:0:0:
96,192,71333,1,0,0:0:0:0:
480,192,71333,1,0,0:0:0:0:
288,192,71333,1,0,0:0:0:0:
224,192,71499,1,0,0:0:0:0:
352,192,71499,1,0,0:0:0:0:
96,192,71666,1,0,0:0:0:0:
288,192,71666,1,0,0:0:0:0:
480,192,71666,1,0,0:0:0:0:
416,192,71749,1,0,0:0:0:0:
224,192,71749,1,0,0:0:0:0:
352,192,71833,1,0,0:0:0:0:
160,192,71833,1,0,0:0:0:0:
96,192,71999,1,0,0:0:0:0:
288,192,71999,1,0,0:0:0:0:
416,192,71999,1,0,0:0:0:0:
224,192,72166,1,0,0:0:0:0:
352,192,72166,1,0,0:0:0:0:
96,192,72333,1,0,0:0:0:0:
288,192,72333,1,0,0:0:0:0:
416,192,72333,1,0,0:0:0:0:
352,192,72416,1,0,0:0:0:0:
480,192,72416,1,0,0:0:0:0:
288,192,72583,1,0,0:0:0:0:
352,192,72583,1,0,0:0:0:0:
96,192,72666,1,0,0:0:0:0:
416,192,72666,1,0,0:0:0:0:
224,192,72666,1,0,0:0:0:0:
160,192,72749,1,0,0:0:0:0:
480,192,72833,1,0,0:0:0:0:
352,192,72833,1,0,0:0:0:0:
224,192,72833,1,0,0:0:0:0:
160,192,72916,1,0,0:0:0:0:
352,192,72999,1,0,0:0:0:0:
480,192,72999,1,0,0:0:0:0:
224,192,72999,1,0,0:0:0:0:
96,192,72999,1,0,0:0:0:0:
288,192,73083,1,0,0:0:0:0:
416,192,73083,1,0,0:0:0:0:
160,192,73083,1,0,0:0:0:0:
352,192,73166,1,0,0:0:0:0:
224,192,73166,1,0,0:0:0:0:
96,192,73166,1,0,0:0:0:0:
288,192,73249,1,0,0:0:0:0:
352,192,73333,1,0,0:0:0:0:
480,192,73333,1,0,0:0:0:0:
96,192,73333,1,0,0:0:0:0:
160,192,73333,1,0,0:0:0:0:
224,192,73416,1,0,0:0:0:0:
96,192,73499,1,0,0:0:0:0:
288,192,73499,1,0,0:0:0:0:
416,192,73499,1,0,0:0:0:0:
224,192,73583,1,0,0:0:0:0:
96,192,73666,1,0,0:0:0:0:
288,192,73666,1,0,0:0:0:0:
352,192,73666,1,0,0:0:0:0:
480,192,73666,1,0,0:0:0:0:
416,192,73749,1,0,0:0:0:0:
224,192,73749,1,0,0:0:0:0:
160,192,73749,1,0,0:0:0:0:
288,192,73833,1,0,0:0:0:0:
224,192,73916,1,0,0:0:0:0:
352,192,73916,1,0,0:0:0:0:
480,192,73916,1,0,0:0:0:0:
96,192,73999,1,0,0:0:0:0:
160,192,73999,1,0,0:0:0:0:
416,192,73999,1,0,0:0:0:0:
288,192,73999,1,0,0:0:0:0:
224,192,74083,1,0,0:0:0:0:
288,192,74166,1,0,0:0:0:0:
480,192,74166,1,0,0:0:0:0:
352,192,74166,1,0,0:0:0:0:
224,192,74249,1,0,0:0:0:0:
160,192,74249,1,0,0:0:0:0:
416,192,74249,1,0,0:0:0:0:
32,192,74333,5,0,0:0:0:0:
96,192,74333,1,0,0:0:0:0:
288,192,74333,1,0,0:0:0:0:
480,192,74333,1,0,0:0:0:0:
352,192,74333,1,0,0:0:0:0:
32,192,74666,1,0,0:0:0:0:
96,192,74666,1,0,0:0:0:0:
288,192,74666,1,0,0:0:0:0:
32,192,74833,1,0,0:0:0:0:
224,192,74833,1,0,0:0:0:0:
416,192,74833,1,0,0:0:0:0:
160,192,74999,1,0,0:0:0:0:
352,192,74999,1,0,0:0:0:0:
288,192,75083,1,0,0:0:0:0:
480,192,75083,1,0,0:0:0:0:
32,192,75166,1,0,0:0:0:0:
224,192,75249,1,0,0:0:0:0:
352,192,75249,1,0,0:0:0:0:
160,192,75333,1,0,0:0:0:0:
416,192,75333,1,0,0:0:0:0:
352,192,75499,1,0,0:0:0:0:
96,192,75499,1,0,0:0:0:0:
32,192,75500,1,0,0:0:0:0:
224,192,75666,1,0,0:0:0:0:
480,192,75666,1,0,0:0:0:0:
160,192,75749,1,0,0:0:0:0:
416,192,75749,1,0,0:0:0:0:
32,192,75833,1,0,0:0:0:0:
96,192,75833,1,0,0:0:0:0:
352,192,75833,1,0,0:0:0:0:
160,192,75999,1,0,0:0:0:0:
288,192,75999,1,0,0:0:0:0:
32,192,76166,1,0,0:0:0:0:
224,192,76166,1,0,0:0:0:0:
480,192,76166,1,0,0:0:0:0:
416,192,76333,1,0,0:0:0:0:
288,192,76333,1,0,0:0:0:0:
160,192,76416,1,0,0:0:0:0:
352,192,76416,1,0,0:0:0:0:
32,192,76500,1,0,0:0:0:0:
160,192,76583,1,0,0:0:0:0:
352,192,76583,1,0,0:0:0:0:
224,192,76666,1,0,0:0:0:0:
480,192,76666,1,0,0:0:0:0:
32,192,76833,1,0,0:0:0:0:
416,192,76833,1,0,0:0:0:0:
96,192,76833,1,0,0:0:0:0:
160,192,76999,1,0,0:0:0:0:
352,192,76999,1,0,0:0:0:0:
224,192,77083,1,0,0:0:0:0:
416,192,77083,1,0,0:0:0:0:
32,192,77166,1,0,0:0:0:0:
96,192,77166,1,0,0:0:0:0:
288,192,77166,1,0,0:0:0:0:
224,192,77333,1,0,0:0:0:0:
480,192,77333,1,0,0:0:0:0:
352,192,77499,1,0,0:0:0:0:
160,192,77499,1,0,0:0:0:0:
32,192,77500,1,0,0:0:0:0:
224,192,77666,1,0,0:0:0:0:
288,192,77666,1,0,0:0:0:0:
352,192,77749,1,0,0:0:0:0:
480,192,77749,1,0,0:0:0:0:
32,192,77833,1,0,0:0:0:0:
160,192,77916,1,0,0:0:0:0:
224,192,77916,1,0,0:0:0:0:
288,192,77999,1,0,0:0:0:0:
416,192,77999,1,0,0:0:0:0:
32,192,78166,1,0,0:0:0:0:
224,192,78166,1,0,0:0:0:0:
352,192,78166,1,0,0:0:0:0:
96,192,78333,1,0,0:0:0:0:
288,192,78333,1,0,0:0:0:0:
160,192,78416,1,0,0:0:0:0:
352,192,78416,1,0,0:0:0:0:
224,192,78499,1,0,0:0:0:0:
416,192,78499,1,0,0:0:0:0:
32,192,78500,1,0,0:0:0:0:
288,192,78666,1,0,0:0:0:0:
480,192,78666,1,0,0:0:0:0:
32,192,78833,1,0,0:0:0:0:
480,192,78833,1,0,0:0:0:0:
288,192,78833,1,0,0:0:0:0:
96,192,78999,1,0,0:0:0:0:
224,192,78999,1,0,0:0:0:0:
288,192,79083,1,0,0:0:0:0:
416,192,79083,1,0,0:0:0:0:
32,192,79166,1,0,0:0:0:0:
160,192,79249,1,0,0:0:0:0:
288,192,79249,1,0,0:0:0:0:
224,192,79333,1,0,0:0:0:0:
352,192,79333,1,0,0:0:0:0:
288,192,79499,1,0,0:0:0:0:
416,192,79499,1,0,0:0:0:0:
32,192,79500,1,0,0:0:0:0:
352,192,79583,1,0,0:0:0:0:
480,192,79583,1,0,0:0:0:0:
32,192,79666,1,0,0:0:0:0:
160,192,79749,1,0,0:0:0:0:
288,192,79749,1,0,0:0:0:0:
32,192,79833,1,0,0:0:0:0:
224,192,79833,1,0,0:0:0:0:
352,192,79833,1,0,0:0:0:0:
96,192,79999,1,0,0:0:0:0:
480,192,79999,1,0,0:0:0:0:
32,192,80166,1,0,0:0:0:0:
416,192,80166,1,0,0:0:0:0:
224,192,80166,1,0,0:0:0:0:
96,192,80333,1,0,0:0:0:0:
352,192,80333,1,0,0:0:0:0:
160,192,80416,1,0,0:0:0:0:
416,192,80416,1,0,0:0:0:0:
32,192,80500,1,0,0:0:0:0:
224,192,80583,1,0,0:0:0:0:
352,192,80583,1,0,0:0:0:0:
288,192,80666,1,0,0:0:0:0:
480,192,80666,1,0,0:0:0:0:
32,192,80833,1,0,0:0:0:0:
352,192,80833,1,0,0:0:0:0:
160,192,80833,1,0,0:0:0:0:
96,192,80999,1,0,0:0:0:0:
480,192,80999,1,0,0:0:0:0:
416,192,81083,1,0,0:0:0:0:
160,192,81083,1,0,0:0:0:0:
32,192,81166,1,0,0:0:0:0:
352,192,81166,1,0,0:0:0:0:
224,192,81166,1,0,0:0:0:0:
96,192,81333,1,0,0:0:0:0:
416,192,81333,1,0,0:0:0:0:
224,192,81499,1,0,0:0:0:0:
352,192,81499,1,0,0:0:0:0:
32,192,81500,1,0,0:0:0:0:
160,192,81666,1,0,0:0:0:0:
288,192,81666,1,0,0:0:0:0:
224,192,81749,1,0,0:0:0:0:
352,192,81749,1,0,0:0:0:0:
32,192,81833,1,0,0:0:0:0:
160,192,81916,1,0,0:0:0:0:
288,192,81916,1,0,0:0:0:0:
352,192,81999,1,0,0:0:0:0:
480,192,81999,1,0,0:0:0:0:
32,192,82166,1,0,0:0:0:0:
416,192,82166,1,0,0:0:0:0:
288,192,82166,1,0,0:0:0:0:
224,192,82333,1,0,0:0:0:0:
480,192,82333,1,0,0:0:0:0:
160,192,82416,1,0,0:0:0:0:
416,192,82416,1,0,0:0:0:0:
96,192,82499,1,0,0:0:0:0:
352,192,82499,1,0,0:0:0:0:
32,192,82500,1,0,0:0:0:0:
480,192,82666,1,0,0:0:0:0:
160,192,82666,1,0,0:0:0:0:
32,192,82833,1,0,0:0:0:0:
96,192,82833,1,0,0:0:0:0:
288,192,82833,1,0,0:0:0:0:
160,192,82999,1,0,0:0:0:0:
352,192,82999,1,0,0:0:0:0:
224,192,83083,1,0,0:0:0:0:
416,192,83083,1,0,0:0:0:0:
32,192,83166,1,0,0:0:0:0:
288,192,83249,1,0,0:0:0:0:
480,192,83249,1,0,0:0:0:0:
352,192,83333,1,0,0:0:0:0:
160,192,83333,1,0,0:0:0:0:
288,192,83499,1,0,0:0:0:0:
96,192,83499,1,0,0:0:0:0:
32,192,83500,1,0,0:0:0:0:
352,192,83666,1,0,0:0:0:0:
160,192,83666,1,0,0:0:0:0:
416,192,83749,1,0,0:0:0:0:
224,192,83749,1,0,0:0:0:0:
32,192,83833,1,0,0:0:0:0:
480,192,83833,1,0,0:0:0:0:
288,192,83833,1,0,0:0:0:0:
96,192,83999,1,0,0:0:0:0:
480,192,83999,1,0,0:0:0:0:
224,192,83999,1,0,0:0:0:0:
352,192,84083,1,0,0:0:0:0:
32,192,84166,1,0,0:0:0:0:
96,192,84166,1,0,0:0:0:0:
416,192,84166,1,0,0:0:0:0:
160,192,84166,1,0,0:0:0:0:
352,192,84249,1,0,0:0:0:0:
96,192,84333,1,0,0:0:0:0:
224,192,84333,1,0,0:0:0:0:
480,192,84333,1,0,0:0:0:0:
160,192,84416,1,0,0:0:0:0:
288,192,84416,1,0,0:0:0:0:
352,192,84416,1,0,0:0:0:0:
96,192,84499,1,0,0:0:0:0:
32,192,84500,1,0,0:0:0:0:
352,192,84583,1,0,0:0:0:0:
224,192,84583,1,0,0:0:0:0:
480,192,84583,1,0,0:0:0:0:
96,192,84666,1,0,0:0:0:0:
416,192,84666,1,0,0:0:0:0:
160,192,84666,1,0,0:0:0:0:
352,192,84749,1,0,0:0:0:0:
32,192,84833,1,0,0:0:0:0:
96,192,84833,1,0,0:0:0:0:
224,192,84833,1,0,0:0:0:0:
416,192,84833,1,0,0:0:0:0:
352,192,84916,1,0,0:0:0:0:
96,192,84999,1,0,0:0:0:0:
480,192,84999,1,0,0:0:0:0:
288,192,84999,1,0,0:0:0:0:
32,192,85000,1,0,0:0:0:0:
32,192,85166,1,0,0:0:0:0:
160,192,85166,1,0,0:0:0:0:
352,192,85166,1,0,0:0:0:0:
224,192,85249,1,0,0:0:0:0:
416,192,85249,1,0,0:0:0:0:
32,192,85333,1,0,0:0:0:0:
288,192,85333,1,0,0:0:0:0:
480,192,85333,1,0,0:0:0:0:
96,192,85333,1,0,0:0:0:0:
160,192,85499,1,0,0:0:0:0:
416,192,85499,1,0,0:0:0:0:
96,192,85666,1,0,0:0:0:0:
224,192,85666,1,0,0:0:0:0:
288,192,85666,1,0,0:0:0:0:
480,192,85666,1,0,0:0:0:0:
416,192,85749,1,0,0:0:0:0:
160,192,85749,1,0,0:0:0:0:
352,192,85833,1,0,0:0:0:0:
160,192,85916,1,0,0:0:0:0:
288,192,85916,1,0,0:0:0:0:
96,192,85999,1,0,0:0:0:0:
224,192,85999,1,0,0:0:0:0:
480,192,85999,1,0,0:0:0:0:
288,192,86166,1,0,0:0:0:0:
160,192,86166,1,0,0:0:0:0:
416,192,86166,1,0,0:0:0:0:
352,192,86333,1,0,0:0:0:0:
480,192,86333,1,0,0:0:0:0:
96,192,86333,1,0,0:0:0:0:
224,192,86333,1,0,0:0:0:0:
160,192,86416,1,0,0:0:0:0:
288,192,86416,1,0,0:0:0:0:
352,192,86499,1,0,0:0:0:0:
224,192,86499,1,0,0:0:0:0:
416,192,86499,1,0,0:0:0:0:
96,192,86666,1,0,0:0:0:0:
288,192,86666,1,0,0:0:0:0:
480,192,86666,1,0,0:0:0:0:
416,192,86833,1,0,0:0:0:0:
224,192,86833,1,0,0:0:0:0:
160,192,86833,1,0,0:0:0:0:
96,192,86999,1,0,0:0:0:0:
288,192,86999,1,0,0:0:0:0:
352,192,86999,1,0,0:0:0:0:
480,192,86999,1,0,0:0:0:0:
416,192,87083,1,0,0:0:0:0:
160,192,87083,1,0,0:0:0:0:
224,192,87166,1,0,0:0:0:0:
160,192,87249,1,0,0:0:0:0:
352,192,87249,1,0,0:0:0:0:
288,192,87333,1,0,0:0:0:0:
480,192,87333,1,0,0:0:0:0:
96,192,87333,1,0,0:0:0:0:
160,192,87499,1,0,0:0:0:0:
224,192,87499,1,0,0:0:0:0:
416,192,87499,1,0,0:0:0:0:
96,192,87666,1,0,0:0:0:0:
352,192,87666,1,0,0:0:0:0:
480,192,87666,1,0,0:0:0:0:
160,192,87666,1,0,0:0:0:0:
416,192,87749,1,0,0:0:0:0:
288,192,87749,1,0,0:0:0:0:
224,192,87833,1,0,0:0:0:0:
352,192,87833,1,0,0:0:0:0:
160,192,87833,1,0,0:0:0:0:
96,192,87833,1,0,0:0:0:0:
96,192,87916,1,0,0:0:0:0:
96,192,87999,1,0,0:0:0:0:
288,192,87999,1,0,0:0:0:0:
480,192,87999,1,0,0:0:0:0:
416,192,87999,1,0,0:0:0:0:
160,192,88166,1,0,0:0:0:0:
224,192,88166,1,0,0:0:0:0:
352,192,88166,1,0,0:0:0:0:
96,192,88333,1,0,0:0:0:0:
288,192,88333,1,0,0:0:0:0:
416,192,88333,1,0,0:0:0:0:
480,192,88333,1,0,0:0:0:0:
224,192,88416,1,0,0:0:0:0:
352,192,88416,1,0,0:0:0:0:
288,192,88499,1,0,0:0:0:0:
352,192,88583,1,0,0:0:0:0:
160,192,88583,1,0,0:0:0:0:
96,192,88666,1,0,0:0:0:0:
224,192,88666,1,0,0:0:0:0:
480,192,88666,1,0,0:0:0:0:
160,192,88833,1,0,0:0:0:0:
416,192,88833,1,0,0:0:0:0:
352,192,88833,1,0,0:0:0:0:
96,192,88999,1,0,0:0:0:0:
224,192,88999,1,0,0:0:0:0:
288,192,88999,1,0,0:0:0:0:
480,192,88999,1,0,0:0:0:0:
416,192,89083,1,0,0:0:0:0:
352,192,89083,1,0,0:0:0:0:
224,192,89166,1,0,0:0:0:0:
288,192,89166,1,0,0:0:0:0:
160,192,89166,1,0,0:0:0:0:
96,192,89333,1,0,0:0:0:0:
352,192,89333,1,0,0:0:0:0:
480,192,89333,1,0,0:0:0:0:
160,192,89499,1,0,0:0:0:0:
288,192,89499,1,0,0:0:0:0:
416,192,89499,1,0,0:0:0:0:
224,192,89583,1,0,0:0:0:0:
352,192,89583,1,0,0:0:0:0:
96,192,89666,1,0,0:0:0:0:
288,192,89666,1,0,0:0:0:0:
480,192,89666,1,0,0:0:0:0:
160,192,89749,1,0,0:0:0:0:
224,192,89749,1,0,0:0:0:0:
288,192,89833,1,0,0:0:0:0:
416,192,89833,1,0,0:0:0:0:
352,192,89833,1,0,0:0:0:0:
96,192,89999,1,0,0:0:0:0:
224,192,89999,1,0,0:0:0:0:
480,192,89999,1,0,0:0:0:0:
160,192,90166,1,0,0:0:0:0:
288,192,90166,1,0,0:0:0:0:
480,192,90166,1,0,0:0:0:0:
96,192,90333,1,0,0:0:0:0:
224,192,90333,1,0,0:0:0:0:
352,192,90333,1,0,0:0:0:0:
480,192,90333,1,0,0:0:0:0:
96,192,90499,1,0,0:0:0:0:
288,192,90499,1,0,0:0:0:0:
416,192,90499,1,0,0:0:0:0:
96,192,90583,1,0,0:0:0:0:
96,192,90666,1,0,0:0:0:0:
224,192,90666,1,0,0:0:0:0:
352,192,90666,1,0,0:0:0:0:
480,192,90666,1,0,0:0:0:0:
160,192,90833,1,0,0:0:0:0:
288,192,90833,1,0,0:0:0:0:
416,192,90833,1,0,0:0:0:0:
96,192,90999,1,0,0:0:0:0:
224,192,90999,1,0,0:0:0:0:
480,192,90999,1,0,0:0:0:0:
288,192,90999,1,0,0:0:0:0:
160,192,91083,1,0,0:0:0:0:
352,192,91083,1,0,0:0:0:0:
288,192,91166,1,0,0:0:0:0:
416,192,91249,1,0,0:0:0:0:
224,192,91249,1,0,0:0:0:0:
288,192,91333,1,0,0:0:0:0:
480,192,91333,1,0,0:0:0:0:
96,192,91333,1,0,0:0:0:0:
160,192,91499,1,0,0:0:0:0:
224,192,91499,1,0,0:0:0:0:
416,192,91499,1,0,0:0:0:0:
96,192,91666,1,0,0:0:0:0:
352,192,91666,1,0,0:0:0:0:
480,192,91666,1,0,0:0:0:0:
288,192,91666,1,0,0:0:0:0:
416,192,91749,1,0,0:0:0:0:
224,192,91749,1,0,0:0:0:0:
352,192,91833,1,0,0:0:0:0:
160,192,91833,1,0,0:0:0:0:
288,192,91833,1,0,0:0:0:0:
96,192,91999,1,0,0:0:0:0:
288,192,91999,1,0,0:0:0:0:
480,192,91999,1,0,0:0:0:0:
160,192,92166,1,0,0:0:0:0:
224,192,92166,1,0,0:0:0:0:
416,192,92166,1,0,0:0:0:0:
96,192,92333,1,0,0:0:0:0:
288,192,92333,1,0,0:0:0:0:
352,192,92333,1,0,0:0:0:0:
480,192,92333,1,0,0:0:0:0:
416,192,92416,1,0,0:0:0:0:
224,192,92416,1,0,0:0:0:0:
288,192,92499,1,0,0:0:0:0:
160,192,92583,1,0,0:0:0:0:
224,192,92583,1,0,0:0:0:0:
96,192,92666,1,0,0:0:0:0:
480,192,92666,1,0,0:0:0:0:
352,192,92666,1,0,0:0:0:0:
224,192,92833,1,0,0:0:0:0:
288,192,92833,1,0,0:0:0:0:
416,192,92833,1,0,0:0:0:0:
96,192,92999,1,0,0:0:0:0:
160,192,92999,1,0,0:0:0:0:
480,192,92999,1,0,0:0:0:0:
352,192,92999,1,0,0:0:0:0:
416,192,93083,1,0,0:0:0:0:
288,192,93083,1,0,0:0:0:0:
96,192,93166,1,0,0:0:0:0:
224,192,93166,1,0,0:0:0:0:
352,192,93166,1,0,0:0:0:0:
96,192,93249,1,0,0:0:0:0:
96,192,93333,1,0,0:0:0:0:
288,192,93333,1,0,0:0:0:0:
416,192,93333,1,0,0:0:0:0:
480,192,93333,1,0,0:0:0:0:
160,192,93499,1,0,0:0:0:0:
224,192,93499,1,0,0:0:0:0:
352,192,93499,1,0,0:0:0:0:
96,192,93666,1,0,0:0:0:0:
288,192,93666,1,0,0:0:0:0:
416,192,93666,1,0,0:0:0:0:
480,192,93666,1,0,0:0:0:0:
160,192,93749,1,0,0:0:0:0:
224,192,93749,1,0,0:0:0:0:
352,192,93833,1,0,0:0:0:0:
224,192,93916,1,0,0:0:0:0:
288,192,93916,1,0,0:0:0:0:
352,192,93999,1,0,0:0:0:0:
480,192,93999,1,0,0:0:0:0:
96,192,93999,1,0,0:0:0:0:
416,192,94166,1,0,0:0:0:0:
224,192,94166,1,0,0:0:0:0:
288,192,94166,1,0,0:0:0:0:
96,192,94333,1,0,0:0:0:0:
160,192,94333,1,0,0:0:0:0:
352,192,94333,1,0,0:0:0:0:
480,192,94333,1,0,0:0:0:0:
288,192,94416,1,0,0:0:0:0:
224,192,94416,1,0,0:0:0:0:
352,192,94499,1,0,0:0:0:0:
416,192,94499,1,0,0:0:0:0:
96,192,94666,1,0,0:0:0:0:
224,192,94666,1,0,0:0:0:0:
480,192,94666,1,0,0:0:0:0:
160,192,94833,1,0,0:0:0:0:
288,192,94833,1,0,0:0:0:0:
352,192,94833,1,0,0:0:0:0:
224,192,94916,1,0,0:0:0:0:
416,192,94916,1,0,0:0:0:0:
96,192,94999,1,0,0:0:0:0:
288,192,94999,1,0,0:0:0:0:
480,192,94999,1,0,0:0:0:0:
160,192,95083,1,0,0:0:0:0:
224,192,95083,1,0,0:0:0:0:
288,192,95166,1,0,0:0:0:0:
416,192,95166,1,0,0:0:0:0:
224,192,95249,1,0,0:0:0:0:
32,192,95333,5,0,0:0:0:0:
96,192,95333,1,0,0:0:0:0:
160,192,95333,1,0,0:0:0:0:
352,192,95333,1,0,0:0:0:0:
480,192,95333,1,0,0:0:0:0:
96,192,95499,1,0,0:0:0:0:
480,192,95499,1,0,0:0:0:0:
352,192,95499,1,0,0:0:0:0:
160,192,95499,1,0,0:0:0:0:
32,192,95500,1,0,0:0:0:0:
32,192,95666,1,0,0:0:0:0:
288,192,95666,1,0,0:0:0:0:
416,192,95666,1,0,0:0:0:0:
96,192,95666,1,0,0:0:0:0:
160,192,95666,1,0,0:0:0:0:
32,192,95833,1,0,0:0:0:0:
416,192,95833,1,0,0:0:0:0:
288,192,95833,1,0,0:0:0:0:
96,192,95833,1,0,0:0:0:0:
160,192,95833,1,0,0:0:0:0:
96,192,95999,1,0,0:0:0:0:
224,192,95999,1,0,0:0:0:0:
352,192,95999,1,0,0:0:0:0:
480,192,95999,1,0,0:0:0:0:
32,192,96000,1,0,0:0:0:0:
160,192,96166,1,0,0:0:0:0:
288,192,96166,1,0,0:0:0:0:
416,192,96166,1,0,0:0:0:0:
96,192,96333,1,0,0:0:0:0:
352,192,96333,1,0,0:0:0:0:
480,192,96333,1,0,0:0:0:0:
224,192,96333,1,0,0:0:0:0:
416,192,96416,1,0,0:0:0:0:
288,192,96416,1,0,0:0:0:0:
160,192,96499,1,0,0:0:0:0:
224,192,96583,1,0,0:0:0:0:
352,192,96583,1,0,0:0:0:0:
288,192,96666,1,0,0:0:0:0:
480,192,96666,1,0,0:0:0:0:
96,192,96666,1,0,0:0:0:0:
416,192,96833,1,0,0:0:0:0:
352,192,96833,1,0,0:0:0:0:
160,192,96833,1,0,0:0:0:0:
96,192,96999,1,0,0:0:0:0:
224,192,96999,1,0,0:0:0:0:
288,192,96999,1,0,0:0:0:0:
480,192,96999,1,0,0:0:0:0:
416,192,97083,1,0,0:0:0:0:
352,192,97083,1,0,0:0:0:0:
224,192,97166,1,0,0:0:0:0:
480,192,97166,1,0,0:0:0:0:
160,192,97166,1,0,0:0:0:0:
96,192,97333,1,0,0:0:0:0:
288,192,97333,1,0,0:0:0:0:
416,192,97333,1,0,0:0:0:0:
224,192,97499,1,0,0:0:0:0:
352,192,97499,1,0,0:0:0:0:
480,192,97499,1,0,0:0:0:0:
416,192,97666,1,0,0:0:0:0:
96,192,97666,1,0,0:0:0:0:
288,192,97666,1,0,0:0:0:0:
480,192,97666,1,0,0:0:0:0:
160,192,97749,1,0,0:0:0:0:
352,192,97749,1,0,0:0:0:0:
288,192,97833,1,0,0:0:0:0:
224,192,97916,1,0,0:0:0:0:
352,192,97916,1,0,0:0:0:0:
288,192,97999,1,0,0:0:0:0:
480,192,97999,1,0,0:0:0:0:
96,192,97999,1,0,0:0:0:0:
160,192,98166,1,0,0:0:0:0:
352,192,98166,1,0,0:0:0:0:
224,192,98166,1,0,0:0:0:0:
480,192,98333,1,0,0:0:0:0:
416,192,98333,1,0,0:0:0:0:
288,192,98333,1,0,0:0:0:0:
96,192,98333,1,0,0:0:0:0:
224,192,98416,1,0,0:0:0:0:
352,192,98416,1,0,0:0:0:0:
288,192,98499,1,0,0:0:0:0:
160,192,98499,1,0,0:0:0:0:
416,192,98499,1,0,0:0:0:0:
96,192,98666,1,0,0:0:0:0:
224,192,98666,1,0,0:0:0:0:
352,192,98666,1,0,0:0:0:0:
288,192,98833,1,0,0:0:0:0:
416,192,98833,1,0,0:0:0:0:
160,192,98833,1,0,0:0:0:0:
96,192,98999,1,0,0:0:0:0:
352,192,98999,1,0,0:0:0:0:
480,192,98999,1,0,0:0:0:0:
288,192,98999,1,0,0:0:0:0:
224,192,99083,1,0,0:0:0:0:
416,192,99083,1,0,0:0:0:0:
288,192,99166,1,0,0:0:0:0:
160,192,99249,1,0,0:0:0:0:
224,192,99249,1,0,0:0:0:0:
96,192,99333,1,0,0:0:0:0:
352,192,99333,1,0,0:0:0:0:
480,192,99333,1,0,0:0:0:0:
224,192,99499,1,0,0:0:0:0:
288,192,99499,1,0,0:0:0:0:
416,192,99499,1,0,0:0:0:0:
96,192,99666,1,0,0:0:0:0:
352,192,99666,1,0,0:0:0:0:
480,192,99666,1,0,0:0:0:0:
224,192,99666,1,0,0:0:0:0:
160,192,99749,1,0,0:0:0:0:
288,192,99749,1,0,0:0:0:0:
224,192,99833,1,0,0:0:0:0:
416,192,99833,1,0,0:0:0:0:
480,192,99833,1,0,0:0:0:0:
96,192,99999,1,0,0:0:0:0:
160,192,99999,1,0,0:0:0:0:
352,192,99999,1,0,0:0:0:0:
224,192,100166,1,0,0:0:0:0:
288,192,100166,1,0,0:0:0:0:
416,192,100166,1,0,0:0:0:0:
352,192,100249,1,0,0:0:0:0:
160,192,100249,1,0,0:0:0:0:
96,192,100333,1,0,0:0:0:0:
288,192,100333,1,0,0:0:0:0:
480,192,100333,1,0,0:0:0:0:
160,192,100416,1,0,0:0:0:0:
352,192,100416,1,0,0:0:0:0:
288,192,100499,1,0,0:0:0:0:
416,192,100499,1,0,0:0:0:0:
224,192,100499,1,0,0:0:0:0:
96,192,100666,1,0,0:0:0:0:
160,192,100666,1,0,0:0:0:0:
352,192,100666,1,0,0:0:0:0:
416,192,100833,1,0,0:0:0:0:
160,192,100833,1,0,0:0:0:0:
352,192,100833,1,0,0:0:0:0:
96,192,100999,1,0,0:0:0:0:
480,192,100999,1,0,0:0:0:0:
288,192,100999,1,0,0:0:0:0:
224,192,100999,1,0,0:0:0:0:
224,192,101166,1,0,0:0:0:0:
288,192,101166,1,0,0:0:0:0:
480,192,101166,1,0,0:0:0:0:
416,192,101249,1,0,0:0:0:0:
96,192,101333,1,0,0:0:0:0:
160,192,101333,1,0,0:0:0:0:
352,192,101333,1,0,0:0:0:0:
288,192,101499,1,0,0:0:0:0:
416,192,101499,1,0,0:0:0:0:
224,192,101499,1,0,0:0:0:0:
96,192,101666,1,0,0:0:0:0:
160,192,101666,1,0,0:0:0:0:
352,192,101666,1,0,0:0:0:0:
480,192,101666,1,0,0:0:0:0:
224,192,101749,1,0,0:0:0:0:
416,192,101749,1,0,0:0:0:0:
288,192,101833,1,0,0:0:0:0:
160,192,101916,1,0,0:0:0:0:
224,192,101916,1,0,0:0:0:0:
96,192,101999,1,0,0:0:0:0:
288,192,101999,1,0,0:0:0:0:
480,192,101999,1,0,0:0:0:0:
224,192,102166,1,0,0:0:0:0:
416,192,102166,1,0,0:0:0:0:
352,192,102166,1,0,0:0:0:0:
96,192,102333,1,0,0:0:0:0:
288,192,102333,1,0,0:0:0:0:
480,192,102333,1,0,0:0:0:0:
160,192,102333,1,0,0:0:0:0:
416,192,102416,1,0,0:0:0:0:
224,192,102416,1,0,0:0:0:0:
160,192,102499,1,0,0:0:0:0:
352,192,102499,1,0,0:0:0:0:
416,192,102583,1,0,0:0:0:0:
480,192,102666,1,0,0:0:0:0:
96,192,102666,1,0,0:0:0:0:
224,192,102666,1,0,0:0:0:0:
352,192,102749,1,0,0:0:0:0:
288,192,102833,1,0,0:0:0:0:
416,192,102833,1,0,0:0:0:0:
160,192,102833,1,0,0:0:0:0:
224,192,102916,1,0,0:0:0:0:
288,192,102999,1,0,0:0:0:0:
352,192,102999,1,0,0:0:0:0:
480,192,102999,1,0,0:0:0:0:
96,192,102999,1,0,0:0:0:0:
160,192,103083,1,0,0:0:0:0:
416,192,103083,1,0,0:0:0:0:
224,192,103083,1,0,0:0:0:0:
288,192,103166,1,0,0:0:0:0:
480,192,103249,1,0,0:0:0:0:
224,192,103249,1,0,0:0:0:0:
416,192,103333,1,0,0:0:0:0:
352,192,103333,1,0,0:0:0:0:
96,192,103333,1,0,0:0:0:0:
160,192,103333,1,0,0:0:0:0:
288,192,103416,1,0,0:0:0:0:
224,192,103499,1,0,0:0:0:0:
352,192,103499,1,0,0:0:0:0:
480,192,103499,1,0,0:0:0:0:
160,192,103583,1,0,0:0:0:0:
96,192,103666,1,0,0:0:0:0:
288,192,103666,1,0,0:0:0:0:
416,192,103666,1,0,0:0:0:0:
480,192,103666,1,0,0:0:0:0:
352,192,103749,1,0,0:0:0:0:
224,192,103749,1,0,0:0:0:0:
160,192,103749,1,0,0:0:0:0:
288,192,103833,1,0,0:0:0:0:
416,192,103833,1,0,0:0:0:0:
480,192,103833,1,0,0:0:0:0:
224,192,103916,1,0,0:0:0:0:
160,192,103999,1,0,0:0:0:0:
96,192,103999,1,0,0:0:0:0:
416,192,103999,1,0,0:0:0:0:
288,192,104083,1,0,0:0:0:0:
352,192,104166,1,0,0:0:0:0:
224,192,104166,1,0,0:0:0:0:
480,192,104166,1,0,0:0:0:0:
160,192,104249,1,0,0:0:0:0:
96,192,104333,1,0,0:0:0:0:
288,192,104333,1,0,0:0:0:0:
416,192,104333,1,0,0:0:0:0:
480,192,104333,1,0,0:0:0:0:
224,192,104416,1,0,0:0:0:0:
160,192,104416,1,0,0:0:0:0:
352,192,104416,1,0,0:0:0:0:
288,192,104499,1,0,0:0:0:0:
352,192,104583,1,0,0:0:0:0:
160,192,104583,1,0,0:0:0:0:
224,192,104583,1,0,0:0:0:0:
416,192,104666,1,0,0:0:0:0:
480,192,104666,1,0,0:0:0:0:
96,192,104666,1,0,0:0:0:0:
288,192,104749,1,0,0:0:0:0:
160,192,104833,1,0,0:0:0:0:
352,192,104833,1,0,0:0:0:0:
480,192,104833,1,0,0:0:0:0:
224,192,104916,1,0,0:0:0:0:
288,192,104999,1,0,0:0:0:0:
416,192,104999,1,0,0:0:0:0:
480,192,104999,1,0,0:0:0:0:
96,192,104999,1,0,0:0:0:0:
160,192,105083,1,0,0:0:0:0:
224,192,105083,1,0,0:0:0:0:
352,192,105083,1,0,0:0:0:0:
288,192,105166,5,0,0:0:0:0:
416,192,105166,1,0,0:0:0:0:
480,192,105166,1,0,0:0:0:0:
224,192,105249,1,0,0:0:0:0:
160,192,105333,1,0,0:0:0:0:
96,192,105333,1,0,0:0:0:0:
352,192,105333,1,0,0:0:0:0:
288,192,105416,1,0,0:0:0:0:
480,192,105499,1,0,0:0:0:0:
352,192,105499,1,0,0:0:0:0:
224,192,105499,1,0,0:0:0:0:
160,192,105583,1,0,0:0:0:0:
288,192,105583,1,0,0:0:0:0:
416,192,105583,1,0,0:0:0:0:
96,192,105666,1,0,0:0:0:0:
224,192,105666,1,0,0:0:0:0:
480,192,105666,1,0,0:0:0:0:
160,192,105749,1,0,0:0:0:0:
288,192,105749,1,0,0:0:0:0:
416,192,105749,1,0,0:0:0:0:
224,192,105833,1,0,0:0:0:0:
352,192,105833,1,0,0:0:0:0:
480,192,105833,1,0,0:0:0:0:
160,192,105916,1,0,0:0:0:0:
96,192,105999,1,0,0:0:0:0:
224,192,105999,1,0,0:0:0:0:
288,192,105999,1,0,0:0:0:0:
416,192,105999,1,0,0:0:0:0:
352,192,106083,1,0,0:0:0:0:
480,192,106166,1,0,0:0:0:0:
160,192,106166,1,0,0:0:0:0:
224,192,106166,1,0,0:0:0:0:
352,192,106249,1,0,0:0:0:0:
32,192,106333,5,0,0:0:0:0:
480,192,106333,1,0,0:0:0:0:
96,192,106333,1,0,0:0:0:0:
160,192,106333,1,0,0:0:0:0:
288,192,106333,1,0,0:0:0:0:
32,192,106666,1,0,0:0:0:0:
96,192,106666,1,0,0:0:0:0:
224,192,106666,1,0,0:0:0:0:
480,192,106666,1,0,0:0:0:0:
416,192,106666,1,0,0:0:0:0:
352,192,106833,1,0,0:0:0:0:
288,192,106916,1,0,0:0:0:0:
416,192,106916,1,0,0:0:0:0:
480,192,106999,1,0,0:0:0:0:
96,192,106999,1,0,0:0:0:0:
224,192,106999,1,0,0:0:0:0:
352,192,107166,1,0,0:0:0:0:
160,192,107166,1,0,0:0:0:0:
224,192,107249,1,0,0:0:0:0:
96,192,107333,1,0,0:0:0:0:
480,192,107416,1,0,0:0:0:0:
288,192,107499,1,0,0:0:0:0:
160,192,107499,1,0,0:0:0:0:
224,192,107583,1,0,0:0:0:0:
416,192,107583,1,0,0:0:0:0:
96,192,107666,1,0,0:0:0:0:
352,192,107666,1,0,0:0:0:0:
288,192,107666,1,0,0:0:0:0:
480,192,107666,1,0,0:0:0:0:
288,192,107833,1,0,0:0:0:0:
160,192,107833,1,0,0:0:0:0:
416,192,107999,1,0,0:0:0:0:
96,192,107999,1,0,0:0:0:0:
224,192,108166,1,0,0:0:0:0:
352,192,108166,1,0,0:0:0:0:
288,192,108249,1,0,0:0:0:0:
96,192,108333,1,0,0:0:0:0:
480,192,108333,1,0,0:0:0:0:
160,192,108333,1,0,0:0:0:0:
416,192,108333,1,0,0:0:0:0:
288,192,108416,1,0,0:0:0:0:
416,192,108499,1,0,0:0:0:0:
224,192,108583,1,0,0:0:0:0:
352,192,108583,1,0,0:0:0:0:
96,192,108666,1,0,0:0:0:0:
160,192,108749,1,0,0:0:0:0:
288,192,108833,1,0,0:0:0:0:
416,192,108833,1,0,0:0:0:0:
160,192,108916,1,0,0:0:0:0:
416,192,108999,1,0,0:0:0:0:
96,192,108999,1,0,0:0:0:0:
224,192,108999,1,0,0:0:0:0:
352,192,109166,1,0,0:0:0:0:
288,192,109166,1,0,0:0:0:0:
224,192,109249,1,0,0:0:0:0:
416,192,109333,1,0,0:0:0:0:
96,192,109333,1,0,0:0:0:0:
224,192,109499,1,0,0:0:0:0:
352,192,109583,1,0,0:0:0:0:
96,192,109666,1,0,0:0:0:0:
288,192,109666,1,0,0:0:0:0:
480,192,109666,1,0,0:0:0:0:
288,192,109833,1,0,0:0:0:0:
480,192,109833,1,0,0:0:0:0:
352,192,109916,1,0,0:0:0:0:
96,192,109999,1,0,0:0:0:0:
416,192,110083,1,0,0:0:0:0:
352,192,110166,1,0,0:0:0:0:
480,192,110166,1,0,0:0:0:0:
224,192,110249,1,0,0:0:0:0:
416,192,110249,1,0,0:0:0:0:
96,192,110333,1,0,0:0:0:0:
480,192,110333,1,0,0:0:0:0:
288,192,110333,1,0,0:0:0:0:
160,192,110333,1,0,0:0:0:0:
288,192,110499,1,0,0:0:0:0:
352,192,110499,1,0,0:0:0:0:
416,192,110666,1,0,0:0:0:0:
96,192,110666,1,0,0:0:0:0:
352,192,110833,1,0,0:0:0:0:
160,192,110833,1,0,0:0:0:0:
288,192,110916,1,0,0:0:0:0:
96,192,110999,1,0,0:0:0:0:
352,192,110999,1,0,0:0:0:0:
480,192,110999,1,0,0:0:0:0:
288,192,111083,1,0,0:0:0:0:
224,192,111166,1,0,0:0:0:0:
416,192,111249,1,0,0:0:0:0:
160,192,111249,1,0,0:0:0:0:
96,192,111333,1,0,0:0:0:0:
288,192,111416,1,0,0:0:0:0:
224,192,111416,1,0,0:0:0:0:
352,192,111499,1,0,0:0:0:0:
96,192,111499,1,0,0:0:0:0:
480,192,111499,1,0,0:0:0:0:
224,192,111583,1,0,0:0:0:0:
288,192,111666,1,0,0:0:0:0:
96,192,111666,1,0,0:0:0:0:
416,192,111666,1,0,0:0:0:0:
224,192,111833,1,0,0:0:0:0:
416,192,111833,1,0,0:0:0:0:
160,192,111833,1,0,0:0:0:0:
352,192,111999,1,0,0:0:0:0:
96,192,111999,1,0,0:0:0:0:
224,192,112166,1,0,0:0:0:0:
288,192,112166,1,0,0:0:0:0:
160,192,112249,1,0,0:0:0:0:
416,192,112249,1,0,0:0:0:0:
352,192,112333,1,0,0:0:0:0:
96,192,112333,1,0,0:0:0:0:
480,192,112333,1,0,0:0:0:0:
160,192,112499,1,0,0:0:0:0:
352,192,112499,1,0,0:0:0:0:
288,192,112583,1,0,0:0:0:0:
480,192,112583,1,0,0:0:0:0:
96,192,112666,1,0,0:0:0:0:
224,192,112749,1,0,0:0:0:0:
352,192,112749,1,0,0:0:0:0:
480,192,112833,1,0,0:0:0:0:
160,192,112833,1,0,0:0:0:0:
288,192,112916,1,0,0:0:0:0:
416,192,112916,1,0,0:0:0:0:
96,192,112999,1,0,0:0:0:0:
224,192,112999,1,0,0:0:0:0:
160,192,113166,1,0,0:0:0:0:
352,192,113166,1,0,0:0:0:0:
96,192,113333,1,0,0:0:0:0:
480,192,113333,1,0,0:0:0:0:
160,192,113416,1,0,0:0:0:0:
224,192,113499,1,0,0:0:0:0:
416,192,113499,1,0,0:0:0:0:
288,192,113583,1,0,0:0:0:0:
96,192,113666,1,0,0:0:0:0:
352,192,113666,1,0,0:0:0:0:
480,192,113666,1,0,0:0:0:0:
224,192,113833,1,0,0:0:0:0:
480,192,113833,1,0,0:0:0:0:
416,192,113916,1,0,0:0:0:0:
352,192,113999,1,0,0:0:0:0:
96,192,113999,1,0,0:0:0:0:
160,192,114083,1,0,0:0:0:0:
288,192,114166,1,0,0:0:0:0:
224,192,114333,1,0,0:0:0:0:
96,192,114333,1,0,0:0:0:0:
416,192,114333,1,0,0:0:0:0:
480,192,114499,1,0,0:0:0:0:
224,192,114499,1,0,0:0:0:0:
416,192,114583,1,0,0:0:0:0:
160,192,114583,1,0,0:0:0:0:
96,192,114666,1,0,0:0:0:0:
288,192,114666,1,0,0:0:0:0:
352,192,114833,1,0,0:0:0:0:
352,192,114999,1,0,0:0:0:0:
96,192,114999,1,0,0:0:0:0:
480,192,114999,1,0,0:0:0:0:
288,192,115166,1,0,0:0:0:0:
160,192,115166,1,0,0:0:0:0:
416,192,115249,1,0,0:0:0:0:
96,192,115249,1,0,0:0:0:0:
224,192,115333,1,0,0:0:0:0:
160,192,115416,1,0,0:0:0:0:
480,192,115416,1,0,0:0:0:0:
352,192,115499,1,0,0:0:0:0:
416,192,115499,1,0,0:0:0:0:
224,192,115583,1,0,0:0:0:0:
480,192,115583,1,0,0:0:0:0:
96,192,115666,1,0,0:0:0:0:
288,192,115666,1,0,0:0:0:0:
416,192,115833,1,0,0:0:0:0:
224,192,115833,1,0,0:0:0:0:
480,192,115999,1,0,0:0:0:0:
96,192,115999,1,0,0:0:0:0:
224,192,116166,5,0,0:0:0:0:
416,192,116249,5,0,0:0:0:0:
96,192,116333,1,0,0:0:0:0:
288,192,116333,1,0,0:0:0:0:
352,192,116499,1,0,0:0:0:0:
160,192,116499,1,0,0:0:0:0:
288,192,116583,1,0,0:0:0:0:
480,192,116666,1,0,0:0:0:0:
96,192,116666,1,0,0:0:0:0:
352,192,116749,1,0,0:0:0:0:
224,192,116833,1,0,0:0:0:0:
160,192,116833,1,0,0:0:0:0:
416,192,116916,1,0,0:0:0:0:
352,192,116916,1,0,0:0:0:0:
96,192,116999,1,0,0:0:0:0:
288,192,116999,1,0,0:0:0:0:
480,192,116999,1,0,0:0:0:0:
352,192,117166,1,0,0:0:0:0:
224,192,117166,1,0,0:0:0:0:
416,192,117166,1,0,0:0:0:0:
160,192,117249,1,0,0:0:0:0:
32,192,117333,5,0,0:0:0:0:
480,192,117333,1,0,0:0:0:0:
96,192,117333,1,0,0:0:0:0:
288,192,117333,1,0,0:0:0:0:
160,192,117499,1,0,0:0:0:0:
32,192,117500,1,0,0:0:0:0:
352,192,117583,1,0,0:0:0:0:
224,192,117666,1,0,0:0:0:0:
480,192,117666,1,0,0:0:0:0:
32,192,117833,1,0,0:0:0:0:
160,192,117833,1,0,0:0:0:0:
416,192,117833,1,0,0:0:0:0:
352,192,117916,1,0,0:0:0:0:
96,192,117999,1,0,0:0:0:0:
160,192,118083,1,0,0:0:0:0:
32,192,118166,1,0,0:0:0:0:
352,192,118166,1,0,0:0:0:0:
480,192,118166,1,0,0:0:0:0:
288,192,118249,1,0,0:0:0:0:
416,192,118249,1,0,0:0:0:0:
160,192,118333,1,0,0:0:0:0:
352,192,118333,1,0,0:0:0:0:
480,192,118333,1,0,0:0:0:0:
352,192,118499,1,0,0:0:0:0:
224,192,118499,1,0,0:0:0:0:
32,192,118500,1,0,0:0:0:0:
480,192,118666,1,0,0:0:0:0:
96,192,118666,1,0,0:0:0:0:
32,192,118833,1,0,0:0:0:0:
352,192,118833,1,0,0:0:0:0:
224,192,118833,1,0,0:0:0:0:
416,192,118999,1,0,0:0:0:0:
480,192,118999,1,0,0:0:0:0:
96,192,118999,1,0,0:0:0:0:
288,192,119083,1,0,0:0:0:0:
32,192,119166,1,0,0:0:0:0:
224,192,119166,1,0,0:0:0:0:
352,192,119249,1,0,0:0:0:0:
480,192,119249,1,0,0:0:0:0:
160,192,119333,1,0,0:0:0:0:
288,192,119416,1,0,0:0:0:0:
224,192,119499,1,0,0:0:0:0:
416,192,119499,1,0,0:0:0:0:
32,192,119500,1,0,0:0:0:0:
352,192,119583,1,0,0:0:0:0:
480,192,119666,1,0,0:0:0:0:
96,192,119666,1,0,0:0:0:0:
32,192,119833,1,0,0:0:0:0:
352,192,119833,1,0,0:0:0:0:
224,192,119833,1,0,0:0:0:0:
160,192,119916,1,0,0:0:0:0:
480,192,119999,1,0,0:0:0:0:
96,192,119999,1,0,0:0:0:0:
32,192,120166,1,0,0:0:0:0:
224,192,120166,1,0,0:0:0:0:
352,192,120249,1,0,0:0:0:0:
160,192,120333,1,0,0:0:0:0:
288,192,120333,1,0,0:0:0:0:
224,192,120499,1,0,0:0:0:0:
480,192,120499,1,0,0:0:0:0:
32,192,120500,1,0,0:0:0:0:
352,192,120583,1,0,0:0:0:0:
96,192,120666,1,0,0:0:0:0:
288,192,120749,1,0,0:0:0:0:
32,192,120833,1,0,0:0:0:0:
160,192,120833,1,0,0:0:0:0:
352,192,120833,1,0,0:0:0:0:
416,192,120916,1,0,0:0:0:0:
224,192,120916,1,0,0:0:0:0:
480,192,120999,1,0,0:0:0:0:
96,192,120999,1,0,0:0:0:0:
288,192,120999,1,0,0:0:0:0:
32,192,121166,1,0,0:0:0:0:
288,192,121166,1,0,0:0:0:0:
416,192,121166,1,0,0:0:0:0:
480,192,121333,1,0,0:0:0:0:
96,192,121333,1,0,0:0:0:0:
352,192,121499,1,0,0:0:0:0:
224,192,121499,1,0,0:0:0:0:
32,192,121500,1,0,0:0:0:0:
160,192,121666,1,0,0:0:0:0:
416,192,121666,1,0,0:0:0:0:
480,192,121666,1,0,0:0:0:0:
288,192,121749,1,0,0:0:0:0:
32,192,121833,1,0,0:0:0:0:
224,192,121833,1,0,0:0:0:0:
352,192,121916,1,0,0:0:0:0:
96,192,121999,1,0,0:0:0:0:
288,192,122083,1,0,0:0:0:0:
416,192,122083,1,0,0:0:0:0:
32,192,122166,1,0,0:0:0:0:
224,192,122166,1,0,0:0:0:0:
160,192,122166,1,0,0:0:0:0:
352,192,122249,1,0,0:0:0:0:
416,192,122249,1,0,0:0:0:0:
32,192,122333,1,0,0:0:0:0:
480,192,122333,1,0,0:0:0:0:
96,192,122333,1,0,0:0:0:0:
288,192,122333,1,0,0:0:0:0:
352,192,122499,1,0,0:0:0:0:
160,192,122499,1,0,0:0:0:0:
32,192,122500,1,0,0:0:0:0:
480,192,122666,1,0,0:0:0:0:
224,192,122666,1,0,0:0:0:0:
32,192,122833,1,0,0:0:0:0:
352,192,122833,1,0,0:0:0:0:
160,192,122833,1,0,0:0:0:0:
480,192,122999,1,0,0:0:0:0:
96,192,122999,1,0,0:0:0:0:
224,192,122999,1,0,0:0:0:0:
32,192,123166,1,0,0:0:0:0:
352,192,123166,1,0,0:0:0:0:
160,192,123166,1,0,0:0:0:0:
416,192,123166,1,0,0:0:0:0:
224,192,123249,1,0,0:0:0:0:
96,192,123333,1,0,0:0:0:0:
288,192,123333,1,0,0:0:0:0:
352,192,123416,1,0,0:0:0:0:
480,192,123499,1,0,0:0:0:0:
288,192,123499,1,0,0:0:0:0:
160,192,123499,1,0,0:0:0:0:
32,192,123500,1,0,0:0:0:0:
416,192,123583,1,0,0:0:0:0:
224,192,123583,1,0,0:0:0:0:
96,192,123666,1,0,0:0:0:0:
352,192,123666,1,0,0:0:0:0:
288,192,123749,1,0,0:0:0:0:
32,192,123833,1,0,0:0:0:0:
480,192,123833,1,0,0:0:0:0:
224,192,123833,1,0,0:0:0:0:
352,192,123833,1,0,0:0:0:0:
160,192,123916,1,0,0:0:0:0:
96,192,123999,1,0,0:0:0:0:
288,192,123999,1,0,0:0:0:0:
224,192,124083,1,0,0:0:0:0:
32,192,124166,1,0,0:0:0:0:
160,192,124166,1,0,0:0:0:0:
416,192,124166,1,0,0:0:0:0:
288,192,124249,1,0,0:0:0:0:
352,192,124333,1,0,0:0:0:0:
480,192,124333,1,0,0:0:0:0:
288,192,124499,1,0,0:0:0:0:
224,192,124499,1,0,0:0:0:0:
32,192,124500,1,0,0:0:0:0:
160,192,124583,1,0,0:0:0:0:
480,192,124666,1,0,0:0:0:0:
96,192,124666,1,0,0:0:0:0:
288,192,124749,1,0,0:0:0:0:
32,192,124833,1,0,0:0:0:0:
160,192,124833,1,0,0:0:0:0:
352,192,124833,1,0,0:0:0:0:
288,192,124916,1,0,0:0:0:0:
352,192,124999,1,0,0:0:0:0:
224,192,124999,1,0,0:0:0:0:
480,192,124999,1,0,0:0:0:0:
416,192,125083,1,0,0:0:0:0:
32,192,125166,1,0,0:0:0:0:
160,192,125166,1,0,0:0:0:0:
352,192,125166,1,0,0:0:0:0:
416,192,125249,1,0,0:0:0:0:
288,192,125333,1,0,0:0:0:0:
480,192,125333,1,0,0:0:0:0:
96,192,125333,1,0,0:0:0:0:
224,192,125416,1,0,0:0:0:0:
160,192,125499,1,0,0:0:0:0:
32,192,125500,1,0,0:0:0:0:
288,192,125583,1,0,0:0:0:0:
352,192,125666,1,0,0:0:0:0:
96,192,125666,1,0,0:0:0:0:
480,192,125666,1,0,0:0:0:0:
224,192,125749,1,0,0:0:0:0:
32,192,125833,1,0,0:0:0:0:
160,192,125833,1,0,0:0:0:0:
416,192,125833,1,0,0:0:0:0:
352,192,125916,1,0,0:0:0:0:
480,192,125999,1,0,0:0:0:0:
96,192,125999,1,0,0:0:0:0:
288,192,126083,1,0,0:0:0:0:
160,192,126083,1,0,0:0:0:0:
416,192,126083,1,0,0:0:0:0:
32,192,126166,1,0,0:0:0:0:
480,192,126166,1,0,0:0:0:0:
224,192,126166,1,0,0:0:0:0:
352,192,126166,1,0,0:0:0:0:
288,192,126249,1,0,0:0:0:0:
160,192,126249,1,0,0:0:0:0:
96,192,126333,1,0,0:0:0:0:
416,192,126333,1,0,0:0:0:0:
160,192,126416,1,0,0:0:0:0:
288,192,126499,1,0,0:0:0:0:
416,192,126499,1,0,0:0:0:0:
32,192,126500,1,0,0:0:0:0:
224,192,126583,1,0,0:0:0:0:
32,192,126666,1,0,0:0:0:0:
480,192,126666,1,0,0:0:0:0:
96,192,126666,1,0,0:0:0:0:
288,192,126666,1,0,0:0:0:0:
416,192,126666,1,0,0:0:0:0:
32,192,126916,1,0,0:0:0:0:
416,192,126916,1,0,0:0:0:0:
96,192,126916,1,0,0:0:0:0:
160,192,126916,1,0,0:0:0:0:
352,192,126916,1,0,0:0:0:0:
32,192,127166,1,0,0:0:0:0:
352,192,127166,1,0,0:0:0:0:
288,192,127166,1,0,0:0:0:0:
96,192,127166,1,0,0:0:0:0:
480,192,127166,1,0,0:0:0:0:
32,192,127333,1,0,0:0:0:0:
480,192,127333,1,0,0:0:0:0:
416,192,127333,1,0,0:0:0:0:
96,192,127333,1,0,0:0:0:0:
224,192,127333,1,0,0:0:0:0:
32,192,127583,1,0,0:0:0:0:
416,192,127583,1,0,0:0:0:0:
352,192,127583,1,0,0:0:0:0:
96,192,127583,1,0,0:0:0:0:
160,192,127583,1,0,0:0:0:0:
32,192,127833,1,0,0:0:0:0:
352,192,127833,1,0,0:0:0:0:
288,192,127833,1,0,0:0:0:0:
96,192,127833,1,0,0:0:0:0:
480,192,127833,1,0,0:0:0:0:
480,192,127999,1,0,0:0:0:0:
224,192,127999,1,0,0:0:0:0:
96,192,127999,1,0,0:0:0:0:
352,192,127999,1,0,0:0:0:0:
32,192,128000,1,0,0:0:0:0:
