osu file format v14

[General]
AudioFilename: audio.mp3
AudioLeadIn: 0
PreviewTime: 11881
Countdown: 0
SampleSet: Soft
StackLeniency: 0.7
Mode: 3
LetterboxInBreaks: 0
EpilepsyWarning: 1
SpecialStyle: 0
WidescreenStoryboard: 1

[Editor]
DistanceSpacing: 1.3
BeatDivisor: 4
GridSize: 32
TimelineZoom: 2.599999

[Metadata]
Title:Bad Cycle
TitleUnicode:Bad Cycle
Artist:EBIMAYO
ArtistUnicode:EBIMAYO
Creator:Mykaterasu
Version:Another
Source:
Tags:
BeatmapID:1548387
BeatmapSetID:733708

[Difficulty]
HPDrainRate:5
CircleSize:4
OverallDifficulty:9.2
ApproachRate:5
SliderMultiplier:1.4
SliderTickRate:1

[Events]
//Background and Video events
0,0,"bad.jpg",0,0
//Break Periods
//Storyboard Layer 0 (Background)
//Storyboard Layer 1 (Fail)
//Storyboard Layer 2 (Pass)
//Storyboard Layer 3 (Foreground)
//Storyboard Sound Samples

[TimingPoints]
69,375,4,2,1,70,1,0
10569,-66.6666666666667,4,2,1,70,0,0
10615,-200,4,2,1,70,0,0
10662,-100,4,2,1,70,0,0
10756,-66.6666666666667,4,2,1,70,0,0
10803,-200,4,2,1,70,0,0
10850,-100,4,2,1,70,0,0
10944,-66.6666666666667,4,2,1,70,0,0
10990,-200,4,2,1,70,0,0
11037,-100,4,2,1,70,0,0
11131,-66.6666666666667,4,2,1,70,0,0
11178,-200,4,2,1,70,0,0
11225,-100,4,2,1,70,0,0
11319,-200,4,2,1,70,0,0
11365,-66.6666666666667,4,2,1,70,0,0
11553,-200,4,2,1,70,0,0
11600,-100,4,2,1,70,0,0
11694,-25,4,2,1,70,0,0
11740,-200,4,2,1,70,0,0
12022,-100,4,2,1,70,0,0
12256,-66.6666666666667,4,2,1,70,0,0
12279,-200,4,2,1,70,0,0
12303,-66.6666666666667,4,2,1,70,0,0
12326,-200,4,2,1,70,0,0
12350,-66.6666666666667,4,2,1,70,0,0
12373,-200,4,2,1,70,0,0
12397,-66.6666666666667,4,2,1,70,0,0
12420,-200,4,2,1,70,0,0
12444,-100,4,2,1,70,0,0
12631,-76.9230769230769,4,2,1,70,0,0
12678,-142.857142857143,4,2,1,70,0,0
12725,-76.9230769230769,4,2,1,70,0,0
12772,-142.857142857143,4,2,1,70,0,0
12819,-100,4,2,1,70,0,0
13006,-1000.00000000001,4,2,1,70,0,0
13029,-52.6315789473684,4,2,1,70,0,0
13053,-1000.00000000001,4,2,1,70,0,0
13076,-52.6315789473684,4,2,1,70,0,0
13100,-1000.00000000001,4,2,1,70,0,0
13123,-52.6315789473684,4,2,1,70,0,0
13147,-1000.00000000001,4,2,1,70,0,0
13170,-52.6315789473684,4,2,1,70,0,0
13194,-100,4,2,1,70,0,0
13381,-66.6666666666667,4,2,1,70,0,0
13404,-200,4,2,1,70,0,0
13428,-66.6666666666667,4,2,1,70,0,0
13451,-200,4,2,1,70,0,0
13475,-66.6666666666667,4,2,1,70,0,0
13498,-200,4,2,1,70,0,0
13522,-66.6666666666667,4,2,1,70,0,0
13545,-200,4,2,1,70,0,0
13569,-100,4,2,1,70,0,0
13756,-76.9230769230769,4,2,1,70,0,0
13803,-142.857142857143,4,2,1,70,0,0
13850,-76.9230769230769,4,2,1,70,0,0
13897,-142.857142857143,4,2,1,70,0,0
13944,-100,4,2,1,70,0,0
14131,-52.6315789473684,4,2,1,70,0,0
14178,-1000,4,2,1,70,0,0
14225,-100,4,2,1,70,0,0
15256,-66.6666666666667,4,2,1,70,0,0
15279,-200,4,2,1,70,0,0
15303,-66.6666666666667,4,2,1,70,0,0
15326,-200,4,2,1,70,0,0
15350,-66.6666666666667,4,2,1,70,0,0
15373,-200,4,2,1,70,0,0
15397,-66.6666666666667,4,2,1,70,0,0
15420,-200,4,2,1,70,0,0
15444,-100,4,2,1,70,0,0
15631,-1000,4,2,1,70,0,0
15654,-52.6315789473684,4,2,1,70,0,0
15678,-1000,4,2,1,70,0,0
15701,-52.6315789473684,4,2,1,70,0,0
15725,-1000,4,2,1,70,0,0
15748,-52.6315789473684,4,2,1,70,0,0
15772,-1000,4,2,1,70,0,0
15795,-52.6315789473684,4,2,1,70,0,0
15819,-100,4,2,1,70,0,0
16006,-76.9230769230769,4,2,1,70,0,0
16053,-142.857142857143,4,2,1,70,0,0
16100,-76.9230769230769,4,2,1,70,0,0
16147,-142.857142857143,4,2,1,70,0,0
16194,-100,4,2,1,70,0,0
16381,-66.6666666666667,4,2,1,70,0,0
16404,-200,4,2,1,70,0,0
16428,-66.6666666666667,4,2,1,70,0,0
16451,-200,4,2,1,70,0,0
16475,-66.6666666666667,4,2,1,70,0,0
16498,-200,4,2,1,70,0,0
16522,-66.6666666666667,4,2,1,70,0,0
16545,-200,4,2,1,70,0,0
16569,-100,4,2,1,70,0,0
18256,-66.6666666666667,4,2,1,70,0,0
18279,-200,4,2,1,70,0,0
18303,-66.6666666666667,4,2,1,70,0,0
18326,-200,4,2,1,70,0,0
18350,-66.6666666666667,4,2,1,70,0,0
18373,-200,4,2,1,70,0,0
18397,-66.6666666666667,4,2,1,70,0,0
18420,-200,4,2,1,70,0,0
18444,-100,4,2,1,70,0,0
18631,-76.9230769230769,4,2,1,70,0,0
18678,-142.857142857143,4,2,1,70,0,0
18725,-76.9230769230769,4,2,1,70,0,0
18772,-142.857142857143,4,2,1,70,0,0
18819,-100,4,2,1,70,0,0
19006,-1000.00000000001,4,2,1,70,0,0
19029,-52.6315789473684,4,2,1,70,0,0
19053,-1000.00000000001,4,2,1,70,0,0
19076,-52.6315789473684,4,2,1,70,0,0
19100,-1000.00000000001,4,2,1,70,0,0
19123,-52.6315789473684,4,2,1,70,0,0
19147,-1000.00000000001,4,2,1,70,0,0
19170,-52.6315789473684,4,2,1,70,0,0
19194,-100,4,2,1,70,0,0
19381,-66.6666666666667,4,2,1,70,0,0
19404,-200,4,2,1,70,0,0
19428,-66.6666666666667,4,2,1,70,0,0
19451,-200,4,2,1,70,0,0
19475,-66.6666666666667,4,2,1,70,0,0
19498,-200,4,2,1,70,0,0
19522,-66.6666666666667,4,2,1,70,0,0
19545,-200,4,2,1,70,0,0
19569,-100,4,2,1,70,0,0
19756,-76.9230769230769,4,2,1,70,0,0
19803,-142.857142857143,4,2,1,70,0,0
19850,-76.9230769230769,4,2,1,70,0,0
19897,-142.857142857143,4,2,1,70,0,0
19944,-100,4,2,1,70,0,0
20131,-52.6315789473684,4,2,1,70,0,0
20178,-1000,4,2,1,70,0,0
20225,-100,4,2,1,70,0,0
21256,-66.6666666666667,4,2,1,70,0,0
21279,-200,4,2,1,70,0,0
21303,-66.6666666666667,4,2,1,70,0,0
21326,-200,4,2,1,70,0,0
21350,-66.6666666666667,4,2,1,70,0,0
21373,-200,4,2,1,70,0,0
21397,-66.6666666666667,4,2,1,70,0,0
21420,-200,4,2,1,70,0,0
21444,-100,4,2,1,70,0,0
21631,-1000,4,2,1,70,0,0
21654,-52.6315789473684,4,2,1,70,0,0
21678,-1000,4,2,1,70,0,0
21701,-52.6315789473684,4,2,1,70,0,0
21725,-1000,4,2,1,70,0,0
21748,-52.6315789473684,4,2,1,70,0,0
21772,-1000,4,2,1,70,0,0
21795,-52.6315789473684,4,2,1,70,0,0
21819,-100,4,2,1,70,0,0
22006,-76.9230769230769,4,2,1,70,0,0
22053,-142.857142857143,4,2,1,70,0,0
22100,-76.9230769230769,4,2,1,70,0,0
22147,-142.857142857143,4,2,1,70,0,0
22194,-100,4,2,1,70,0,0
22381,-66.6666666666667,4,2,1,70,0,0
22404,-200,4,2,1,70,0,0
22428,-66.6666666666667,4,2,1,70,0,0
22451,-200,4,2,1,70,0,0
22475,-66.6666666666667,4,2,1,70,0,0
22498,-200,4,2,1,70,0,0
22522,-66.6666666666667,4,2,1,70,0,0
22545,-200,4,2,1,70,0,0
22569,-100,4,2,3,70,0,0
23694,-90.9090909090909,4,2,3,70,0,0
23740,-111.111111111111,4,2,3,70,0,0
23787,-90.9090909090909,4,2,3,70,0,0
23834,-111.111111111111,4,2,3,70,0,0
23881,-90.9090909090909,4,2,3,70,0,0
23928,-111.111111111111,4,2,3,70,0,0
23975,-90.9090909090909,4,2,3,70,0,0
24022,-111.111111111111,4,2,3,70,0,0
24069,-100,4,2,1,70,0,0
24256,-66.6666666666667,4,2,1,70,0,0
24279,-200,4,2,1,70,0,0
24303,-66.6666666666667,4,2,1,70,0,0
24326,-200,4,2,1,70,0,0
24350,-66.6666666666667,4,2,1,70,0,0
24373,-200,4,2,1,70,0,0
24397,-66.6666666666667,4,2,1,70,0,0
24420,-200,4,2,1,70,0,0
24444,-100,4,2,1,70,0,0
24631,-76.9230769230769,4,2,1,70,0,0
24678,-142.857142857143,4,2,1,70,0,0
24725,-76.9230769230769,4,2,1,70,0,0
24772,-142.857142857143,4,2,1,70,0,0
24819,-100,4,2,1,70,0,0
25006,-1000,4,2,1,70,0,0
25029,-52.6315789473684,4,2,1,70,0,0
25053,-1000,4,2,1,70,0,0
25076,-52.6315789473684,4,2,1,70,0,0
25100,-1000,4,2,1,70,0,0
25123,-52.6315789473684,4,2,1,70,0,0
25147,-1000,4,2,1,70,0,0
25170,-52.6315789473684,4,2,1,70,0,0
25194,-100,4,2,1,70,0,0
25381,-66.6666666666667,4,2,1,70,0,0
25404,-200,4,2,1,70,0,0
25428,-66.6666666666667,4,2,1,70,0,0
25451,-200,4,2,1,70,0,0
25475,-66.6666666666667,4,2,1,70,0,0
25498,-200,4,2,1,70,0,0
25522,-66.6666666666667,4,2,1,70,0,0
25545,-200,4,2,1,70,0,0
25569,-100,4,2,1,70,0,0
25756,-76.9230769230769,4,2,1,70,0,0
25803,-142.857142857143,4,2,1,70,0,0
25850,-76.9230769230769,4,2,1,70,0,0
25897,-142.857142857143,4,2,1,70,0,0
25944,-100,4,2,1,70,0,0
26131,-52.6315789473684,4,2,1,70,0,0
26178,-1000,4,2,1,70,0,0
26225,-100,4,2,1,70,0,0
27256,-66.6666666666667,4,2,1,70,0,0
27279,-200,4,2,1,70,0,0
27303,-66.6666666666667,4,2,1,70,0,0
27326,-200,4,2,1,70,0,0
27350,-66.6666666666667,4,2,1,70,0,0
27373,-200,4,2,1,70,0,0
27397,-66.6666666666667,4,2,1,70,0,0
27420,-200,4,2,1,70,0,0
27444,-100,4,2,1,70,0,0
27631,-1000,4,2,1,70,0,0
27654,-52.6315789473684,4,2,1,70,0,0
27678,-1000,4,2,1,70,0,0
27701,-52.6315789473684,4,2,1,70,0,0
27725,-1000,4,2,1,70,0,0
27748,-52.6315789473684,4,2,1,70,0,0
27772,-1000,4,2,1,70,0,0
27795,-52.6315789473684,4,2,1,70,0,0
27819,-100,4,2,1,70,0,0
28006,-76.9230769230769,4,2,1,70,0,0
28053,-142.857142857143,4,2,1,70,0,0
28100,-76.9230769230769,4,2,1,70,0,0
28147,-142.857142857143,4,2,1,70,0,0
28194,-100,4,2,1,70,0,0
28381,-66.6666666666667,4,2,1,70,0,0
28404,-200,4,2,1,70,0,0
28428,-66.6666666666667,4,2,1,70,0,0
28451,-200,4,2,1,70,0,0
28475,-66.6666666666667,4,2,1,70,0,0
28498,-200,4,2,1,70,0,0
28522,-66.6666666666667,4,2,1,70,0,0
28545,-200,4,2,1,70,0,0
28569,-100,4,2,1,70,0,0
30256,-66.6666666666667,4,2,1,70,0,0
30279,-200,4,2,1,70,0,0
30303,-66.6666666666667,4,2,1,70,0,0
30326,-200,4,2,1,70,0,0
30350,-66.6666666666667,4,2,1,70,0,0
30373,-200,4,2,1,70,0,0
30397,-66.6666666666667,4,2,1,70,0,0
30420,-200,4,2,1,70,0,0
30444,-100,4,2,1,70,0,0
30631,-76.9230769230769,4,2,1,70,0,0
30678,-142.857142857143,4,2,1,70,0,0
30725,-76.9230769230769,4,2,1,70,0,0
30772,-142.857142857143,4,2,1,70,0,0
30819,-100,4,2,1,70,0,0
31006,-1000.00000000001,4,2,1,70,0,0
31029,-52.6315789473684,4,2,1,70,0,0
31053,-1000.00000000001,4,2,1,70,0,0
31076,-52.6315789473684,4,2,1,70,0,0
31100,-1000.00000000001,4,2,1,70,0,0
31123,-52.6315789473684,4,2,1,70,0,0
31147,-1000.00000000001,4,2,1,70,0,0
31170,-52.6315789473684,4,2,1,70,0,0
31194,-100,4,2,1,70,0,0
31381,-66.6666666666667,4,2,1,70,0,0
31404,-200,4,2,1,70,0,0
31428,-66.6666666666667,4,2,1,70,0,0
31451,-200,4,2,1,70,0,0
31475,-66.6666666666667,4,2,1,70,0,0
31498,-200,4,2,1,70,0,0
31522,-66.6666666666667,4,2,1,70,0,0
31545,-200,4,2,1,70,0,0
31569,-100,4,2,1,70,0,0
31756,-76.9230769230769,4,2,1,70,0,0
31803,-142.857142857143,4,2,1,70,0,0
31850,-76.9230769230769,4,2,1,70,0,0
31897,-142.857142857143,4,2,1,70,0,0
31944,-100,4,2,1,70,0,0
32131,-52.6315789473684,4,2,1,70,0,0
32178,-1000,4,2,1,70,0,0
32225,-100,4,2,1,70,0,0
33256,-66.6666666666667,4,2,1,70,0,0
33279,-200,4,2,1,70,0,0
33303,-66.6666666666667,4,2,1,70,0,0
33326,-200,4,2,1,70,0,0
33350,-66.6666666666667,4,2,1,70,0,0
33373,-200,4,2,1,70,0,0
33397,-66.6666666666667,4,2,1,70,0,0
33420,-200,4,2,1,70,0,0
33444,-100,4,2,1,70,0,0
33631,-1000,4,2,1,70,0,0
33654,-52.6315789473684,4,2,1,70,0,0
33678,-1000,4,2,1,70,0,0
33701,-52.6315789473684,4,2,1,70,0,0
33725,-1000,4,2,1,70,0,0
33748,-52.6315789473684,4,2,1,70,0,0
33772,-1000,4,2,1,70,0,0
33795,-52.6315789473684,4,2,1,70,0,0
33819,-100,4,2,1,70,0,0
34006,-76.9230769230769,4,2,1,70,0,0
34053,-142.857142857143,4,2,1,70,0,0
34100,-76.9230769230769,4,2,1,70,0,0
34147,-142.857142857143,4,2,1,70,0,0
34194,-100,4,2,1,70,0,0
34381,-66.6666666666667,4,2,1,70,0,0
34404,-200,4,2,1,70,0,0
34428,-66.6666666666667,4,2,1,70,0,0
34451,-200,4,2,1,70,0,0
34475,-66.6666666666667,4,2,1,70,0,0
34498,-200,4,2,1,70,0,0
34522,-66.6666666666667,4,2,1,70,0,0
34545,-200,4,2,1,70,0,0
34569,-100,4,2,1,70,0,0
34756,-66.6666666666667,4,2,1,70,0,0
34779,-200,4,2,1,70,0,0
34803,-66.6666666666667,4,2,1,70,0,0
34826,-200,4,2,1,70,0,0
34850,-100,4,2,1,70,0,0
35131,-66.6666666666667,4,2,1,70,0,0
35154,-200,4,2,1,70,0,0
35178,-66.6666666666667,4,2,1,70,0,0
35201,-200,4,2,1,70,0,0
35225,-100,4,2,1,70,0,0
35506,-66.6666666666667,4,2,1,70,0,0
35529,-200,4,2,1,70,0,0
35553,-66.6666666666667,4,2,1,70,0,0
35576,-200,4,2,1,70,0,0
35600,-100,4,2,1,70,0,0
35881,-66.6666666666667,4,2,1,70,0,0
35904,-200,4,2,1,70,0,0
35928,-66.6666666666667,4,2,1,70,0,0
35951,-200,4,2,1,70,0,0
35975,-100,4,2,1,70,0,0
36069,-100,4,2,3,70,0,0
42069,-80,4,2,3,70,0,0
42162,-133.333333333333,4,2,3,70,0,0
42256,-100,4,2,3,70,0,0
44319,-111.111111111111,4,2,3,70,0,0
44365,-90.9090909090909,4,2,3,70,0,0
44412,-111.111111111111,4,2,3,70,0,0
44459,-90.9090909090909,4,2,3,70,0,0
44506,-111.111111111111,4,2,3,70,0,0
44553,-90.9090909090909,4,2,3,70,0,0
44600,-111.111111111111,4,2,3,70,0,0
44647,-90.9090909090909,4,2,3,70,0,0
44694,-111.111111111111,4,2,3,70,0,0
44740,-90.9090909090909,4,2,3,70,0,0
44787,-111.111111111111,4,2,3,70,0,0
44834,-90.9090909090909,4,2,3,70,0,0
44881,-111.111111111111,4,2,3,70,0,0
44928,-90.9090909090909,4,2,3,70,0,0
44975,-111.111111111111,4,2,3,70,0,0
45022,-90.9090909090909,4,2,3,70,0,0
45069,-80,4,2,3,70,0,0
45162,-133.333333333333,4,2,3,70,0,0
45256,-100,4,2,3,70,0,0
48069,-80,4,2,3,70,0,0
48162,-133.333333333333,4,2,3,70,0,0
48256,-100,4,2,3,70,0,0
50319,-111.111111111111,4,2,3,70,0,0
50365,-90.9090909090909,4,2,3,70,0,0
50412,-111.111111111111,4,2,3,70,0,0
50459,-90.9090909090909,4,2,3,70,0,0
50506,-111.111111111111,4,2,3,70,0,0
50553,-90.9090909090909,4,2,3,70,0,0
50600,-111.111111111111,4,2,3,70,0,0
50647,-90.9090909090909,4,2,3,70,0,0
50694,-111.111111111111,4,2,3,70,0,0
50740,-90.9090909090909,4,2,3,70,0,0
50787,-111.111111111111,4,2,3,70,0,0
50834,-90.9090909090909,4,2,3,70,0,0
50881,-111.111111111111,4,2,3,70,0,0
50928,-90.9090909090909,4,2,3,70,0,0
50975,-111.111111111111,4,2,3,70,0,0
51022,-90.9090909090909,4,2,3,70,0,0
51069,-80,4,2,3,70,0,0
51115,-133.333333333333,4,2,3,70,0,0
51162,-100,4,2,3,70,0,0
54069,-80,4,2,3,70,0,0
54162,-133.333333333333,4,2,3,70,0,0
54256,-100,4,2,3,70,0,0
57069,-80,4,2,3,70,0,0
57162,-133.333333333333,4,2,3,70,0,0
57256,-100,4,2,3,70,0,0
60069,-80,4,2,3,70,0,0
60162,-133.333333333333,4,2,3,70,0,0
60256,-100,4,2,3,70,0,0
63069,-80,4,2,3,70,0,0
63162,-133.333333333333,4,2,3,70,0,0
63256,-100,4,2,3,70,0,0
64569,-80,4,2,3,70,0,0
64615,-133.333333333333,4,2,3,70,0,0
64662,-100,4,2,3,70,0,0
64850,-80,4,2,3,70,0,0
64897,-133.333333333333,4,2,3,70,0,0
64944,-100,4,2,3,70,0,0
65131,-80,4,2,3,70,0,0
65178,-133.333333333333,4,2,3,70,0,0
65225,-100,4,2,3,70,0,0
65319,-80,4,2,3,70,0,0
65365,-133.333333333333,4,2,3,70,0,0
65412,-100,4,2,3,70,0,0
65600,-80,4,2,3,70,0,0
65647,-133.333333333333,4,2,3,70,0,0
65694,-100,4,2,3,70,0,0
65881,-80,4,2,3,70,0,0
65928,-133.333333333333,4,2,3,70,0,0
65975,-100,4,2,3,70,0,0
66069,-80,4,2,3,70,0,0
66115,-133.333333333333,4,2,3,70,0,0
66162,-100,4,2,3,70,0,0
69069,-80,4,2,3,70,0,0
69115,-133.333333333333,4,2,3,70,0,0
69162,-100,4,2,3,70,0,0
72069,-80,4,2,3,70,0,0
72115,-133.333333333333,4,2,3,70,0,0
72162,-100,4,2,3,70,0,0
75069,-80,4,2,3,70,0,0
75115,-133.333333333333,4,2,3,70,0,0
75162,-100,4,2,3,70,0,0
76569,-80,4,2,3,70,0,0
76615,-133.333333333333,4,2,3,70,0,0
76662,-100,4,2,3,70,0,0
76850,-80,4,2,3,70,0,0
76897,-133.333333333333,4,2,3,70,0,0
76944,-100,4,2,3,70,0,0
77131,-80,4,2,3,70,0,0
77178,-133.333333333333,4,2,3,70,0,0
77225,-100,4,2,3,70,0,0
77319,-80,4,2,3,70,0,0
77365,-133.333333333333,4,2,3,70,0,0
77412,-100,4,2,3,70,0,0
77600,-80,4,2,3,70,0,0
77647,-133.333333333333,4,2,3,70,0,0
77694,-100,4,2,3,70,0,0
77881,-80,4,2,3,70,0,0
77928,-133.333333333333,4,2,3,70,0,0
77975,-100,4,2,3,70,0,0
78069,-100,4,2,1,70,0,0
96069,-100,4,2,3,70,0,0
103569,-41.6666666666667,4,2,1,70,0,1
103615,-125,4,2,1,70,0,1
103944,-100,4,2,1,70,0,1
109569,-41.6666666666667,4,2,1,70,0,1
109615,-125,4,2,1,70,0,1
109944,-100,4,2,1,70,0,1
115569,-41.6666666666667,4,2,1,70,0,1
115615,-125,4,2,1,70,0,1
115944,-100,4,2,1,70,0,1
126069,-100,4,2,1,70,0,0
127569,-31.25,4,2,1,70,0,1
127615,-125,4,2,1,70,0,1
128131,-100,4,2,1,70,0,0

[HitObjects]
448,192,69,5,0,0:0:0:0:
192,192,69,1,2,0:0:0:0:
320,192,162,1,0,0:0:0:0:
64,192,256,1,0,0:0:0:0:
192,192,444,1,2,0:0:0:0:
320,192,444,1,0,0:0:0:0:
448,192,537,1,0,0:0:0:0:
64,192,631,1,0,0:0:0:0:
320,192,725,1,0,0:0:0:0:
192,192,819,1,2,0:0:0:0:
448,192,819,128,0,1006:0:0:0:0:
64,192,1006,1,0,0:0:0:0:
320,192,1100,1,0,0:0:0:0:
192,192,1194,1,0,0:0:0:0:
64,192,1194,1,2,0:0:0:0:
448,192,1287,1,0,0:0:0:0:
192,192,1381,1,0,0:0:0:0:
448,192,1475,1,0,0:0:0:0:
64,192,1569,1,2,0:0:0:0:
320,192,1569,1,0,0:0:0:0:
192,192,1662,1,0,0:0:0:0:
448,192,1756,1,0,0:0:0:0:
320,192,1850,1,0,0:0:0:0:
192,192,1944,1,0,0:0:0:0:
64,192,1944,1,2,0:0:0:0:
448,192,2037,1,0,0:0:0:0:
64,192,2131,1,0,0:0:0:0:
448,192,2225,1,0,0:0:0:0:
320,192,2319,1,0,0:0:0:0:
192,192,2319,1,2,0:0:0:0:
64,192,2412,1,0,0:0:0:0:
448,192,2506,1,0,0:0:0:0:
192,192,2600,1,0,0:0:0:0:
320,192,2694,1,2,0:0:0:0:
448,192,2694,1,0,0:0:0:0:
64,192,2787,1,0,0:0:0:0:
192,192,2881,1,0,0:0:0:0:
320,192,2975,1,0,0:0:0:0:
448,192,3069,1,0,0:0:0:0:
64,192,3069,1,2,0:0:0:0:
192,192,3162,1,0,0:0:0:0:
320,192,3256,1,0,0:0:0:0:
192,192,3444,1,0,0:0:0:0:
64,192,3444,1,2,0:0:0:0:
448,192,3537,1,0,0:0:0:0:
64,192,3631,1,0,0:0:0:0:
320,192,3725,1,0,0:0:0:0:
192,192,3819,1,2,0:0:0:0:
448,192,3819,128,0,4006:0:0:0:0:
320,192,4006,1,0,0:0:0:0:
64,192,4100,1,0,0:0:0:0:
320,192,4194,1,0,0:0:0:0:
192,192,4194,1,2,0:0:0:0:
448,192,4287,1,0,0:0:0:0:
192,192,4381,1,0,0:0:0:0:
448,192,4475,1,0,0:0:0:0:
320,192,4569,1,0,0:0:0:0:
64,192,4569,1,2,0:0:0:0:
192,192,4662,1,0,0:0:0:0:
320,192,4756,1,0,0:0:0:0:
448,192,4850,1,0,0:0:0:0:
192,192,4944,1,0,0:0:0:0:
64,192,4944,1,2,0:0:0:0:
320,192,5037,1,0,0:0:0:0:
448,192,5131,1,0,0:0:0:0:
64,192,5225,1,0,0:0:0:0:
192,192,5319,1,2,0:0:0:0:
448,192,5319,1,0,0:0:0:0:
320,192,5412,1,0,0:0:0:0:
192,192,5506,1,0,0:0:0:0:
64,192,5506,1,0,0:0:0:0:
448,192,5600,1,0,0:0:0:0:
320,192,5694,1,0,0:0:0:0:
64,192,5694,1,2,0:0:0:0:
192,192,5787,1,0,0:0:0:0:
320,192,5881,1,0,0:0:0:0:
448,192,5881,1,0,0:0:0:0:
64,192,5975,1,0,0:0:0:0:
192,192,6069,1,2,0:0:0:0:
320,192,6069,1,0,0:0:0:0:
448,192,6162,1,0,0:0:0:0:
64,192,6256,1,0,0:0:0:0:
320,192,6444,1,2,0:0:0:0:
448,192,6444,1,0,0:0:0:0:
64,192,6537,1,0,0:0:0:0:
192,192,6631,1,0,0:0:0:0:
448,192,6725,1,0,0:0:0:0:
64,192,6819,1,2,0:0:0:0:
320,192,6819,128,0,7006:0:0:0:0:
192,192,7006,1,0,0:0:0:0:
448,192,7100,1,0,0:0:0:0:
64,192,7194,1,2,0:0:0:0:
192,192,7194,1,0,0:0:0:0:
320,192,7287,1,0,0:0:0:0:
64,192,7381,1,0,0:0:0:0:
320,192,7475,1,0,0:0:0:0:
448,192,7569,1,0,0:0:0:0:
192,192,7569,1,2,0:0:0:0:
320,192,7662,1,0,0:0:0:0:
64,192,7756,1,0,0:0:0:0:
192,192,7850,1,0,0:0:0:0:
320,192,7944,1,2,0:0:0:0:
448,192,7944,1,0,0:0:0:0:
64,192,8037,1,0,0:0:0:0:
448,192,8131,1,0,0:0:0:0:
192,192,8131,1,0,0:0:0:0:
320,192,8225,1,0,0:0:0:0:
448,192,8319,1,0,0:0:0:0:
64,192,8319,1,2,0:0:0:0:
192,192,8412,1,0,0:0:0:0:
320,192,8506,1,0,0:0:0:0:
64,192,8506,1,0,0:0:0:0:
448,192,8600,1,0,0:0:0:0:
192,192,8694,1,0,0:0:0:0:
64,192,8694,1,2,0:0:0:0:
320,192,8787,1,0,0:0:0:0:
192,192,8881,1,0,0:0:0:0:
448,192,8881,1,0,0:0:0:0:
64,192,8975,1,0,0:0:0:0:
448,192,9069,1,0,0:0:0:0:
320,192,9069,1,2,0:0:0:0:
192,192,9162,1,0,0:0:0:0:
64,192,9162,1,0,0:0:0:0:
320,192,9256,1,0,0:0:0:0:
448,192,9256,1,0,0:0:0:0:
192,192,9350,1,0,0:0:0:0:
64,192,9350,1,0,0:0:0:0:
320,192,9444,1,2,0:0:0:0:
448,192,9444,1,0,0:0:0:0:
64,192,9537,1,0,0:0:0:0:
192,192,9537,1,0,0:0:0:0:
320,192,9631,1,0,0:0:0:0:
448,192,9631,1,0,0:0:0:0:
64,192,9725,1,0,0:0:0:0:
192,192,9725,1,0,0:0:0:0:
320,192,9819,1,2,0:0:0:0:
448,192,9819,1,0,0:0:0:0:
192,192,9912,1,0,0:0:0:0:
64,192,9912,1,0,0:0:0:0:
320,192,10006,1,0,0:0:0:0:
448,192,10006,1,0,0:0:0:0:
192,192,10100,1,0,0:0:0:0:
64,192,10100,1,0,0:0:0:0:
320,192,10194,1,2,0:0:0:0:
448,192,10194,1,0,0:0:0:0:
64,192,10287,1,0,0:0:0:0:
192,192,10287,1,0,0:0:0:0:
320,192,10381,1,0,0:0:0:0:
448,192,10381,1,0,0:0:0:0:
192,192,10475,1,0,0:0:0:0:
64,192,10475,1,0,0:0:0:0:
448,192,10569,128,0,11694:0:0:0:0:
320,192,10569,1,0,0:0:0:0:
320,192,10756,1,0,0:0:0:0:
320,192,10944,1,0,0:0:0:0:
320,192,11131,1,0,0:0:0:0:
192,192,11319,128,0,11506:0:0:0:0:
64,192,11506,1,0,0:0:0:0:
64,192,11694,1,0,0:0:0:100:clapp.wav
192,192,11694,1,0,0:0:0:100:clapp.wav
192,192,12069,1,2,0:0:0:0:
448,192,12069,1,0,0:0:0:0:
320,192,12162,1,0,0:0:0:0:
64,192,12256,1,0,0:0:0:0:
448,192,12350,1,0,0:0:0:0:
320,192,12444,1,8,0:0:0:0:
192,192,12444,1,0,0:0:0:0:
64,192,12444,1,2,0:0:0:0:
448,192,12537,1,0,0:0:0:0:
64,192,12631,1,0,0:0:0:0:
320,192,12725,1,0,0:0:0:0:
192,192,12819,1,0,0:0:0:0:
64,192,12819,1,2,0:0:0:0:
448,192,12912,1,0,0:0:0:0:
320,192,13006,1,0,0:0:0:0:
192,192,13100,1,0,0:0:0:0:
320,192,13194,1,0,0:0:0:0:
448,192,13194,1,8,0:0:0:0:
64,192,13194,1,2,0:0:0:0:
192,192,13287,1,0,0:0:0:0:
448,192,13381,1,0,0:0:0:0:
192,192,13475,1,0,0:0:0:0:
64,192,13569,1,2,0:0:0:0:
320,192,13569,1,0,0:0:0:0:
192,192,13662,1,0,0:0:0:0:
448,192,13756,1,0,0:0:0:0:
320,192,13850,1,0,0:0:0:0:
448,192,13944,1,8,0:0:0:0:
192,192,13944,1,0,0:0:0:0:
64,192,13944,1,2,0:0:0:0:
320,192,14037,1,0,0:0:0:0:
64,192,14131,1,0,0:0:0:0:
448,192,14225,1,0,0:0:0:0:
320,192,14319,1,0,0:0:0:0:
192,192,14319,1,2,0:0:0:0:
64,192,14412,1,0,0:0:0:0:
448,192,14506,1,0,0:0:0:0:
192,192,14600,1,0,0:0:0:0:
320,192,14694,1,0,0:0:0:0:
448,192,14694,1,8,0:0:0:0:
64,192,14694,1,2,0:0:0:0:
192,192,14787,1,0,0:0:0:0:
448,192,14881,1,0,0:0:0:0:
320,192,14975,1,0,0:0:0:0:
192,192,15069,1,0,0:0:0:0:
64,192,15069,1,2,0:0:0:0:
448,192,15162,1,0,0:0:0:0:
64,192,15256,1,0,0:0:0:0:
320,192,15350,1,0,0:0:0:0:
448,192,15444,1,8,0:0:0:0:
192,192,15444,1,0,0:0:0:0:
64,192,15444,1,2,0:0:0:0:
320,192,15537,1,0,0:0:0:0:
448,192,15631,1,0,0:0:0:0:
192,192,15725,1,0,0:0:0:0:
64,192,15819,1,2,0:0:0:0:
320,192,15819,1,0,0:0:0:0:
448,192,15912,1,0,0:0:0:0:
192,192,16006,1,0,0:0:0:0:
320,192,16100,1,0,0:0:0:0:
64,192,16194,1,2,0:0:0:0:
192,192,16194,1,0,0:0:0:0:
448,192,16194,1,8,0:0:0:0:
320,192,16287,1,0,0:0:0:0:
64,192,16381,1,0,0:0:0:0:
320,192,16475,1,0,0:0:0:0:
192,192,16569,1,2,0:0:0:0:
448,192,16569,1,0,0:0:0:0:
64,192,16662,1,0,0:0:0:0:
320,192,16756,128,0,16803:0:0:0:0:
448,192,16850,1,0,0:0:0:0:
192,192,16944,1,0,0:0:0:0:
320,192,16944,1,8,0:0:0:0:
64,192,16944,1,2,0:0:0:0:
448,192,17037,1,0,0:0:0:0:
192,192,17131,128,0,17178:0:0:0:0:
64,192,17225,1,0,0:0:0:0:
320,192,17319,1,2,0:0:0:0:
448,192,17319,1,0,0:0:0:0:
192,192,17412,1,0,0:0:0:0:
448,192,17506,128,0,17553:0:0:0:0:
320,192,17600,1,0,0:0:0:0:
64,192,17694,1,2,0:0:0:0:
192,192,17694,1,0,0:0:0:0:
448,192,17694,1,8,0:0:0:0:
320,192,17787,1,0,0:0:0:0:
64,192,17881,128,0,17928:0:0:0:0:
192,192,17975,1,0,0:0:0:0:
320,192,18069,1,0,0:0:0:0:
64,192,18069,1,2,0:0:0:0:
448,192,18162,1,0,0:0:0:0:
192,192,18256,1,0,0:0:0:0:
64,192,18350,1,0,0:0:0:0:
448,192,18444,1,8,0:0:0:0:
320,192,18444,1,0,0:0:0:0:
192,192,18444,1,2,0:0:0:0:
64,192,18537,1,0,0:0:0:0:
448,192,18631,1,0,0:0:0:0:
192,192,18725,1,0,0:0:0:0:
448,192,18819,1,0,0:0:0:0:
64,192,18819,1,2,0:0:0:0:
320,192,18912,1,0,0:0:0:0:
192,192,19006,1,0,0:0:0:0:
64,192,19100,1,0,0:0:0:0:
192,192,19194,1,2,0:0:0:0:
320,192,19194,1,0,0:0:0:0:
448,192,19194,1,8,0:0:0:0:
64,192,19287,1,0,0:0:0:0:
320,192,19381,1,0,0:0:0:0:
64,192,19475,1,0,0:0:0:0:
192,192,19569,1,2,0:0:0:0:
448,192,19569,1,0,0:0:0:0:
320,192,19662,1,0,0:0:0:0:
64,192,19756,1,0,0:0:0:0:
448,192,19850,1,0,0:0:0:0:
320,192,19944,1,8,0:0:0:0:
192,192,19944,1,0,0:0:0:0:
64,192,19944,1,2,0:0:0:0:
448,192,20037,1,0,0:0:0:0:
64,192,20131,1,0,0:0:0:0:
192,192,20225,1,0,0:0:0:0:
64,192,20319,1,2,0:0:0:0:
448,192,20319,1,0,0:0:0:0:
320,192,20412,1,0,0:0:0:0:
448,192,20506,1,0,0:0:0:0:
192,192,20600,1,0,0:0:0:0:
320,192,20694,1,0,0:0:0:0:
448,192,20694,1,8,0:0:0:0:
64,192,20694,1,2,0:0:0:0:
192,192,20787,1,0,0:0:0:0:
320,192,20881,1,0,0:0:0:0:
64,192,20975,1,0,0:0:0:0:
320,192,21069,1,0,0:0:0:0:
192,192,21069,1,2,0:0:0:0:
448,192,21162,1,0,0:0:0:0:
64,192,21162,1,0,0:0:0:0:
192,192,21256,1,0,0:0:0:0:
320,192,21256,1,0,0:0:0:0:
448,192,21350,1,0,0:0:0:0:
64,192,21350,1,0,0:0:0:0:
192,192,21444,1,2,0:0:0:0:
320,192,21444,1,8,0:0:0:0:
448,192,21537,1,0,0:0:0:0:
64,192,21537,1,0,0:0:0:0:
192,192,21631,1,0,0:0:0:0:
320,192,21631,1,0,0:0:0:0:
64,192,21725,1,0,0:0:0:0:
448,192,21725,1,0,0:0:0:0:
320,192,21819,1,0,0:0:0:0:
192,192,21819,1,2,0:0:0:0:
448,192,21912,1,0,0:0:0:0:
64,192,21912,1,0,0:0:0:0:
192,192,22006,1,0,0:0:0:0:
320,192,22006,1,0,0:0:0:0:
448,192,22100,1,0,0:0:0:0:
64,192,22100,1,0,0:0:0:0:
192,192,22194,1,2,0:0:0:0:
320,192,22194,1,8,0:0:0:0:
448,192,22287,1,0,0:0:0:0:
64,192,22287,1,0,0:0:0:0:
192,192,22381,1,0,0:0:0:0:
320,192,22381,1,0,0:0:0:0:
64,192,22475,1,0,0:0:0:0:
320,192,22569,128,0,23131:0:0:0:0:
448,192,22662,1,8,0:0:0:0:
64,192,22756,1,0,0:0:0:0:
448,192,22850,1,8,0:0:0:0:
64,192,22944,1,0,0:0:0:0:
192,192,23037,1,8,0:0:0:0:
448,192,23131,1,0,0:0:0:0:
64,192,23225,1,8,0:0:0:0:
320,192,23319,1,0,0:0:0:0:
192,192,23412,1,8,0:0:0:0:
448,192,23506,1,0,0:0:0:0:
320,192,23600,1,8,0:0:0:0:
64,192,23694,1,8,0:0:0:0:
192,192,23787,1,8,0:0:0:0:
64,192,23881,1,8,0:0:0:0:
192,192,23975,1,8,0:0:0:0:
320,192,24069,1,0,0:0:0:0:
64,192,24069,1,2,0:0:0:0:
448,192,24069,1,4,0:0:0:0:
192,192,24162,1,0,0:0:0:0:
448,192,24256,1,0,0:0:0:0:
320,192,24350,1,0,0:0:0:0:
448,192,24444,1,8,0:0:0:0:
192,192,24444,1,0,0:0:0:0:
64,192,24444,1,2,0:0:0:0:
320,192,24537,1,0,0:0:0:0:
64,192,24631,1,0,0:0:0:0:
320,192,24725,1,0,0:0:0:0:
192,192,24819,1,2,0:0:0:0:
448,192,24819,1,0,0:0:0:0:
64,192,24912,1,0,0:0:0:0:
192,192,25006,1,0,0:0:0:0:
320,192,25100,1,0,0:0:0:0:
192,192,25194,1,0,0:0:0:0:
64,192,25194,1,2,0:0:0:0:
448,192,25194,1,8,0:0:0:0:
320,192,25287,1,0,0:0:0:0:
448,192,25381,1,0,0:0:0:0:
192,192,25475,1,0,0:0:0:0:
320,192,25569,1,0,0:0:0:0:
64,192,25569,1,2,0:0:0:0:
192,192,25662,1,0,0:0:0:0:
448,192,25756,1,0,0:0:0:0:
320,192,25850,1,0,0:0:0:0:
64,192,25944,1,2,0:0:0:0:
192,192,25944,1,0,0:0:0:0:
448,192,25944,1,8,0:0:0:0:
320,192,26037,1,0,0:0:0:0:
64,192,26131,1,0,0:0:0:0:
192,192,26225,1,0,0:0:0:0:
320,192,26319,1,2,0:0:0:0:
448,192,26319,1,0,0:0:0:0:
64,192,26412,1,0,0:0:0:0:
448,192,26506,1,0,0:0:0:0:
192,192,26600,1,0,0:0:0:0:
64,192,26694,1,2,0:0:0:0:
448,192,26694,1,8,0:0:0:0:
320,192,26694,1,0,0:0:0:0:
192,192,26787,1,0,0:0:0:0:
448,192,26881,1,0,0:0:0:0:
320,192,26975,1,0,0:0:0:0:
64,192,27069,1,2,0:0:0:0:
192,192,27069,1,0,0:0:0:0:
448,192,27162,1,0,0:0:0:0:
64,192,27256,1,0,0:0:0:0:
448,192,27350,1,0,0:0:0:0:
64,192,27444,1,2,0:0:0:0:
192,192,27444,1,0,0:0:0:0:
320,192,27444,1,8,0:0:0:0:
448,192,27537,1,0,0:0:0:0:
192,192,27631,1,0,0:0:0:0:
320,192,27725,1,0,0:0:0:0:
192,192,27819,1,0,0:0:0:0:
64,192,27819,1,2,0:0:0:0:
448,192,27912,1,0,0:0:0:0:
192,192,28006,1,0,0:0:0:0:
320,192,28100,1,0,0:0:0:0:
448,192,28194,1,8,0:0:0:0:
192,192,28194,1,0,0:0:0:0:
64,192,28194,1,2,0:0:0:0:
320,192,28287,1,0,0:0:0:0:
64,192,28381,1,0,0:0:0:0:
320,192,28475,1,0,0:0:0:0:
448,192,28569,1,0,0:0:0:0:
192,192,28569,1,2,0:0:0:0:
64,192,28662,1,0,0:0:0:0:
448,192,28756,128,0,28803:0:0:0:0:
320,192,28850,1,0,0:0:0:0:
64,192,28944,1,2,0:0:0:0:
448,192,28944,1,8,0:0:0:0:
192,192,28944,1,0,0:0:0:0:
320,192,29037,1,0,0:0:0:0:
64,192,29131,128,0,29178:0:0:0:0:
192,192,29225,1,0,0:0:0:0:
448,192,29319,1,0,0:0:0:0:
320,192,29319,1,2,0:0:0:0:
192,192,29412,1,0,0:0:0:0:
320,192,29506,128,0,29553:0:0:0:0:
448,192,29600,1,0,0:0:0:0:
320,192,29694,1,8,0:0:0:0:
192,192,29694,1,0,0:0:0:0:
64,192,29694,1,2,0:0:0:0:
448,192,29787,1,0,0:0:0:0:
192,192,29881,128,0,29928:0:0:0:0:
64,192,29975,1,0,0:0:0:0:
320,192,30069,1,2,0:0:0:0:
448,192,30069,1,0,0:0:0:0:
64,192,30162,1,0,0:0:0:0:
320,192,30256,1,0,0:0:0:0:
192,192,30350,1,0,0:0:0:0:
64,192,30444,1,2,0:0:0:0:
320,192,30444,1,0,0:0:0:0:
448,192,30444,1,8,0:0:0:0:
192,192,30537,1,0,0:0:0:0:
448,192,30631,1,0,0:0:0:0:
192,192,30725,1,0,0:0:0:0:
64,192,30819,1,2,0:0:0:0:
448,192,30819,1,0,0:0:0:0:
320,192,30912,1,0,0:0:0:0:
192,192,31006,1,0,0:0:0:0:
64,192,31100,1,0,0:0:0:0:
448,192,31194,1,8,0:0:0:0:
320,192,31194,1,0,0:0:0:0:
192,192,31194,1,2,0:0:0:0:
64,192,31287,1,0,0:0:0:0:
320,192,31381,1,0,0:0:0:0:
192,192,31475,1,0,0:0:0:0:
448,192,31569,1,0,0:0:0:0:
64,192,31569,1,2,0:0:0:0:
320,192,31662,1,0,0:0:0:0:
64,192,31756,1,0,0:0:0:0:
448,192,31850,1,0,0:0:0:0:
64,192,31944,1,2,0:0:0:0:
192,192,31944,1,0,0:0:0:0:
320,192,31944,1,8,0:0:0:0:
448,192,32037,1,0,0:0:0:0:
192,192,32131,1,0,0:0:0:0:
320,192,32225,1,0,0:0:0:0:
448,192,32319,1,0,0:0:0:0:
64,192,32319,1,2,0:0:0:0:
192,192,32412,1,0,0:0:0:0:
448,192,32506,1,0,0:0:0:0:
64,192,32600,1,0,0:0:0:0:
192,192,32694,1,2,0:0:0:0:
448,192,32694,1,8,0:0:0:0:
320,192,32694,1,0,0:0:0:0:
64,192,32787,1,0,0:0:0:0:
320,192,32881,1,0,0:0:0:0:
64,192,32975,1,0,0:0:0:0:
192,192,33069,1,2,0:0:0:0:
448,192,33069,1,0,0:0:0:0:
320,192,33162,1,0,0:0:0:0:
192,192,33256,1,0,0:0:0:0:
64,192,33256,1,0,0:0:0:0:
448,192,33350,1,0,0:0:0:0:
192,192,33444,1,2,0:0:0:0:
320,192,33444,1,8,0:0:0:0:
64,192,33537,1,0,0:0:0:0:
192,192,33631,1,0,0:0:0:0:
448,192,33631,1,0,0:0:0:0:
320,192,33725,1,0,0:0:0:0:
448,192,33819,1,0,0:0:0:0:
64,192,33819,1,2,0:0:0:0:
192,192,33912,1,0,0:0:0:0:
64,192,34006,1,0,0:0:0:0:
320,192,34006,1,0,0:0:0:0:
448,192,34100,1,0,0:0:0:0:
192,192,34194,1,8,0:0:0:0:
64,192,34194,1,2,0:0:0:0:
320,192,34287,1,0,0:0:0:0:
448,192,34381,1,0,0:0:0:0:
64,192,34381,1,0,0:0:0:0:
192,192,34475,1,0,0:0:0:0:
320,192,34569,1,0,0:0:0:0:
448,192,34569,1,0,0:0:0:0:
320,192,34662,1,0,0:0:0:0:
64,192,34756,1,0,0:0:0:0:
192,192,34756,1,0,0:0:0:0:
64,192,34850,1,0,0:0:0:0:
320,192,34944,1,0,0:0:0:0:
448,192,34944,1,0,0:0:0:0:
448,192,35037,1,0,0:0:0:0:
192,192,35131,1,0,0:0:0:0:
64,192,35131,1,0,0:0:0:0:
192,192,35225,1,0,0:0:0:0:
320,192,35319,1,0,0:0:0:0:
448,192,35319,1,0,0:0:0:0:
320,192,35412,1,0,0:0:0:0:
448,192,35412,1,0,0:0:0:0:
192,192,35506,1,0,0:0:0:0:
64,192,35506,1,0,0:0:0:0:
192,192,35600,1,0,0:0:0:0:
64,192,35600,1,0,0:0:0:0:
320,192,35694,1,0,0:0:0:0:
448,192,35694,1,0,0:0:0:0:
448,192,35787,1,0,0:0:0:0:
320,192,35787,1,0,0:0:0:0:
192,192,35881,1,0,0:0:0:0:
64,192,35881,1,0,0:0:0:0:
192,192,35975,1,0,0:0:0:0:
64,192,35975,1,0,0:0:0:0:
448,192,36069,5,0,0:0:0:0:
320,192,36069,1,2,0:0:0:0:
64,192,36256,1,2,0:0:0:0:
320,192,36256,1,0,0:0:0:0:
192,192,36444,1,0,0:0:0:0:
448,192,36444,1,8,0:0:0:0:
320,192,36537,1,0,0:0:0:0:
64,192,36631,1,0,0:0:0:0:
320,192,36725,1,8,0:0:0:0:
448,192,36819,1,0,0:0:0:0:
192,192,36912,1,8,0:0:0:0:
64,192,37006,1,2,0:0:0:0:
320,192,37006,1,0,0:0:0:0:
320,192,37194,1,0,0:0:0:0:
448,192,37194,1,8,0:0:0:0:
192,192,37381,1,0,0:0:0:0:
448,192,37569,1,0,0:0:0:0:
64,192,37569,1,2,0:0:0:0:
64,192,37756,1,2,0:0:0:0:
320,192,37756,1,0,0:0:0:0:
448,192,37944,1,8,0:0:0:0:
320,192,37944,1,0,0:0:0:0:
64,192,38037,1,0,0:0:0:0:
192,192,38131,1,0,0:0:0:0:
448,192,38225,1,8,0:0:0:0:
64,192,38319,1,0,0:0:0:0:
448,192,38412,1,8,0:0:0:0:
192,192,38506,1,2,0:0:0:0:
320,192,38506,1,0,0:0:0:0:
448,192,38694,1,8,0:0:0:0:
192,192,38694,1,0,0:0:0:0:
64,192,38787,1,0,0:0:0:0:
320,192,38787,1,8,0:0:0:0:
192,192,38881,1,0,0:0:0:0:
320,192,38975,1,0,0:0:0:0:
448,192,38975,1,8,0:0:0:0:
64,192,39069,1,2,0:0:0:0:
192,192,39115,1,0,0:0:0:0:
448,192,39162,1,0,0:0:0:0:
320,192,39209,1,0,0:0:0:0:
64,192,39256,1,0,0:0:0:0:
192,192,39303,1,0,0:0:0:0:
448,192,39350,1,0,0:0:0:0:
320,192,39397,1,0,0:0:0:0:
64,192,39444,1,8,0:0:0:0:
192,192,39490,1,0,0:0:0:0:
448,192,39537,1,0,0:0:0:0:
320,192,39584,1,0,0:0:0:0:
64,192,39631,1,0,0:0:0:0:
192,192,39678,1,0,0:0:0:0:
448,192,39725,1,0,0:0:0:0:
320,192,39772,1,0,0:0:0:0:
64,192,39819,1,0,0:0:0:0:
192,192,39865,1,0,0:0:0:0:
448,192,39912,1,0,0:0:0:0:
320,192,39959,1,0,0:0:0:0:
64,192,40006,1,2,0:0:0:0:
192,192,40053,1,0,0:0:0:0:
448,192,40100,1,0,0:0:0:0:
320,192,40147,1,0,0:0:0:0:
64,192,40194,1,8,0:0:0:0:
192,192,40240,1,0,0:0:0:0:
448,192,40287,1,0,0:0:0:0:
320,192,40334,1,0,0:0:0:0:
64,192,40381,1,0,0:0:0:0:
192,192,40428,1,0,0:0:0:0:
448,192,40475,1,0,0:0:0:0:
320,192,40522,1,0,0:0:0:0:
192,192,40569,1,8,0:0:0:0:
64,192,40569,1,0,0:0:0:0:
448,192,40662,1,0,0:0:0:0:
320,192,40756,1,0,0:0:0:0:
64,192,40850,1,0,0:0:0:0:
192,192,40944,1,0,0:0:0:0:
320,192,40944,1,8,0:0:0:0:
448,192,41037,1,0,0:0:0:0:
64,192,41131,1,0,0:0:0:0:
192,192,41225,1,0,0:0:0:0:
320,192,41319,1,0,0:0:0:0:
448,192,41319,1,8,0:0:0:0:
64,192,41412,1,0,0:0:0:0:
192,192,41412,1,8,0:0:0:0:
320,192,41506,1,0,0:0:0:0:
448,192,41600,1,8,0:0:0:0:
64,192,41600,1,0,0:0:0:0:
192,192,41694,1,0,0:0:0:0:
320,192,41787,1,0,0:0:0:0:
448,192,41787,1,8,0:0:0:0:
192,192,41881,1,8,0:0:0:0:
64,192,41881,1,0,0:0:0:0:
448,192,42069,1,2,0:0:0:0:
320,192,42069,128,4,42444:0:0:0:0:
64,192,42069,128,0,42256:0:0:0:0:
448,192,42256,1,0,0:0:0:0:
64,192,42444,1,0,0:0:0:0:
448,192,42631,1,0,0:0:0:0:
64,192,42819,1,0,0:0:0:0:
320,192,43006,1,0,0:0:0:0:
64,192,43100,1,0,0:0:0:0:
320,192,43381,1,0,0:0:0:0:
448,192,43569,1,0,0:0:0:0:
192,192,43756,1,0,0:0:0:0:
448,192,43944,1,0,0:0:0:0:
64,192,44131,1,0,0:0:0:0:
320,192,44319,128,0,44365:0:0:0:0:
448,192,44412,128,0,44459:0:0:0:0:
64,192,44506,128,0,44553:0:0:0:0:
448,192,44600,128,0,44647:0:0:0:0:
192,192,44694,128,0,44740:0:0:0:0:
320,192,44787,128,0,44834:0:0:0:0:
64,192,44881,128,0,44928:0:0:0:0:
192,192,44975,128,0,45022:0:0:0:0:
448,192,45069,1,2,0:0:0:0:
320,192,45069,128,0,45256:0:0:0:0:
64,192,45069,128,4,45444:0:0:0:0:
448,192,45256,1,0,0:0:0:0:
320,192,45444,1,0,0:0:0:0:
448,192,45631,1,0,0:0:0:0:
192,192,45819,1,0,0:0:0:0:
320,192,46006,1,0,0:0:0:0:
192,192,46100,1,0,0:0:0:0:
320,192,46381,1,0,0:0:0:0:
64,192,46569,1,0,0:0:0:0:
448,192,46662,1,0,0:0:0:0:
320,192,46756,1,0,0:0:0:0:
64,192,46850,1,0,0:0:0:0:
448,192,46944,1,0,0:0:0:0:
320,192,47037,1,0,0:0:0:0:
64,192,47131,1,0,0:0:0:0:
448,192,47225,1,0,0:0:0:0:
320,192,47319,1,0,0:0:0:0:
192,192,47412,1,0,0:0:0:0:
448,192,47506,1,0,0:0:0:0:
320,192,47600,1,0,0:0:0:0:
192,192,47694,1,0,0:0:0:0:
64,192,47787,1,0,0:0:0:0:
320,192,47881,1,0,0:0:0:0:
448,192,47881,1,0,0:0:0:0:
448,192,48069,1,2,0:0:0:0:
192,192,48069,128,0,48256:0:0:0:0:
64,192,48069,128,4,48444:0:0:0:0:
448,192,48256,1,0,0:0:0:0:
192,192,48444,1,0,0:0:0:0:
448,192,48631,1,0,0:0:0:0:
64,192,48819,1,0,0:0:0:0:
320,192,49006,1,0,0:0:0:0:
64,192,49100,1,0,0:0:0:0:
192,192,49381,1,0,0:0:0:0:
448,192,49569,1,0,0:0:0:0:
64,192,49756,1,0,0:0:0:0:
448,192,49944,1,0,0:0:0:0:
192,192,50131,1,0,0:0:0:0:
64,192,50319,128,0,50365:0:0:0:0:
448,192,50412,128,0,50459:0:0:0:0:
320,192,50506,128,0,50553:0:0:0:0:
448,192,50600,128,0,50647:0:0:0:0:
192,192,50694,128,0,50740:0:0:0:0:
320,192,50787,128,0,50834:0:0:0:0:
64,192,50881,128,0,50928:0:0:0:0:
192,192,50975,128,0,51022:0:0:0:0:
320,192,51069,1,0,0:0:0:0:
448,192,51069,1,4,0:0:0:0:
64,192,51069,1,2,0:0:0:0:
192,192,51162,1,0,0:0:0:0:
320,192,51256,1,0,0:0:0:0:
448,192,51350,1,0,0:0:0:0:
192,192,51444,1,0,0:0:0:0:
320,192,51537,1,0,0:0:0:0:
64,192,51631,1,0,0:0:0:0:
192,192,51725,1,0,0:0:0:0:
448,192,51819,1,0,0:0:0:0:
64,192,51912,1,0,0:0:0:0:
320,192,52006,1,0,0:0:0:0:
192,192,52100,1,0,0:0:0:0:
448,192,52194,1,0,0:0:0:0:
320,192,52287,1,0,0:0:0:0:
64,192,52381,1,0,0:0:0:0:
192,192,52475,1,0,0:0:0:0:
320,192,52569,1,0,0:0:0:0:
448,192,52569,1,0,0:0:0:0:
64,192,52662,1,0,0:0:0:0:
448,192,52756,1,0,0:0:0:0:
320,192,52850,1,0,0:0:0:0:
64,192,52850,1,0,0:0:0:0:
448,192,52944,1,0,0:0:0:0:
192,192,53037,1,0,0:0:0:0:
448,192,53131,1,0,0:0:0:0:
320,192,53131,1,0,0:0:0:0:
64,192,53225,1,0,0:0:0:0:
448,192,53319,1,0,0:0:0:0:
192,192,53412,1,0,0:0:0:0:
320,192,53412,1,0,0:0:0:0:
64,192,53506,1,0,0:0:0:0:
448,192,53506,1,0,0:0:0:0:
320,192,53600,1,0,0:0:0:0:
192,192,53694,1,0,0:0:0:0:
64,192,53694,1,0,0:0:0:0:
448,192,53787,1,0,0:0:0:0:
320,192,53881,1,0,0:0:0:0:
64,192,53881,1,0,0:0:0:0:
192,192,53975,1,0,0:0:0:0:
320,192,54069,1,2,0:0:0:0:
448,192,54069,128,0,54444:0:0:0:0:
64,192,54069,128,0,54256:0:0:0:0:
192,192,54256,1,0,0:0:0:0:
320,192,54444,1,8,0:0:0:0:
64,192,54444,1,2,0:0:0:0:
192,192,54444,1,0,0:0:0:0:
448,192,54631,1,0,0:0:0:0:
64,192,54631,1,2,0:0:0:0:
64,192,54819,1,2,0:0:0:0:
192,192,54819,1,0,0:0:0:0:
320,192,54912,1,0,0:0:0:0:
448,192,54912,1,8,0:0:0:0:
192,192,55006,1,0,0:0:0:0:
320,192,55100,1,2,0:0:0:0:
448,192,55194,1,8,0:0:0:0:
192,192,55194,1,0,0:0:0:0:
64,192,55194,1,0,0:0:0:0:
320,192,55381,1,0,0:0:0:0:
64,192,55381,1,2,0:0:0:0:
320,192,55569,1,0,0:0:0:0:
448,192,55569,1,0,0:0:0:0:
192,192,55569,1,2,0:0:0:0:
320,192,55662,1,0,0:0:0:0:
448,192,55662,1,0,0:0:0:0:
192,192,55756,1,0,0:0:0:0:
64,192,55756,1,0,0:0:0:0:
448,192,55944,1,8,0:0:0:0:
64,192,55944,1,2,0:0:0:0:
320,192,55944,1,0,0:0:0:0:
192,192,56131,1,2,0:0:0:0:
448,192,56131,1,0,0:0:0:0:
320,192,56225,1,8,0:0:0:0:
448,192,56319,1,0,0:0:0:0:
64,192,56319,1,2,0:0:0:0:
192,192,56412,1,0,0:0:0:0:
448,192,56506,1,8,0:0:0:0:
320,192,56506,1,0,0:0:0:0:
64,192,56600,1,2,0:0:0:0:
192,192,56694,1,0,0:0:0:0:
448,192,56787,1,0,0:0:0:0:
64,192,56787,1,8,0:0:0:0:
320,192,56881,1,0,0:0:0:0:
192,192,56881,1,2,0:0:0:0:
448,192,56975,1,8,0:0:0:0:
64,192,57069,1,2,0:0:0:0:
320,192,57069,128,0,57256:0:0:0:0:
192,192,57069,128,0,57444:0:0:0:0:
448,192,57256,1,0,0:0:0:0:
320,192,57444,1,0,0:0:0:0:
448,192,57444,1,8,0:0:0:0:
64,192,57444,1,2,0:0:0:0:
64,192,57631,1,2,0:0:0:0:
320,192,57631,1,0,0:0:0:0:
64,192,57819,1,2,0:0:0:0:
448,192,57819,1,0,0:0:0:0:
192,192,57912,1,0,0:0:0:0:
320,192,57912,1,8,0:0:0:0:
448,192,58006,1,0,0:0:0:0:
64,192,58100,1,2,0:0:0:0:
192,192,58194,1,0,0:0:0:0:
448,192,58194,1,8,0:0:0:0:
320,192,58194,1,0,0:0:0:0:
192,192,58381,1,0,0:0:0:0:
64,192,58381,1,2,0:0:0:0:
448,192,58569,1,0,0:0:0:0:
320,192,58569,1,0,0:0:0:0:
64,192,58569,1,2,0:0:0:0:
192,192,58756,1,0,0:0:0:0:
64,192,58850,1,0,0:0:0:0:
192,192,58944,1,2,0:0:0:0:
320,192,58944,1,0,0:0:0:0:
448,192,58944,1,8,0:0:0:0:
64,192,59131,1,0,0:0:0:0:
192,192,59131,1,0,0:0:0:0:
320,192,59225,1,0,0:0:0:0:
448,192,59225,1,8,0:0:0:0:
64,192,59319,1,2,0:0:0:0:
192,192,59412,1,0,0:0:0:0:
320,192,59412,1,0,0:0:0:0:
448,192,59506,1,8,0:0:0:0:
64,192,59506,1,0,0:0:0:0:
320,192,59694,1,0,0:0:0:0:
448,192,59694,1,8,0:0:0:0:
192,192,59694,1,2,0:0:0:0:
64,192,59881,1,0,0:0:0:0:
448,192,59881,1,8,0:0:0:0:
320,192,59975,1,8,0:0:0:0:
192,192,60069,1,2,0:0:0:0:
448,192,60069,128,0,60444:0:0:0:0:
64,192,60069,128,0,60256:0:0:0:0:
320,192,60256,1,0,0:0:0:0:
64,192,60444,1,2,0:0:0:0:
320,192,60444,1,8,0:0:0:0:
192,192,60444,1,0,0:0:0:0:
448,192,60631,1,0,0:0:0:0:
192,192,60631,1,2,0:0:0:0:
192,192,60819,1,0,0:0:0:0:
64,192,60819,1,2,0:0:0:0:
320,192,60912,1,0,0:0:0:0:
448,192,60912,1,8,0:0:0:0:
64,192,61006,1,0,0:0:0:0:
320,192,61100,1,2,0:0:0:0:
448,192,61194,1,8,0:0:0:0:
192,192,61194,1,0,0:0:0:0:
64,192,61194,1,0,0:0:0:0:
192,192,61381,1,2,0:0:0:0:
320,192,61381,1,0,0:0:0:0:
320,192,61569,1,0,0:0:0:0:
64,192,61569,1,2,0:0:0:0:
448,192,61569,1,0,0:0:0:0:
320,192,61662,1,0,0:0:0:0:
448,192,61662,1,0,0:0:0:0:
64,192,61756,1,0,0:0:0:0:
192,192,61756,1,0,0:0:0:0:
192,192,61944,1,2,0:0:0:0:
448,192,61944,1,8,0:0:0:0:
320,192,61944,1,0,0:0:0:0:
64,192,62131,1,2,0:0:0:0:
320,192,62131,1,0,0:0:0:0:
192,192,62225,1,8,0:0:0:0:
448,192,62319,1,0,0:0:0:0:
320,192,62319,1,2,0:0:0:0:
64,192,62412,1,0,0:0:0:0:
448,192,62506,1,8,0:0:0:0:
192,192,62506,1,0,0:0:0:0:
320,192,62600,1,2,0:0:0:0:
64,192,62694,1,0,0:0:0:0:
448,192,62787,1,0,0:0:0:0:
320,192,62787,1,8,0:0:0:0:
192,192,62881,1,0,0:0:0:0:
64,192,62881,1,2,0:0:0:0:
448,192,62975,1,8,0:0:0:0:
320,192,63069,1,2,0:0:0:0:
192,192,63069,128,0,63444:0:0:0:0:
64,192,63069,128,0,63256:0:0:0:0:
448,192,63256,1,0,0:0:0:0:
448,192,63444,5,8,0:0:0:0:
320,192,63444,1,0,0:0:0:0:
64,192,63444,1,2,0:0:0:0:
320,192,63631,1,0,0:0:0:0:
192,192,63631,1,2,0:0:0:0:
64,192,63819,1,2,0:0:0:0:
320,192,63819,1,0,0:0:0:0:
192,192,63912,1,0,0:0:0:0:
448,192,63912,1,8,0:0:0:0:
64,192,64006,1,0,0:0:0:0:
448,192,64100,1,2,0:0:0:0:
320,192,64194,1,8,0:0:0:0:
192,192,64194,1,0,0:0:0:0:
64,192,64194,1,0,0:0:0:0:
448,192,64381,1,0,0:0:0:0:
192,192,64381,1,2,0:0:0:0:
320,192,64569,5,0,0:0:0:0:
448,192,64569,1,8,0:0:0:0:
64,192,64569,1,2,0:0:0:0:
448,192,64850,1,8,0:0:0:0:
192,192,64850,1,0,0:0:0:0:
64,192,64850,1,2,0:0:0:0:
320,192,65131,1,8,0:0:0:0:
192,192,65131,1,0,0:0:0:0:
64,192,65131,1,2,0:0:0:0:
192,192,65319,1,2,0:0:0:0:
448,192,65319,1,8,0:0:0:0:
320,192,65319,1,0,0:0:0:0:
448,192,65600,1,8,0:0:0:0:
320,192,65600,1,0,0:0:0:0:
64,192,65600,1,2,0:0:0:0:
320,192,65881,1,8,0:0:0:0:
192,192,65881,1,0,0:0:0:0:
64,192,65881,1,2,0:0:0:0:
192,192,66069,1,0,0:0:0:0:
64,192,66069,1,2,0:0:0:0:
448,192,66069,1,4,0:0:0:0:
320,192,66162,1,0,0:0:0:0:
64,192,66256,1,0,0:0:0:0:
320,192,66444,1,8,0:0:0:0:
64,192,66444,1,2,0:0:0:0:
192,192,66444,1,0,0:0:0:0:
448,192,66537,1,0,0:0:0:0:
192,192,66631,1,2,0:0:0:0:
320,192,66631,1,0,0:0:0:0:
64,192,66725,1,0,0:0:0:0:
320,192,66819,1,2,0:0:0:0:
448,192,66819,1,0,0:0:0:0:
192,192,66912,1,8,0:0:0:0:
64,192,66912,1,0,0:0:0:0:
320,192,67006,1,0,0:0:0:0:
192,192,67100,1,2,0:0:0:0:
448,192,67194,1,8,0:0:0:0:
320,192,67194,1,0,0:0:0:0:
64,192,67194,1,0,0:0:0:0:
192,192,67287,1,0,0:0:0:0:
64,192,67381,1,2,0:0:0:0:
448,192,67381,1,0,0:0:0:0:
192,192,67475,1,0,0:0:0:0:
320,192,67569,1,2,0:0:0:0:
448,192,67569,1,0,0:0:0:0:
192,192,67662,1,0,0:0:0:0:
64,192,67662,1,0,0:0:0:0:
320,192,67756,1,0,0:0:0:0:
448,192,67756,1,0,0:0:0:0:
64,192,67850,1,0,0:0:0:0:
448,192,67944,1,8,0:0:0:0:
320,192,67944,1,0,0:0:0:0:
192,192,67944,1,2,0:0:0:0:
64,192,68037,1,0,0:0:0:0:
192,192,68131,1,2,0:0:0:0:
320,192,68131,1,0,0:0:0:0:
448,192,68225,1,8,0:0:0:0:
192,192,68319,1,0,0:0:0:0:
64,192,68319,1,2,0:0:0:0:
320,192,68412,1,0,0:0:0:0:
448,192,68506,1,8,0:0:0:0:
64,192,68506,1,0,0:0:0:0:
192,192,68600,1,2,0:0:0:0:
320,192,68600,1,0,0:0:0:0:
448,192,68694,1,0,0:0:0:0:
64,192,68787,1,8,0:0:0:0:
192,192,68881,1,0,0:0:0:0:
320,192,68881,1,2,0:0:0:0:
448,192,68975,1,8,0:0:0:0:
320,192,69069,1,0,0:0:0:0:
64,192,69069,1,2,0:0:0:0:
192,192,69069,1,0,0:0:0:0:
448,192,69162,1,0,0:0:0:0:
192,192,69256,1,0,0:0:0:0:
320,192,69444,1,0,0:0:0:0:
448,192,69444,1,8,0:0:0:0:
64,192,69444,1,2,0:0:0:0:
192,192,69537,1,0,0:0:0:0:
320,192,69631,1,2,0:0:0:0:
448,192,69631,1,0,0:0:0:0:
64,192,69725,1,0,0:0:0:0:
192,192,69819,1,2,0:0:0:0:
448,192,69819,1,0,0:0:0:0:
64,192,69912,1,0,0:0:0:0:
320,192,69912,1,8,0:0:0:0:
192,192,70006,1,0,0:0:0:0:
448,192,70100,1,2,0:0:0:0:
192,192,70194,1,0,0:0:0:0:
64,192,70194,1,0,0:0:0:0:
320,192,70194,1,8,0:0:0:0:
448,192,70287,1,0,0:0:0:0:
320,192,70381,1,0,0:0:0:0:
64,192,70381,1,2,0:0:0:0:
192,192,70475,1,0,0:0:0:0:
448,192,70569,1,0,0:0:0:0:
64,192,70569,1,2,0:0:0:0:
320,192,70569,1,0,0:0:0:0:
192,192,70756,1,0,0:0:0:0:
320,192,70850,1,0,0:0:0:0:
192,192,70944,1,0,0:0:0:0:
448,192,70944,1,8,0:0:0:0:
64,192,70944,1,2,0:0:0:0:
64,192,71131,1,0,0:0:0:0:
448,192,71131,1,0,0:0:0:0:
192,192,71225,1,0,0:0:0:0:
320,192,71225,1,8,0:0:0:0:
448,192,71319,1,2,0:0:0:0:
64,192,71412,1,0,0:0:0:0:
192,192,71412,1,0,0:0:0:0:
320,192,71506,1,0,0:0:0:0:
448,192,71506,1,8,0:0:0:0:
64,192,71600,1,0,0:0:0:0:
320,192,71694,1,0,0:0:0:0:
448,192,71694,1,8,0:0:0:0:
192,192,71694,1,2,0:0:0:0:
64,192,71787,1,0,0:0:0:0:
320,192,71881,1,8,0:0:0:0:
192,192,71881,1,0,0:0:0:0:
448,192,71975,1,8,0:0:0:0:
64,192,72069,1,2,0:0:0:0:
192,192,72069,1,0,0:0:0:0:
320,192,72069,1,0,0:0:0:0:
448,192,72162,1,0,0:0:0:0:
192,192,72256,1,0,0:0:0:0:
64,192,72444,1,2,0:0:0:0:
448,192,72444,1,8,0:0:0:0:
192,192,72444,1,0,0:0:0:0:
320,192,72537,1,0,0:0:0:0:
448,192,72631,1,0,0:0:0:0:
64,192,72631,1,2,0:0:0:0:
192,192,72725,1,0,0:0:0:0:
320,192,72819,1,8,0:0:0:0:
64,192,72819,1,2,0:0:0:0:
192,192,72912,1,0,0:0:0:0:
448,192,72912,1,0,0:0:0:0:
320,192,73006,1,0,0:0:0:0:
64,192,73100,1,2,0:0:0:0:
448,192,73194,1,8,0:0:0:0:
192,192,73194,1,0,0:0:0:0:
320,192,73287,1,0,0:0:0:0:
64,192,73287,1,8,0:0:0:0:
192,192,73381,1,2,0:0:0:0:
448,192,73475,1,0,0:0:0:0:
320,192,73475,1,8,0:0:0:0:
192,192,73569,1,0,0:0:0:0:
64,192,73569,1,2,0:0:0:0:
320,192,73662,1,0,0:0:0:0:
448,192,73662,1,0,0:0:0:0:
64,192,73756,1,0,0:0:0:0:
192,192,73756,1,0,0:0:0:0:
448,192,73850,1,0,0:0:0:0:
192,192,73944,1,0,0:0:0:0:
320,192,73944,1,8,0:0:0:0:
64,192,73944,1,2,0:0:0:0:
448,192,74037,1,0,0:0:0:0:
64,192,74131,1,2,0:0:0:0:
320,192,74131,1,0,0:0:0:0:
192,192,74225,1,0,0:0:0:0:
448,192,74319,1,8,0:0:0:0:
320,192,74319,1,2,0:0:0:0:
64,192,74412,1,8,0:0:0:0:
192,192,74412,1,0,0:0:0:0:
448,192,74506,1,0,0:0:0:0:
320,192,74600,1,10,0:0:0:0:
192,192,74600,1,0,0:0:0:0:
64,192,74694,1,0,0:0:0:0:
448,192,74787,1,0,0:0:0:0:
320,192,74787,1,8,0:0:0:0:
192,192,74881,1,0,0:0:0:0:
64,192,74881,1,2,0:0:0:0:
448,192,74975,1,8,0:0:0:0:
320,192,75069,1,8,0:0:0:0:
192,192,75069,1,0,0:0:0:0:
64,192,75069,1,2,0:0:0:0:
448,192,75162,1,0,0:0:0:0:
192,192,75256,1,0,0:0:0:0:
320,192,75256,1,8,0:0:0:0:
448,192,75444,5,8,0:0:0:0:
320,192,75444,1,0,0:0:0:0:
64,192,75444,1,2,0:0:0:0:
192,192,75537,1,0,0:0:0:0:
320,192,75631,1,2,0:0:0:0:
64,192,75631,1,8,0:0:0:0:
448,192,75819,1,8,0:0:0:0:
192,192,75819,1,2,0:0:0:0:
64,192,75912,1,0,0:0:0:0:
320,192,76006,1,8,0:0:0:0:
448,192,76006,1,0,0:0:0:0:
192,192,76100,1,2,0:0:0:0:
320,192,76194,1,0,0:0:0:0:
448,192,76194,1,8,0:0:0:0:
64,192,76194,1,0,0:0:0:0:
192,192,76287,1,0,0:0:0:0:
320,192,76381,1,8,0:0:0:0:
64,192,76381,1,2,0:0:0:0:
448,192,76475,1,0,0:0:0:0:
320,192,76569,5,8,0:0:0:0:
64,192,76569,1,2,0:0:0:0:
192,192,76569,1,0,0:0:0:0:
448,192,76850,1,8,0:0:0:0:
320,192,76850,1,0,0:0:0:0:
64,192,76850,1,2,0:0:0:0:
320,192,77131,1,0,0:0:0:0:
448,192,77131,1,8,0:0:0:0:
192,192,77131,1,2,0:0:0:0:
64,192,77319,1,2,0:0:0:0:
192,192,77319,1,0,0:0:0:0:
448,192,77319,1,8,0:0:0:0:
192,192,77600,1,0,0:0:0:0:
320,192,77600,1,8,0:0:0:0:
64,192,77600,1,2,0:0:0:0:
448,192,77881,1,8,0:0:0:0:
320,192,77881,1,0,0:0:0:0:
192,192,77881,1,2,0:0:0:0:
64,192,78069,1,2,0:0:0:0:
448,192,78069,1,0,0:0:0:0:
320,192,78069,128,0,78444:0:0:0:0:
448,192,78444,1,0,0:0:0:0:
192,192,78444,1,2,0:0:0:0:
320,192,78537,1,0,0:0:0:0:
64,192,78631,1,0,0:0:0:0:
448,192,78725,1,0,0:0:0:0:
192,192,78819,1,0,0:0:0:0:
64,192,78819,1,2,0:0:0:0:
320,192,78912,1,0,0:0:0:0:
64,192,79100,1,0,0:0:0:0:
320,192,79194,1,2,0:0:0:0:
448,192,79194,1,0,0:0:0:0:
192,192,79287,1,0,0:0:0:0:
320,192,79381,1,0,0:0:0:0:
64,192,79475,1,0,0:0:0:0:
192,192,79569,1,2,0:0:0:0:
320,192,79569,1,0,0:0:0:0:
448,192,79662,1,0,0:0:0:0:
320,192,79756,1,0,0:0:0:0:
192,192,79850,1,0,0:0:0:0:
448,192,79944,1,0,0:0:0:0:
64,192,79944,1,2,0:0:0:0:
320,192,80037,1,0,0:0:0:0:
448,192,80225,1,0,0:0:0:0:
192,192,80319,1,0,0:0:0:0:
64,192,80319,1,2,0:0:0:0:
320,192,80412,1,0,0:0:0:0:
448,192,80506,1,0,0:0:0:0:
192,192,80694,1,2,0:0:0:0:
448,192,80694,1,0,0:0:0:0:
64,192,80881,1,0,0:0:0:0:
64,192,81069,1,2,0:0:0:0:
448,192,81069,1,0,0:0:0:0:
192,192,81256,1,0,0:0:0:0:
320,192,81350,1,0,0:0:0:0:
192,192,81444,1,0,0:0:0:0:
64,192,81444,1,2,0:0:0:0:
448,192,81537,1,0,0:0:0:0:
64,192,81631,1,0,0:0:0:0:
320,192,81725,1,0,0:0:0:0:
192,192,81819,1,2,0:0:0:0:
448,192,81819,1,0,0:0:0:0:
320,192,81912,1,0,0:0:0:0:
64,192,82006,1,0,0:0:0:0:
320,192,82194,1,2,0:0:0:0:
448,192,82194,1,0,0:0:0:0:
64,192,82381,1,0,0:0:0:0:
320,192,82569,1,0,0:0:0:0:
64,192,82569,1,2,0:0:0:0:
192,192,82756,1,0,0:0:0:0:
448,192,82850,1,0,0:0:0:0:
192,192,82944,1,0,0:0:0:0:
64,192,82944,1,2,0:0:0:0:
320,192,83037,1,0,0:0:0:0:
448,192,83131,1,0,0:0:0:0:
192,192,83225,1,0,0:0:0:0:
64,192,83319,1,2,0:0:0:0:
320,192,83319,1,0,0:0:0:0:
448,192,83412,1,0,0:0:0:0:
64,192,83506,1,0,0:0:0:0:
192,192,83506,1,0,0:0:0:0:
448,192,83600,1,0,0:0:0:0:
320,192,83694,1,0,0:0:0:0:
192,192,83694,1,2,0:0:0:0:
64,192,83787,1,0,0:0:0:0:
448,192,83881,1,0,0:0:0:0:
320,192,83881,1,0,0:0:0:0:
192,192,83975,1,0,0:0:0:0:
64,192,84069,1,2,0:0:0:0:
448,192,84069,1,0,0:0:0:0:
320,192,84069,128,0,84444:0:0:0:0:
448,192,84444,1,0,0:0:0:0:
192,192,84444,1,2,0:0:0:0:
320,192,84537,1,0,0:0:0:0:
64,192,84631,1,0,0:0:0:0:
448,192,84725,1,0,0:0:0:0:
320,192,84819,1,0,0:0:0:0:
64,192,84819,1,2,0:0:0:0:
192,192,84912,1,0,0:0:0:0:
64,192,85100,1,0,0:0:0:0:
320,192,85194,1,2,0:0:0:0:
448,192,85194,1,0,0:0:0:0:
192,192,85287,1,0,0:0:0:0:
448,192,85381,1,0,0:0:0:0:
64,192,85475,1,0,0:0:0:0:
192,192,85569,1,2,0:0:0:0:
320,192,85569,1,0,0:0:0:0:
448,192,85662,1,0,0:0:0:0:
320,192,85756,1,0,0:0:0:0:
192,192,85850,1,0,0:0:0:0:
448,192,85944,1,0,0:0:0:0:
64,192,85944,1,2,0:0:0:0:
320,192,86037,1,0,0:0:0:0:
448,192,86225,1,0,0:0:0:0:
192,192,86319,1,0,0:0:0:0:
64,192,86319,1,2,0:0:0:0:
320,192,86412,1,0,0:0:0:0:
448,192,86506,1,0,0:0:0:0:
64,192,86694,1,2,0:0:0:0:
448,192,86694,1,0,0:0:0:0:
192,192,86881,1,0,0:0:0:0:
320,192,87069,1,2,0:0:0:0:
448,192,87069,1,0,0:0:0:0:
192,192,87256,1,0,0:0:0:0:
320,192,87350,1,0,0:0:0:0:
192,192,87444,1,0,0:0:0:0:
64,192,87444,1,2,0:0:0:0:
448,192,87537,1,0,0:0:0:0:
64,192,87631,1,0,0:0:0:0:
320,192,87725,1,0,0:0:0:0:
192,192,87819,1,2,0:0:0:0:
448,192,87819,1,0,0:0:0:0:
320,192,87912,1,0,0:0:0:0:
64,192,88006,1,0,0:0:0:0:
448,192,88100,1,0,0:0:0:0:
320,192,88194,1,0,0:0:0:0:
192,192,88194,1,2,0:0:0:0:
64,192,88287,1,0,0:0:0:0:
320,192,88381,1,0,0:0:0:0:
192,192,88475,1,0,0:0:0:0:
448,192,88569,1,0,0:0:0:0:
64,192,88569,1,2,0:0:0:0:
192,192,88662,1,0,0:0:0:0:
64,192,88756,1,0,0:0:0:0:
320,192,88756,1,0,0:0:0:0:
448,192,88850,1,0,0:0:0:0:
192,192,88944,1,0,0:0:0:0:
64,192,88944,1,2,0:0:0:0:
320,192,89037,1,0,0:0:0:0:
448,192,89131,1,0,0:0:0:0:
192,192,89131,1,0,0:0:0:0:
320,192,89225,1,0,0:0:0:0:
64,192,89319,1,2,0:0:0:0:
192,192,89319,1,0,0:0:0:0:
448,192,89412,1,0,0:0:0:0:
64,192,89506,1,0,0:0:0:0:
320,192,89506,1,0,0:0:0:0:
192,192,89600,1,0,0:0:0:0:
448,192,89694,1,0,0:0:0:0:
320,192,89694,1,0,0:0:0:0:
64,192,89694,1,2,0:0:0:0:
192,192,89787,1,0,0:0:0:0:
448,192,89881,1,0,0:0:0:0:
320,192,89881,1,0,0:0:0:0:
64,192,89975,1,0,0:0:0:0:
192,192,90069,1,2,0:0:0:0:
448,192,90069,1,0,0:0:0:0:
320,192,90069,128,0,90444:0:0:0:0:
448,192,90444,1,8,0:0:0:0:
192,192,90444,1,0,0:0:0:0:
64,192,90444,1,2,0:0:0:0:
320,192,90537,1,0,0:0:0:0:
64,192,90631,1,0,0:0:0:0:
448,192,90725,1,0,0:0:0:0:
192,192,90819,1,0,0:0:0:0:
64,192,90819,1,2,0:0:0:0:
320,192,90912,1,0,0:0:0:0:
192,192,91006,1,0,0:0:0:0:
448,192,91100,1,0,0:0:0:0:
64,192,91194,1,2,0:0:0:0:
320,192,91194,1,8,0:0:0:0:
192,192,91194,1,0,0:0:0:0:
448,192,91287,1,0,0:0:0:0:
64,192,91381,1,0,0:0:0:0:
320,192,91475,1,0,0:0:0:0:
448,192,91569,1,0,0:0:0:0:
192,192,91569,1,2,0:0:0:0:
320,192,91662,1,0,0:0:0:0:
192,192,91756,1,0,0:0:0:0:
64,192,91850,1,0,0:0:0:0:
448,192,91944,1,8,0:0:0:0:
192,192,91944,1,2,0:0:0:0:
320,192,91944,1,0,0:0:0:0:
64,192,92037,1,0,0:0:0:0:
320,192,92131,1,0,0:0:0:0:
448,192,92225,1,0,0:0:0:0:
192,192,92319,1,0,0:0:0:0:
64,192,92319,1,2,0:0:0:0:
320,192,92412,1,0,0:0:0:0:
448,192,92506,1,0,0:0:0:0:
64,192,92600,1,0,0:0:0:0:
192,192,92694,1,2,0:0:0:0:
448,192,92694,1,8,0:0:0:0:
320,192,92694,1,0,0:0:0:0:
64,192,92787,1,0,0:0:0:0:
320,192,92881,1,0,0:0:0:0:
192,192,92975,1,0,0:0:0:0:
64,192,93069,1,2,0:0:0:0:
448,192,93069,1,0,0:0:0:0:
320,192,93162,1,0,0:0:0:0:
192,192,93256,1,0,0:0:0:0:
448,192,93350,1,0,0:0:0:0:
192,192,93444,1,0,0:0:0:0:
64,192,93444,1,2,0:0:0:0:
320,192,93444,1,8,0:0:0:0:
448,192,93537,1,0,0:0:0:0:
64,192,93631,1,0,0:0:0:0:
320,192,93725,1,0,0:0:0:0:
192,192,93819,1,2,0:0:0:0:
448,192,93819,1,0,0:0:0:0:
64,192,93912,1,0,0:0:0:0:
320,192,94006,1,0,0:0:0:0:
192,192,94100,1,0,0:0:0:0:
320,192,94194,1,0,0:0:0:0:
448,192,94194,1,8,0:0:0:0:
64,192,94194,1,2,0:0:0:0:
192,192,94287,1,0,0:0:0:0:
64,192,94381,1,0,0:0:0:0:
448,192,94475,1,0,0:0:0:0:
320,192,94569,1,0,0:0:0:0:
64,192,94569,1,2,0:0:0:0:
192,192,94662,1,0,0:0:0:0:
448,192,94756,1,0,0:0:0:0:
64,192,94850,1,0,0:0:0:0:
448,192,94944,1,8,0:0:0:0:
320,192,94944,1,0,0:0:0:0:
192,192,94944,1,2,0:0:0:0:
64,192,95037,1,0,0:0:0:0:
448,192,95131,1,0,0:0:0:0:
192,192,95225,1,0,0:0:0:0:
320,192,95319,1,0,0:0:0:0:
64,192,95319,1,2,0:0:0:0:
448,192,95412,1,0,0:0:0:0:
64,192,95506,1,0,0:0:0:0:
320,192,95600,1,0,0:0:0:0:
192,192,95694,1,0,0:0:0:0:
448,192,95694,1,8,0:0:0:0:
64,192,95694,1,2,0:0:0:0:
320,192,95787,1,0,0:0:0:0:
448,192,95881,1,0,0:0:0:0:
192,192,95975,1,0,0:0:0:0:
64,192,96069,1,2,0:0:0:0:
448,192,96069,1,8,0:0:0:0:
320,192,96069,1,0,0:0:0:0:
192,192,96256,1,0,0:0:0:0:
448,192,96444,1,8,0:0:0:0:
64,192,96444,1,2,0:0:0:0:
320,192,96537,1,0,0:0:0:0:
192,192,96631,1,0,0:0:0:0:
448,192,96725,1,0,0:0:0:0:
320,192,96819,1,8,0:0:0:0:
64,192,96819,1,2,0:0:0:0:
192,192,96912,1,0,0:0:0:0:
448,192,97006,1,0,0:0:0:0:
320,192,97100,1,0,0:0:0:0:
192,192,97194,1,8,0:0:0:0:
64,192,97194,1,2,0:0:0:0:
320,192,97287,1,0,0:0:0:0:
448,192,97287,1,8,0:0:0:0:
64,192,97381,1,0,0:0:0:0:
320,192,97475,1,0,0:0:0:0:
448,192,97475,1,8,0:0:0:0:
192,192,97569,1,8,0:0:0:0:
64,192,97569,1,2,0:0:0:0:
448,192,97662,1,0,0:0:0:0:
192,192,97756,1,0,0:0:0:0:
320,192,97850,1,0,0:0:0:0:
192,192,97944,1,8,0:0:0:0:
64,192,97944,1,2,0:0:0:0:
448,192,98037,1,0,0:0:0:0:
64,192,98131,1,0,0:0:0:0:
320,192,98225,1,0,0:0:0:0:
192,192,98319,1,2,0:0:0:0:
448,192,98319,1,8,0:0:0:0:
320,192,98412,1,8,0:0:0:0:
64,192,98412,1,0,0:0:0:0:
192,192,98506,1,0,0:0:0:0:
320,192,98600,1,0,0:0:0:0:
448,192,98600,1,8,0:0:0:0:
64,192,98694,1,2,0:0:0:0:
192,192,98787,1,0,0:0:0:0:
320,192,98787,1,8,0:0:0:0:
448,192,98881,1,0,0:0:0:0:
192,192,98975,1,8,0:0:0:0:
64,192,98975,1,0,0:0:0:0:
320,192,99069,1,0,0:0:0:0:
448,192,99069,128,0,100569:0:0:0:0:
64,192,99162,1,0,0:0:0:0:
192,192,99256,1,0,0:0:0:0:
320,192,99350,1,0,0:0:0:0:
64,192,99444,1,0,0:0:0:0:
192,192,99537,1,0,0:0:0:0:
320,192,99631,1,0,0:0:0:0:
192,192,99725,1,0,0:0:0:0:
64,192,99819,1,0,0:0:0:0:
320,192,99912,1,0,0:0:0:0:
192,192,100006,1,0,0:0:0:0:
64,192,100100,1,0,0:0:0:0:
320,192,100194,1,0,0:0:0:0:
64,192,100287,1,0,0:0:0:0:
192,192,100381,1,0,0:0:0:0:
320,192,100475,1,0,0:0:0:0:
64,192,100569,1,0,0:0:0:0:
192,192,100615,1,0,0:0:0:0:
320,192,100662,1,0,0:0:0:0:
448,192,100709,1,0,0:0:0:0:
64,192,100756,1,0,0:0:0:0:
192,192,100803,1,0,0:0:0:0:
320,192,100850,1,0,0:0:0:0:
448,192,100897,1,0,0:0:0:0:
64,192,100944,1,0,0:0:0:0:
192,192,100990,1,0,0:0:0:0:
320,192,101037,1,0,0:0:0:0:
448,192,101084,1,0,0:0:0:0:
64,192,101131,1,0,0:0:0:0:
192,192,101178,1,0,0:0:0:0:
320,192,101225,1,0,0:0:0:0:
448,192,101272,1,0,0:0:0:0:
64,192,101319,1,0,0:0:0:0:
192,192,101365,1,0,0:0:0:0:
320,192,101412,1,0,0:0:0:0:
448,192,101459,1,0,0:0:0:0:
64,192,101506,1,0,0:0:0:0:
192,192,101553,1,0,0:0:0:0:
320,192,101600,1,0,0:0:0:0:
448,192,101647,1,0,0:0:0:0:
64,192,101694,1,0,0:0:0:0:
192,192,101740,1,0,0:0:0:0:
320,192,101787,1,0,0:0:0:0:
448,192,101834,1,0,0:0:0:0:
64,192,101881,1,0,0:0:0:0:
192,192,101928,1,0,0:0:0:0:
320,192,101975,1,0,0:0:0:0:
448,192,102022,1,0,0:0:0:0:
192,192,102069,1,0,0:0:0:0:
64,192,102069,1,0,0:0:0:0:
192,192,102444,1,0,0:0:0:0:
320,192,102444,1,0,0:0:0:0:
448,192,102819,1,0,0:0:0:0:
320,192,102819,1,0,0:0:0:0:
64,192,102912,1,0,0:0:0:0:
320,192,103100,1,0,0:0:0:0:
192,192,103100,1,0,0:0:0:0:
448,192,103194,1,0,0:0:0:0:
64,192,103287,1,0,0:0:0:0:
320,192,103381,1,0,0:0:0:0:
448,192,103381,1,0,0:0:0:0:
192,192,103569,1,0,0:0:0:0:
320,192,103569,128,0,103944:0:0:0:0:
448,192,103569,1,0,0:0:0:0:
64,192,103569,1,2,0:0:0:0:
448,192,103944,1,8,0:0:0:0:
192,192,103944,1,0,0:0:0:0:
64,192,103944,1,2,0:0:0:0:
320,192,104037,1,0,0:0:0:0:
64,192,104131,1,0,0:0:0:0:
448,192,104225,1,0,0:0:0:0:
64,192,104319,1,2,0:0:0:0:
192,192,104319,1,0,0:0:0:0:
320,192,104412,1,0,0:0:0:0:
448,192,104412,1,8,0:0:0:0:
192,192,104506,1,0,0:0:0:0:
320,192,104600,1,0,0:0:0:0:
192,192,104694,1,0,0:0:0:0:
64,192,104694,1,2,0:0:0:0:
448,192,104694,1,8,0:0:0:0:
320,192,104787,1,0,0:0:0:0:
448,192,104881,1,0,0:0:0:0:
64,192,104975,1,0,0:0:0:0:
320,192,105069,1,2,0:0:0:0:
448,192,105069,1,0,0:0:0:0:
192,192,105162,1,0,0:0:0:0:
448,192,105256,1,0,0:0:0:0:
320,192,105350,1,0,0:0:0:0:
192,192,105444,1,0,0:0:0:0:
64,192,105444,1,2,0:0:0:0:
448,192,105444,1,8,0:0:0:0:
320,192,105537,1,0,0:0:0:0:
64,192,105631,1,0,0:0:0:0:
448,192,105725,1,8,0:0:0:0:
192,192,105725,1,0,0:0:0:0:
320,192,105819,1,0,0:0:0:0:
64,192,105819,1,2,0:0:0:0:
192,192,105912,1,0,0:0:0:0:
320,192,106006,1,0,0:0:0:0:
448,192,106006,1,8,0:0:0:0:
64,192,106100,1,0,0:0:0:0:
192,192,106194,1,2,0:0:0:0:
320,192,106194,1,0,0:0:0:0:
64,192,106287,1,0,0:0:0:0:
448,192,106287,1,8,0:0:0:0:
192,192,106381,1,0,0:0:0:0:
320,192,106475,1,0,0:0:0:0:
448,192,106475,1,8,0:0:0:0:
192,192,106569,1,0,0:0:0:0:
64,192,106569,1,2,0:0:0:0:
320,192,106662,1,0,0:0:0:0:
64,192,106756,1,0,0:0:0:0:
448,192,106850,1,0,0:0:0:0:
192,192,106944,1,0,0:0:0:0:
64,192,106944,1,2,0:0:0:0:
320,192,106944,1,8,0:0:0:0:
448,192,107037,1,0,0:0:0:0:
64,192,107131,1,0,0:0:0:0:
192,192,107225,1,0,0:0:0:0:
448,192,107319,1,0,0:0:0:0:
320,192,107319,1,2,0:0:0:0:
64,192,107412,1,0,0:0:0:0:
192,192,107412,1,8,0:0:0:0:
448,192,107506,1,0,0:0:0:0:
320,192,107600,1,0,0:0:0:0:
64,192,107694,1,2,0:0:0:0:
192,192,107694,1,0,0:0:0:0:
448,192,107694,1,8,0:0:0:0:
320,192,107787,1,0,0:0:0:0:
64,192,107881,1,0,0:0:0:0:
192,192,107975,1,0,0:0:0:0:
448,192,108069,1,0,0:0:0:0:
320,192,108069,1,2,0:0:0:0:
64,192,108162,1,0,0:0:0:0:
192,192,108256,1,0,0:0:0:0:
448,192,108350,1,0,0:0:0:0:
192,192,108444,1,0,0:0:0:0:
320,192,108444,1,8,0:0:0:0:
64,192,108444,1,2,0:0:0:0:
448,192,108537,1,0,0:0:0:0:
320,192,108631,1,0,0:0:0:0:
448,192,108725,1,8,0:0:0:0:
64,192,108725,1,0,0:0:0:0:
192,192,108819,1,2,0:0:0:0:
320,192,108819,1,0,0:0:0:0:
64,192,108912,1,0,0:0:0:0:
320,192,109006,1,0,0:0:0:0:
448,192,109006,1,8,0:0:0:0:
192,192,109100,1,0,0:0:0:0:
320,192,109194,1,8,0:0:0:0:
64,192,109194,1,2,0:0:0:0:
448,192,109287,1,0,0:0:0:0:
192,192,109381,1,8,0:0:0:0:
64,192,109381,1,0,0:0:0:0:
448,192,109475,1,8,0:0:0:0:
320,192,109475,1,0,0:0:0:0:
64,192,109569,1,2,0:0:0:0:
320,192,109569,1,0,0:0:0:0:
192,192,109569,128,0,109944:0:0:0:0:
448,192,109944,1,8,0:0:0:0:
320,192,109944,1,0,0:0:0:0:
64,192,109944,1,2,0:0:0:0:
192,192,110037,1,0,0:0:0:0:
64,192,110131,1,0,0:0:0:0:
448,192,110225,1,0,0:0:0:0:
64,192,110319,1,2,0:0:0:0:
320,192,110319,1,0,0:0:0:0:
192,192,110412,1,0,0:0:0:0:
448,192,110412,1,8,0:0:0:0:
320,192,110506,1,0,0:0:0:0:
64,192,110600,1,0,0:0:0:0:
320,192,110694,1,0,0:0:0:0:
192,192,110694,1,2,0:0:0:0:
448,192,110694,1,8,0:0:0:0:
64,192,110787,1,0,0:0:0:0:
448,192,110881,1,0,0:0:0:0:
192,192,110975,1,0,0:0:0:0:
320,192,111069,1,2,0:0:0:0:
448,192,111069,1,0,0:0:0:0:
64,192,111162,1,0,0:0:0:0:
320,192,111256,1,0,0:0:0:0:
192,192,111350,1,0,0:0:0:0:
320,192,111444,1,0,0:0:0:0:
64,192,111444,1,2,0:0:0:0:
448,192,111444,1,8,0:0:0:0:
192,192,111537,1,0,0:0:0:0:
64,192,111631,1,0,0:0:0:0:
448,192,111725,1,8,0:0:0:0:
320,192,111725,1,0,0:0:0:0:
192,192,111819,1,0,0:0:0:0:
64,192,111819,1,2,0:0:0:0:
320,192,111912,1,0,0:0:0:0:
192,192,112006,1,0,0:0:0:0:
448,192,112006,1,8,0:0:0:0:
64,192,112100,1,0,0:0:0:0:
192,192,112194,1,2,0:0:0:0:
320,192,112194,1,0,0:0:0:0:
64,192,112287,1,0,0:0:0:0:
448,192,112287,1,8,0:0:0:0:
192,192,112381,1,0,0:0:0:0:
320,192,112475,1,0,0:0:0:0:
448,192,112475,1,8,0:0:0:0:
192,192,112569,1,0,0:0:0:0:
64,192,112569,1,2,0:0:0:0:
320,192,112662,1,0,0:0:0:0:
64,192,112756,1,0,0:0:0:0:
192,192,112850,1,0,0:0:0:0:
448,192,112944,1,8,0:0:0:0:
64,192,112944,1,2,0:0:0:0:
320,192,112944,1,0,0:0:0:0:
192,192,113037,1,0,0:0:0:0:
448,192,113131,1,0,0:0:0:0:
64,192,113225,1,0,0:0:0:0:
448,192,113319,1,0,0:0:0:0:
192,192,113319,1,2,0:0:0:0:
320,192,113412,1,8,0:0:0:0:
64,192,113412,1,0,0:0:0:0:
192,192,113506,1,0,0:0:0:0:
448,192,113600,1,0,0:0:0:0:
64,192,113694,1,2,0:0:0:0:
192,192,113694,1,0,0:0:0:0:
320,192,113694,1,8,0:0:0:0:
448,192,113787,1,0,0:0:0:0:
320,192,113881,1,0,0:0:0:0:
64,192,113975,1,0,0:0:0:0:
320,192,114069,1,0,0:0:0:0:
192,192,114069,1,2,0:0:0:0:
448,192,114162,1,0,0:0:0:0:
64,192,114256,1,0,0:0:0:0:
320,192,114350,1,0,0:0:0:0:
192,192,114444,1,0,0:0:0:0:
64,192,114444,1,2,0:0:0:0:
448,192,114444,1,8,0:0:0:0:
320,192,114537,1,0,0:0:0:0:
192,192,114631,1,0,0:0:0:0:
448,192,114725,1,8,0:0:0:0:
64,192,114725,1,0,0:0:0:0:
192,192,114819,1,2,0:0:0:0:
320,192,114819,1,0,0:0:0:0:
64,192,114912,5,0,0:0:0:0:
192,192,115006,1,0,0:0:0:0:
448,192,115006,1,8,0:0:0:0:
320,192,115100,1,8,0:0:0:0:
64,192,115100,1,0,0:0:0:0:
448,192,115194,1,0,0:0:0:0:
192,192,115194,1,2,0:0:0:0:
320,192,115287,1,0,0:0:0:0:
64,192,115381,1,0,0:0:0:0:
192,192,115381,1,8,0:0:0:0:
320,192,115475,1,0,0:0:0:0:
448,192,115475,1,8,0:0:0:0:
64,192,115569,1,2,0:0:0:0:
192,192,115569,1,0,0:0:0:0:
448,192,115569,128,4,115944:0:0:0:0:
64,192,115944,1,2,0:0:0:0:
320,192,115944,1,8,0:0:0:0:
192,192,115944,1,0,0:0:0:0:
448,192,116037,1,0,0:0:0:0:
64,192,116131,1,0,0:0:0:0:
320,192,116225,1,0,0:0:0:0:
64,192,116319,1,2,0:0:0:0:
192,192,116319,1,0,0:0:0:0:
448,192,116319,1,8,0:0:0:0:
320,192,116412,1,0,0:0:0:0:
448,192,116506,1,0,0:0:0:0:
192,192,116600,1,0,0:0:0:0:
320,192,116694,1,2,0:0:0:0:
448,192,116694,1,8,0:0:0:0:
192,192,116787,1,8,0:0:0:0:
64,192,116787,1,0,0:0:0:0:
320,192,116881,1,0,0:0:0:0:
64,192,116975,1,0,0:0:0:0:
448,192,116975,1,8,0:0:0:0:
320,192,117069,1,8,0:0:0:0:
192,192,117069,1,2,0:0:0:0:
448,192,117162,1,0,0:0:0:0:
192,192,117256,1,0,0:0:0:0:
64,192,117350,1,0,0:0:0:0:
192,192,117444,1,2,0:0:0:0:
448,192,117444,1,8,0:0:0:0:
320,192,117444,1,0,0:0:0:0:
64,192,117537,1,0,0:0:0:0:
448,192,117631,1,0,0:0:0:0:
320,192,117725,1,0,0:0:0:0:
448,192,117819,1,8,0:0:0:0:
192,192,117819,1,2,0:0:0:0:
320,192,117912,1,8,0:0:0:0:
64,192,117912,1,0,0:0:0:0:
192,192,118006,1,0,0:0:0:0:
320,192,118100,1,0,0:0:0:0:
448,192,118100,1,8,0:0:0:0:
192,192,118194,1,0,0:0:0:0:
64,192,118194,1,2,0:0:0:0:
448,192,118287,1,8,0:0:0:0:
320,192,118287,1,0,0:0:0:0:
192,192,118381,1,0,0:0:0:0:
64,192,118475,1,0,0:0:0:0:
448,192,118475,1,8,0:0:0:0:
320,192,118569,1,8,0:0:0:0:
192,192,118569,1,2,0:0:0:0:
448,192,118662,1,0,0:0:0:0:
64,192,118756,1,0,0:0:0:0:
320,192,118850,1,0,0:0:0:0:
192,192,118944,1,0,0:0:0:0:
64,192,118944,1,2,0:0:0:0:
448,192,118944,1,8,0:0:0:0:
320,192,119037,1,0,0:0:0:0:
64,192,119131,1,0,0:0:0:0:
192,192,119225,1,0,0:0:0:0:
448,192,119319,1,8,0:0:0:0:
320,192,119319,1,0,0:0:0:0:
64,192,119319,1,2,0:0:0:0:
192,192,119412,1,0,0:0:0:0:
448,192,119506,1,0,0:0:0:0:
320,192,119600,1,0,0:0:0:0:
192,192,119694,1,2,0:0:0:0:
448,192,119694,1,8,0:0:0:0:
320,192,119787,1,8,0:0:0:0:
64,192,119787,1,0,0:0:0:0:
192,192,119881,1,0,0:0:0:0:
320,192,119975,1,0,0:0:0:0:
448,192,119975,1,8,0:0:0:0:
192,192,120069,1,8,0:0:0:0:
64,192,120069,1,2,0:0:0:0:
448,192,120162,1,0,0:0:0:0:
320,192,120256,1,0,0:0:0:0:
64,192,120350,1,0,0:0:0:0:
448,192,120444,1,8,0:0:0:0:
192,192,120444,1,2,0:0:0:0:
320,192,120444,1,0,0:0:0:0:
64,192,120537,1,0,0:0:0:0:
320,192,120631,1,0,0:0:0:0:
192,192,120725,1,0,0:0:0:0:
64,192,120819,1,2,0:0:0:0:
448,192,120819,1,8,0:0:0:0:
192,192,120912,1,0,0:0:0:0:
320,192,120912,1,8,0:0:0:0:
448,192,121006,1,0,0:0:0:0:
192,192,121100,1,8,0:0:0:0:
64,192,121100,1,0,0:0:0:0:
320,192,121194,1,2,0:0:0:0:
448,192,121194,1,8,0:0:0:0:
192,192,121287,1,8,0:0:0:0:
64,192,121287,1,0,0:0:0:0:
320,192,121381,1,0,0:0:0:0:
448,192,121475,1,8,0:0:0:0:
64,192,121475,1,0,0:0:0:0:
192,192,121569,1,2,0:0:0:0:
320,192,121569,128,8,121944:0:0:0:0:
448,192,121756,1,8,0:0:0:0:
64,192,121756,1,0,0:0:0:0:
192,192,121944,1,2,0:0:0:0:
448,192,121944,1,8,0:0:0:0:
320,192,122037,1,0,0:0:0:0:
192,192,122131,1,8,0:0:0:0:
64,192,122131,1,0,0:0:0:0:
448,192,122225,1,0,0:0:0:0:
320,192,122319,1,8,0:0:0:0:
192,192,122319,1,2,0:0:0:0:
64,192,122412,1,0,0:0:0:0:
192,192,122506,1,0,0:0:0:0:
448,192,122506,1,8,0:0:0:0:
320,192,122600,1,0,0:0:0:0:
64,192,122694,1,2,0:0:0:0:
448,192,122694,1,8,0:0:0:0:
192,192,122787,1,0,0:0:0:0:
320,192,122881,1,0,0:0:0:0:
448,192,122881,1,8,0:0:0:0:
64,192,122975,1,0,0:0:0:0:
192,192,123069,1,2,0:0:0:0:
320,192,123069,1,8,0:0:0:0:
448,192,123162,1,0,0:0:0:0:
192,192,123256,1,8,0:0:0:0:
64,192,123256,1,0,0:0:0:0:
320,192,123350,1,0,0:0:0:0:
448,192,123444,1,8,0:0:0:0:
64,192,123444,1,2,0:0:0:0:
192,192,123537,1,0,0:0:0:0:
320,192,123631,1,0,0:0:0:0:
448,192,123631,1,8,0:0:0:0:
64,192,123725,1,0,0:0:0:0:
192,192,123819,1,2,0:0:0:0:
448,192,123819,1,8,0:0:0:0:
320,192,123912,1,0,0:0:0:0:
192,192,124006,1,8,0:0:0:0:
64,192,124006,1,0,0:0:0:0:
320,192,124100,1,0,0:0:0:0:
448,192,124194,1,8,0:0:0:0:
64,192,124194,1,2,0:0:0:0:
192,192,124287,1,0,0:0:0:0:
320,192,124381,1,8,0:0:0:0:
64,192,124381,1,0,0:0:0:0:
192,192,124475,1,0,0:0:0:0:
320,192,124569,1,2,0:0:0:0:
448,192,124569,1,8,0:0:0:0:
64,192,124662,1,8,0:0:0:0:
192,192,124662,1,0,0:0:0:0:
448,192,124756,1,8,0:0:0:0:
320,192,124756,1,0,0:0:0:0:
64,192,124850,1,8,0:0:0:0:
192,192,124850,1,0,0:0:0:0:
320,192,124944,1,2,0:0:0:0:
448,192,124944,1,8,0:0:0:0:
192,192,125037,1,0,0:0:0:0:
64,192,125037,1,8,0:0:0:0:
448,192,125131,1,8,0:0:0:0:
320,192,125131,1,0,0:0:0:0:
64,192,125225,1,8,0:0:0:0:
192,192,125225,1,0,0:0:0:0:
320,192,125319,1,2,0:0:0:0:
448,192,125319,1,8,0:0:0:0:
192,192,125412,1,0,0:0:0:0:
64,192,125412,1,8,0:0:0:0:
448,192,125506,1,8,0:0:0:0:
320,192,125506,1,0,0:0:0:0:
64,192,125600,1,8,0:0:0:0:
192,192,125600,1,0,0:0:0:0:
320,192,125694,1,2,0:0:0:0:
448,192,125694,1,8,0:0:0:0:
192,192,125787,1,0,0:0:0:0:
64,192,125787,1,8,0:0:0:0:
448,192,125881,1,8,0:0:0:0:
320,192,125881,1,0,0:0:0:0:
64,192,125975,1,8,0:0:0:0:
192,192,125975,1,0,0:0:0:0:
448,192,126069,1,8,0:0:0:0:
320,192,126162,1,0,0:0:0:0:
64,192,126256,1,0,0:0:0:0:
320,192,126350,1,0,0:0:0:0:
192,192,126444,1,8,0:0:0:0:
64,192,126537,1,0,0:0:0:0:
448,192,126631,1,0,0:0:0:0:
320,192,126725,1,0,0:0:0:0:
192,192,126819,1,8,0:0:0:0:
448,192,126912,1,8,0:0:0:0:
320,192,127006,1,0,0:0:0:0:
64,192,127100,1,8,0:0:0:0:
448,192,127194,1,0,0:0:0:0:
320,192,127287,1,8,0:0:0:0:
64,192,127381,1,8,0:0:0:0:
192,192,127475,1,0,0:0:0:0:
448,192,127569,128,4,128131:0:0:0:0:
320,192,127569,128,0,128131:0:0:0:0:
64,192,127569,128,2,128131:0:0:0:0:
