osu file format v14

[General]
AudioFilename: audio.mp3
AudioLeadIn: 0
PreviewTime: 35172
Countdown: 0
SampleSet: Normal
StackLeniency: 0.7
Mode: 1
LetterboxInBreaks: 0
WidescreenStoryboard: 0

[Editor]
Bookmarks: 13118
DistanceSpacing: 0.8
BeatDivisor: 4
GridSize: 8
TimelineZoom: 2

[Metadata]
Title:Persephone
TitleUnicode:Persephone
Artist:EBICO
ArtistUnicode:EBICO
Creator:Zpmzpm
Version:Muzukashii
Source:Dynamix
Tags:hachi zyon slit isabella olivia quiterie hard renaissance zpm electronic
BeatmapID:1163735
BeatmapSetID:549577

[Difficulty]
HPDrainRate:5
CircleSize:2
OverallDifficulty:5
ApproachRate:5
SliderMultiplier:1.4
SliderTickRate:1

[Events]
//Background and Video events
0,0,"nicebgoke.jpg",0,0
//Break Periods
//Storyboard Layer 0 (Background)
//Storyboard Layer 1 (Fail)
//Storyboard Layer 2 (Pass)
//Storyboard Layer 3 (Foreground)
//Storyboard Sound Samples

[TimingPoints]
2740.03573470553,324.324324324324,4,1,0,100,1,0
23577,-200,4,1,0,100,0,0
24794,-100,4,1,0,100,0,0
35172,-100,4,1,0,100,0,1
45631,-125,4,1,0,100,0,0
68577,-117.647058823529,4,1,0,100,0,0
68740,-114.942528735632,4,1,0,100,0,0
68902,-111.111111111111,4,1,0,100,0,0
79280,-100,4,1,0,100,0,0
111713,-100,4,1,0,100,0,1
122172,-125,4,1,0,100,0,0

[HitObjects]
256,192,2740,5,12,0:0:0:0:
248,192,2902,1,0,0:0:0:0:
256,192,3064,1,8,0:0:0:0:
248,192,3388,1,0,0:0:0:0:
248,192,3550,1,8,0:0:0:0:
248,192,3875,1,0,0:0:0:0:
248,192,4037,1,8,0:0:0:0:
248,192,4361,1,0,0:0:0:0:
248,192,4523,1,0,0:0:0:0:
248,192,4685,1,8,0:0:0:0:
248,192,5172,1,4,0:0:0:0:
248,192,5334,1,12,0:0:0:0:
248,192,5496,1,0,0:0:0:0:
248,192,5658,1,8,0:0:0:0:
248,192,5983,1,0,0:0:0:0:
248,192,6145,1,8,0:0:0:0:
248,192,6469,1,0,0:0:0:0:
248,192,6631,1,8,0:0:0:0:
248,192,6956,1,0,0:0:0:0:
248,192,7118,1,0,0:0:0:0:
248,192,7280,1,8,0:0:0:0:
248,192,7767,1,12,0:0:0:0:
248,192,7929,1,12,0:0:0:0:
248,192,8091,1,0,0:0:0:0:
248,192,8253,1,8,0:0:0:0:
248,192,8577,1,0,0:0:0:0:
248,192,8739,1,8,0:0:0:0:
248,192,9064,1,0,0:0:0:0:
248,192,9226,1,8,0:0:0:0:
248,192,9550,1,0,0:0:0:0:
248,192,9713,1,0,0:0:0:0:
248,192,9875,1,8,0:0:0:0:
248,192,10199,1,8,0:0:0:0:
248,192,10361,1,8,0:0:0:0:
248,192,10523,1,12,0:0:0:0:
248,192,10848,1,12,0:0:0:0:
248,192,11172,1,12,0:0:0:0:
248,192,11496,1,12,0:0:0:0:
248,192,11821,1,12,0:0:0:0:
248,192,11983,1,12,0:0:0:0:
248,192,12145,1,12,0:0:0:0:
248,192,12307,1,12,0:0:0:0:
248,192,12469,1,12,0:0:0:0:
248,192,12794,1,12,0:0:0:0:
248,192,13118,1,12,0:0:0:0:
256,200,13442,1,8,0:0:0:0:
256,200,13604,1,0,0:0:0:0:
256,200,13767,1,0,0:0:0:0:
256,200,13929,1,8,0:0:0:0:
256,200,14253,1,0,0:0:0:0:
256,200,14415,1,8,0:0:0:0:
256,200,14740,1,0,0:0:0:0:
256,200,14902,1,8,0:0:0:0:
256,200,15064,1,0,0:0:0:0:
256,200,15145,1,0,0:0:0:0:
256,200,15226,1,0,0:0:0:0:
256,200,15388,1,8,0:0:0:0:
256,200,15713,1,8,0:0:0:0:
256,200,16037,1,8,0:0:0:0:
256,200,16199,1,0,0:0:0:0:
256,200,16361,1,0,0:0:0:0:
256,200,16523,1,8,0:0:0:0:
256,200,16848,1,0,0:0:0:0:
256,200,17010,1,8,0:0:0:0:
256,200,17334,1,0,0:0:0:0:
256,200,17496,1,0,0:0:0:0:
256,200,17658,1,8,0:0:0:0:
256,200,17821,1,0,0:0:0:0:
256,200,17902,1,0,0:0:0:0:
256,200,17983,1,8,0:0:0:0:
256,200,18307,1,8,0:0:0:0:
256,200,18469,1,0,0:0:0:0:
256,200,18631,1,8,0:0:0:0:
256,200,18794,1,0,0:0:0:0:
256,200,18956,1,0,0:0:0:0:
256,200,19118,1,8,0:0:0:0:
256,200,19442,1,0,0:0:0:0:
256,200,19604,1,8,0:0:0:0:
256,200,19767,1,8,0:0:0:0:
256,200,19929,1,0,0:0:0:0:
256,200,20091,1,0,0:0:0:0:
256,200,20253,1,8,0:0:0:0:
256,200,20577,1,8,0:0:0:0:
256,200,20902,1,8,0:0:0:0:
256,200,21226,1,8,0:0:0:0:
256,200,21388,1,0,0:0:0:0:
256,200,21550,1,0,0:0:0:0:
256,200,21713,1,8,0:0:0:0:
256,200,22037,1,0,0:0:0:0:
256,200,22199,1,8,0:0:0:0:
256,200,22361,1,0,0:0:0:0:
256,200,22523,1,8,0:0:0:0:
256,200,22848,1,8,0:0:0:0:
256,200,23010,1,8,0:0:0:0:
256,200,23172,1,8,0:0:0:0:
256,200,23253,1,8,0:0:0:0:
256,200,23334,1,8,0:0:0:0:
256,200,23496,1,0,0:0:0:0:
256,200,24794,1,0,0:0:0:0:
256,200,24875,1,0,0:0:0:0:
256,200,24956,1,8,0:0:0:0:
256,200,25118,1,0,0:0:0:0:
256,200,25280,1,8,0:0:0:0:
256,200,25442,1,0,0:0:0:0:
256,200,25767,1,8,0:0:0:0:
256,200,25929,1,0,0:0:0:0:
256,200,26091,1,8,0:0:0:0:
256,200,26415,1,0,0:0:0:0:
256,200,26496,1,0,0:0:0:0:
256,200,26577,1,0,0:0:0:0:
256,200,26740,1,8,0:0:0:0:
256,200,26902,1,0,0:0:0:0:
256,200,27064,1,0,0:0:0:0:
256,200,27388,1,8,0:0:0:0:
256,200,27550,1,0,0:0:0:0:
256,200,27713,1,8,0:0:0:0:
256,200,27875,1,0,0:0:0:0:
256,200,28037,1,0,0:0:0:0:
256,200,28361,1,8,0:0:0:0:
256,200,28685,1,0,0:0:0:0:
256,200,28848,1,8,0:0:0:0:
256,200,29010,1,0,0:0:0:0:
256,200,29172,1,0,0:0:0:0:
256,200,29334,1,8,0:0:0:0:
256,200,29496,1,0,0:0:0:0:
256,200,29658,1,8,0:0:0:0:
256,200,29821,1,0,0:0:0:0:
256,200,29983,1,12,0:0:0:0:
256,200,30307,1,0,0:0:0:0:
256,200,30388,1,0,0:0:0:0:
256,200,30469,1,0,0:0:0:0:
256,200,30631,1,12,0:0:0:0:
256,200,30956,1,0,0:0:0:0:
256,200,31037,1,0,0:0:0:0:
256,200,31118,1,0,0:0:0:0:
256,200,31280,1,12,0:0:0:0:
256,200,31604,1,0,0:0:0:0:
256,200,31685,1,0,0:0:0:0:
256,200,31766,1,0,0:0:0:0:
256,200,31929,1,12,0:0:0:0:
256,200,32253,1,0,0:0:0:0:
256,200,32334,1,0,0:0:0:0:
256,200,32415,1,8,0:0:0:0:
256,200,32577,1,0,0:0:0:0:
256,200,32902,1,0,0:0:0:0:
256,200,33226,1,0,0:0:0:0:
256,200,33550,1,0,0:0:0:0:
256,200,33713,1,8,0:0:0:0:
256,200,33875,1,8,0:0:0:0:
256,200,34118,1,8,0:0:0:0:
256,200,34361,1,8,0:0:0:0:
256,200,34604,1,8,0:0:0:0:
256,200,34848,1,8,0:0:0:0:
256,200,35010,1,8,0:0:0:0:
256,200,35172,1,12,0:0:0:0:
256,200,35496,1,0,0:0:0:0:
256,200,35658,1,8,0:0:0:0:
256,200,35983,1,0,0:0:0:0:
256,200,36145,1,8,0:0:0:0:
256,200,36307,1,0,0:0:0:0:
256,200,36469,1,8,0:0:0:0:
256,200,36794,1,0,0:0:0:0:
256,200,36956,1,8,0:0:0:0:
256,200,37281,1,0,0:0:0:0:
256,200,37361,1,0,0:0:0:0:
256,200,37443,1,8,0:0:0:0:
256,200,37767,1,8,0:0:0:0:
256,200,38091,1,0,0:0:0:0:
256,200,38253,1,8,0:0:0:0:
256,200,38578,1,0,0:0:0:0:
256,200,38740,1,8,0:0:0:0:
256,200,38902,1,0,0:0:0:0:
256,200,39064,1,0,0:0:0:0:
256,200,39388,1,0,0:0:0:0:
256,200,39550,1,8,0:0:0:0:
256,200,39713,1,0,0:0:0:0:
256,200,39875,1,0,0:0:0:0:
256,200,40037,1,8,0:0:0:0:
256,200,40118,1,8,0:0:0:0:
256,200,40199,1,8,0:0:0:0:
256,200,40361,1,8,0:0:0:0:
256,200,40685,1,0,0:0:0:0:
256,200,40847,1,8,0:0:0:0:
256,200,41172,1,0,0:0:0:0:
256,200,41334,1,8,0:0:0:0:
256,200,41496,1,0,0:0:0:0:
256,200,41658,1,8,0:0:0:0:
256,200,41983,1,0,0:0:0:0:
256,200,42145,1,8,0:0:0:0:
256,200,42470,1,0,0:0:0:0:
256,200,42550,1,0,0:0:0:0:
256,200,42632,1,8,0:0:0:0:
256,200,42956,1,8,0:0:0:0:
256,200,43280,1,0,0:0:0:0:
256,200,43442,1,8,0:0:0:0:
256,200,43767,1,0,0:0:0:0:
256,200,43929,1,8,0:0:0:0:
256,200,44091,1,0,0:0:0:0:
256,200,44253,1,0,0:0:0:0:
256,200,44415,1,0,0:0:0:0:
256,200,44496,1,0,0:0:0:0:
256,200,44577,1,0,0:0:0:0:
256,200,44739,1,8,0:0:0:0:
256,200,45064,1,0,0:0:0:0:
256,200,45226,1,8,0:0:0:0:
256,200,45307,1,8,0:0:0:0:
256,200,45388,1,8,0:0:0:0:
256,200,45550,1,8,0:0:0:0:
248,192,47821,1,0,0:0:0:0:
248,192,47983,1,8,0:0:0:0:
248,192,48145,1,0,0:0:0:0:
256,184,48469,1,8,0:0:0:0:
256,184,48794,1,0,0:0:0:0:
256,184,48956,1,8,0:0:0:0:
256,184,49280,1,0,0:0:0:0:
256,184,49604,1,0,0:0:0:0:
256,184,49767,1,8,0:0:0:0:
256,184,50091,1,0,0:0:0:0:
256,184,50415,1,8,0:0:0:0:
256,184,50740,1,8,0:0:0:0:
256,184,51226,1,0,0:0:0:0:
256,184,52037,1,0,0:0:0:0:
256,184,52685,1,8,0:0:0:0:
256,184,53010,1,0,0:0:0:0:
256,184,53334,1,8,0:0:0:0:
256,184,54145,1,8,0:0:0:0:
256,184,54307,1,8,0:0:0:0:
256,184,54469,1,0,0:0:0:0:
256,184,55280,1,0,0:0:0:0:
256,184,55604,1,8,0:0:0:0:
256,184,55929,1,0,0:0:0:0:
256,184,56415,1,0,0:0:0:0:
256,184,57226,1,8,0:0:0:0:
256,184,57713,1,8,0:0:0:0:
256,184,58523,1,8,0:0:0:0:
256,184,58767,1,8,0:0:0:0:
256,184,59010,1,8,0:0:0:0:
256,184,59172,1,0,0:0:0:0:
256,192,59821,12,0,60794,0:0:0:0:
256,184,61118,5,8,0:0:0:0:
256,184,61361,5,8,0:0:0:0:
256,184,61604,1,8,0:0:0:0:
256,184,61767,1,0,0:0:0:0:
256,192,62415,12,0,63064,0:0:0:0:
256,184,63388,5,0,0:0:0:0:
256,184,63550,1,0,0:0:0:0:
256,184,63713,1,8,0:0:0:0:
256,184,64199,1,0,0:0:0:0:
256,184,64685,1,8,0:0:0:0:
256,184,65010,1,0,0:0:0:0:
256,184,65496,1,0,0:0:0:0:
256,184,65983,1,8,0:0:0:0:
256,184,66307,1,8,0:0:0:0:
256,184,66794,1,0,0:0:0:0:
256,184,67442,1,8,0:0:0:0:
256,184,67523,1,8,0:0:0:0:
256,184,67605,1,0,0:0:0:0:
256,184,68577,1,0,0:0:0:0:
256,184,68740,1,8,0:0:0:0:
256,184,68902,1,0,0:0:0:0:
256,184,69226,1,8,0:0:0:0:
256,184,69550,1,0,0:0:0:0:
256,184,69713,1,8,0:0:0:0:
256,184,70037,1,0,0:0:0:0:
256,184,70361,1,0,0:0:0:0:
256,184,70523,1,0,0:0:0:0:
256,184,70848,1,0,0:0:0:0:
256,184,71172,1,8,0:0:0:0:
256,184,71496,1,8,0:0:0:0:
256,184,71983,1,0,0:0:0:0:
256,184,73767,1,0,0:0:0:0:
256,184,74091,1,8,0:0:0:0:
256,184,74902,1,8,0:0:0:0:
256,184,75064,1,8,0:0:0:0:
256,184,75226,1,0,0:0:0:0:
256,184,76037,1,0,0:0:0:0:
256,184,76361,1,8,0:0:0:0:
256,184,76685,1,0,0:0:0:0:
256,184,77172,1,8,0:0:0:0:
256,184,77983,1,8,0:0:0:0:
256,184,78469,1,8,0:0:0:0:
256,184,79280,1,8,0:0:0:0:
256,184,79523,1,8,0:0:0:0:
256,184,79767,1,8,0:0:0:0:
256,184,79929,1,0,0:0:0:0:
104,248,80577,2,0,L|512:72,1,420
256,184,81875,5,8,0:0:0:0:
256,184,82118,1,8,0:0:0:0:
256,184,82361,1,8,0:0:0:0:
256,184,82523,1,0,0:0:0:0:
256,184,83172,2,0,L|528:96,1,280
256,184,84145,5,0,0:0:0:0:
256,184,84307,1,0,0:0:0:0:
256,184,84469,1,8,0:0:0:0:
256,184,84956,1,0,0:0:0:0:
256,184,85442,1,8,0:0:0:0:
256,184,85767,1,0,0:0:0:0:
256,184,86253,1,0,0:0:0:0:
256,184,86740,1,8,0:0:0:0:
256,184,87064,1,8,0:0:0:0:
256,184,87550,1,0,0:0:0:0:
256,192,87713,12,0,89334,0:0:0:0:
248,192,89658,5,4,0:0:0:0:
256,200,89983,1,8,0:0:0:0:
256,200,90307,1,0,0:0:0:0:
256,200,90469,1,8,0:0:0:0:
256,200,90794,1,0,0:0:0:0:
256,200,91118,1,8,0:0:0:0:
256,200,91280,1,0,0:0:0:0:
256,200,91604,1,0,0:0:0:0:
256,200,91929,1,8,0:0:0:0:
256,200,92253,1,8,0:0:0:0:
256,200,92415,1,0,0:0:0:0:
256,200,92496,1,0,0:0:0:0:
256,200,92577,1,0,0:0:0:0:
256,200,92740,1,8,0:0:0:0:
256,200,93064,1,0,0:0:0:0:
256,200,93388,1,0,0:0:0:0:
256,200,93550,1,8,0:0:0:0:
256,200,93713,1,0,0:0:0:0:
256,200,93794,1,0,0:0:0:0:
256,200,93875,1,0,0:0:0:0:
256,200,94037,1,8,0:0:0:0:
256,200,94361,1,0,0:0:0:0:
256,200,94523,1,0,0:0:0:0:
256,200,94685,1,0,0:0:0:0:
256,200,94848,1,8,0:0:0:0:
256,200,95658,1,8,0:0:0:0:
256,200,95820,1,8,0:0:0:0:
256,200,95982,1,0,0:0:0:0:
256,200,96794,1,0,0:0:0:0:
256,200,97118,1,8,0:0:0:0:
256,200,97442,1,8,0:0:0:0:
256,200,97604,1,0,0:0:0:0:
256,200,97685,1,0,0:0:0:0:
256,200,97767,1,0,0:0:0:0:
256,200,97929,1,8,0:0:0:0:
256,200,98253,1,0,0:0:0:0:
256,200,98577,1,0,0:0:0:0:
256,200,98740,1,8,0:0:0:0:
256,200,98902,1,0,0:0:0:0:
256,200,98983,1,0,0:0:0:0:
256,200,99065,1,0,0:0:0:0:
256,200,99227,1,8,0:0:0:0:
256,200,99713,1,8,0:0:0:0:
256,200,99875,1,0,0:0:0:0:
256,200,100037,1,8,0:0:0:0:
256,200,100280,1,8,0:0:0:0:
256,200,100523,1,8,0:0:0:0:
256,200,100685,1,0,0:0:0:0:
256,192,101334,12,0,102307,0:0:0:0:
256,200,102631,5,8,0:0:0:0:
256,200,102874,1,8,0:0:0:0:
256,200,103117,1,8,0:0:0:0:
256,200,103279,1,0,0:0:0:0:
256,192,103928,12,0,104577,0:0:0:0:
256,200,104902,5,0,0:0:0:0:
256,200,105064,1,0,0:0:0:0:
256,200,105226,1,8,0:0:0:0:
256,200,105713,1,0,0:0:0:0:
256,200,106199,1,8,0:0:0:0:
256,200,106523,1,0,0:0:0:0:
256,200,107010,1,0,0:0:0:0:
256,200,107496,1,8,0:0:0:0:
256,200,107821,1,8,0:0:0:0:
256,200,108307,1,8,0:0:0:0:
256,200,108794,1,0,0:0:0:0:
256,200,108956,1,8,0:0:0:0:
256,200,109118,1,0,0:0:0:0:
256,200,109442,1,8,0:0:0:0:
256,200,109605,1,0,0:0:0:0:
256,200,109686,1,0,0:0:0:0:
256,200,109767,1,8,0:0:0:0:
256,200,109929,1,0,0:0:0:0:
256,200,110091,1,0,0:0:0:0:
256,200,110253,1,8,0:0:0:0:
256,192,110415,12,0,111388,0:0:0:0:
256,200,111713,5,12,0:0:0:0:
256,200,112037,1,0,0:0:0:0:
256,200,112199,1,8,0:0:0:0:
256,200,112524,1,0,0:0:0:0:
256,200,112686,1,8,0:0:0:0:
256,200,112848,1,0,0:0:0:0:
256,200,113010,1,8,0:0:0:0:
256,200,113335,1,0,0:0:0:0:
256,200,113497,1,8,0:0:0:0:
256,200,113822,1,0,0:0:0:0:
256,200,113902,1,0,0:0:0:0:
256,200,113984,1,8,0:0:0:0:
256,200,114308,1,8,0:0:0:0:
256,200,114632,1,0,0:0:0:0:
256,200,114794,1,8,0:0:0:0:
256,200,115119,1,0,0:0:0:0:
256,200,115281,1,8,0:0:0:0:
256,200,115443,1,0,0:0:0:0:
256,200,115605,1,0,0:0:0:0:
256,200,115929,1,0,0:0:0:0:
256,200,116091,1,8,0:0:0:0:
256,200,116254,1,0,0:0:0:0:
256,200,116416,1,0,0:0:0:0:
256,200,116578,1,8,0:0:0:0:
256,200,116659,1,8,0:0:0:0:
256,200,116740,1,8,0:0:0:0:
256,200,116902,1,8,0:0:0:0:
256,200,117226,1,0,0:0:0:0:
256,200,117388,1,8,0:0:0:0:
256,200,117713,1,0,0:0:0:0:
256,200,117875,1,8,0:0:0:0:
256,200,118037,1,0,0:0:0:0:
256,200,118199,1,8,0:0:0:0:
256,200,118524,1,0,0:0:0:0:
256,200,118686,1,8,0:0:0:0:
256,200,119011,5,0,0:0:0:0:
256,200,119091,1,0,0:0:0:0:
256,200,119173,1,8,0:0:0:0:
256,200,119497,1,8,0:0:0:0:
256,200,119821,1,0,0:0:0:0:
256,200,119983,1,8,0:0:0:0:
256,200,120308,5,0,0:0:0:0:
256,200,120470,1,8,0:0:0:0:
256,200,120632,1,0,0:0:0:0:
256,200,120794,1,8,0:0:0:0:
256,200,121037,1,8,0:0:0:0:
256,200,121280,1,8,0:0:0:0:
256,200,121523,1,8,0:0:0:0:
256,200,121767,1,0,0:0:0:0:
256,200,121929,1,8,0:0:0:0:
256,200,122091,1,12,0:0:0:0:
