osu file format v14

[General]
AudioFilename: audio.mp3
AudioLeadIn: 0
PreviewTime: 35172
Countdown: 0
SampleSet: Normal
StackLeniency: 0.7
Mode: 1
LetterboxInBreaks: 0
WidescreenStoryboard: 0

[Editor]
Bookmarks: 13118
DistanceSpacing: 0.8
BeatDivisor: 4
GridSize: 8
TimelineZoom: 1.3

[Metadata]
Title:Persephone
TitleUnicode:Persephone
Artist:EBICO
ArtistUnicode:EBICO
Creator:Zpmzpm
Version:Kantan
Source:Dynamix
Tags:hachi zyon slit isabella olivia quiterie hard renaissance zpm electronic
BeatmapID:1234963
BeatmapSetID:549577

[Difficulty]
HPDrainRate:8
CircleSize:2
OverallDifficulty:3
ApproachRate:5
SliderMultiplier:1.4
SliderTickRate:1

[Events]
//Background and Video events
0,0,"nicebgoke.jpg",0,0
//Break Periods
//Storyboard Layer 0 (Background)
//Storyboard Layer 1 (Fail)
//Storyboard Layer 2 (Pass)
//Storyboard Layer 3 (Foreground)
//Storyboard Sound Samples

[TimingPoints]
2740.03573470553,324.324324324324,4,1,0,100,1,0
35172,-100,4,1,0,100,0,1
45550,-100,4,1,0,100,0,0
47821,-111.111111111111,4,1,0,100,0,0
48145,-125,4,1,0,100,0,0
68902,-111.111111111111,4,1,0,100,0,0
79280,-100,4,1,0,100,0,0
111713,-100,4,1,0,100,0,1
122172,-125,4,1,0,100,0,0

[HitObjects]
248,192,2740,5,4,0:0:0:0:
248,192,5334,1,0,0:0:0:0:
248,192,7929,1,0,0:0:0:0:
248,192,10523,1,0,0:0:0:0:
248,192,11172,1,0,0:0:0:0:
248,192,11821,1,0,0:0:0:0:
248,192,12145,1,0,0:0:0:0:
248,192,12469,1,8,0:0:0:0:
248,192,12794,1,8,0:0:0:0:
248,192,13118,1,4,0:0:0:0:
248,192,14415,1,0,0:0:0:0:
248,192,15064,1,8,0:0:0:0:
248,192,15713,1,0,0:0:0:0:
248,192,17010,1,0,0:0:0:0:
248,192,17658,1,0,0:0:0:0:
248,192,17983,1,8,0:0:0:0:
248,192,18307,1,0,0:0:0:0:
248,192,19604,1,0,0:0:0:0:
248,192,20253,1,8,0:0:0:0:
248,192,20902,1,0,0:0:0:0:
248,192,22199,1,0,0:0:0:0:
248,192,22847,1,0,0:0:0:0:
248,192,23172,1,8,0:0:0:0:
248,192,23496,1,4,0:0:0:0:
256,192,24794,1,0,0:0:0:0:
256,192,25442,1,0,0:0:0:0:
256,192,26091,1,8,0:0:0:0:
256,192,27388,1,8,0:0:0:0:
256,192,28685,1,0,0:0:0:0:
256,192,29334,1,8,0:0:0:0:
256,192,29658,1,0,0:0:0:0:
256,192,29983,1,12,0:0:0:0:
256,192,30631,1,12,0:0:0:0:
256,192,31280,1,12,0:0:0:0:
256,192,31929,1,12,0:0:0:0:
256,192,32577,1,4,0:0:0:0:
256,192,33875,1,8,0:0:0:0:
248,192,35172,1,12,0:0:0:0:
248,192,36469,1,8,0:0:0:0:
248,192,37442,1,8,0:0:0:0:
248,192,37767,1,0,0:0:0:0:
248,192,39064,1,0,0:0:0:0:
248,192,39713,1,0,0:0:0:0:
248,192,40037,1,8,0:0:0:0:
248,192,40361,1,12,0:0:0:0:
248,192,41658,1,8,0:0:0:0:
248,192,42631,1,8,0:0:0:0:
248,192,42956,1,0,0:0:0:0:
248,192,44253,1,0,0:0:0:0:
248,192,44902,1,8,0:0:0:0:
248,192,45226,1,8,0:0:0:0:
248,192,45550,1,4,0:0:0:0:
256,184,47821,1,0,0:0:0:0:
256,184,48145,1,0,0:0:0:0:
256,184,49442,1,0,0:0:0:0:
256,184,50091,1,0,0:0:0:0:
256,184,50740,1,8,0:0:0:0:
248,192,52037,1,0,0:0:0:0:
256,184,53334,1,8,0:0:0:0:
256,200,54631,1,0,0:0:0:0:
256,200,55280,1,8,0:0:0:0:
256,200,55929,1,0,0:0:0:0:
256,200,57226,1,8,0:0:0:0:
256,200,58523,1,8,0:0:0:0:
256,200,59172,1,0,0:0:0:0:
256,200,59821,1,0,0:0:0:0:
256,200,61118,5,8,0:0:0:0:
256,200,61767,1,0,0:0:0:0:
256,200,62415,1,8,0:0:0:0:
256,200,63388,5,0,0:0:0:0:
248,200,63713,1,8,0:0:0:0:
248,200,64685,1,8,0:0:0:0:
248,200,65010,1,0,0:0:0:0:
248,200,65983,1,8,0:0:0:0:
248,200,66307,1,8,0:0:0:0:
248,200,67604,1,0,0:0:0:0:
248,200,68902,1,4,0:0:0:0:
248,200,70037,1,0,0:0:0:0:
248,200,70848,1,0,0:0:0:0:
248,200,71172,1,8,0:0:0:0:
248,200,71496,1,12,0:0:0:0:
248,200,72794,1,0,0:0:0:0:
248,200,74091,1,8,0:0:0:0:
248,200,75226,1,0,0:0:0:0:
248,200,76037,1,0,0:0:0:0:
248,200,76685,1,0,0:0:0:0:
248,200,77983,1,8,0:0:0:0:
248,200,79280,1,12,0:0:0:0:
256,208,80577,1,8,0:0:0:0:
248,200,81226,1,0,0:0:0:0:
248,200,81875,5,8,0:0:0:0:
232,200,83172,1,8,0:0:0:0:
248,200,83821,1,0,0:0:0:0:
248,200,84145,5,0,0:0:0:0:
256,192,84469,5,8,0:0:0:0:
248,200,85442,1,8,0:0:0:0:
248,200,85767,1,0,0:0:0:0:
248,200,86740,1,8,0:0:0:0:
248,200,87064,1,8,0:0:0:0:
248,200,87550,1,8,0:0:0:0:
256,192,89658,1,4,0:0:0:0:
256,192,90956,1,0,0:0:0:0:
256,192,92253,1,8,0:0:0:0:
256,192,92740,1,0,0:0:0:0:
256,192,94523,1,0,0:0:0:0:
256,192,94848,1,12,0:0:0:0:
256,192,95658,1,8,0:0:0:0:
256,192,95983,1,0,0:0:0:0:
256,192,96794,1,0,0:0:0:0:
256,192,97442,1,0,0:0:0:0:
256,192,97929,1,8,0:0:0:0:
256,192,98740,1,8,0:0:0:0:
256,192,99226,1,8,0:0:0:0:
256,192,100037,1,8,0:0:0:0:
256,192,100685,1,0,0:0:0:0:
256,192,101334,1,0,0:0:0:0:
256,192,102631,5,8,0:0:0:0:
256,192,103279,1,0,0:0:0:0:
264,192,103929,1,8,0:0:0:0:
256,192,104902,5,0,0:0:0:0:
248,192,105226,5,12,0:0:0:0:
256,192,106523,1,4,0:0:0:0:
256,192,107821,1,8,0:0:0:0:
256,192,108307,1,0,0:0:0:0:
256,192,109118,12,0,110091,0:0:0:0:
256,192,110415,5,0,0:0:0:0:
248,192,111713,1,12,0:0:0:0:
248,192,113010,1,8,0:0:0:0:
248,192,113983,1,8,0:0:0:0:
248,192,114308,1,0,0:0:0:0:
248,192,115605,1,0,0:0:0:0:
248,192,116254,1,0,0:0:0:0:
248,192,116578,1,8,0:0:0:0:
248,192,116902,1,12,0:0:0:0:
248,192,118199,1,8,0:0:0:0:
248,192,119172,1,8,0:0:0:0:
248,192,119497,1,0,0:0:0:0:
248,192,120794,1,8,0:0:0:0:
248,192,121443,1,8,0:0:0:0:
248,192,121767,1,0,0:0:0:0:
248,192,122091,1,8,0:0:0:0:
