osu file format v14

[General]
AudioFilename: Songs_31_audio.mp3
AudioLeadIn: 0
PreviewTime: 24660
Countdown: 0
SampleSet: Soft
StackLeniency: 0.7
Mode: 3
LetterboxInBreaks: 0
SpecialStyle: 0
WidescreenStoryboard: 0

[Editor]
Bookmarks: 45173
DistanceSpacing: 0.8
BeatDivisor: 8
GridSize: 32
TimelineZoom: 1.800001

[Metadata]
Title:Persephone
TitleUnicode:Persephone
Artist:EBICO
ArtistUnicode:EBICO
Creator:Takane6
Version:Pyanother
Source:Hachi Hachi
Tags:UNDERWORLD RENAISSANCE Dynamix PyaKura MEGAtive Rivals_7 Kamikaze
BeatmapID:858239
BeatmapSetID:391796

[Difficulty]
HPDrainRate:8.8
CircleSize:7
OverallDifficulty:8.6
ApproachRate:5
SliderMultiplier:1.4
SliderTickRate:4

[Events]
//Background and Video events
0,0,"Persephone.jpg",0,0
//Break Periods
//Storyboard Layer 0 (Background)
//Storyboard Layer 1 (Fail)
//Storyboard Layer 2 (Pass)
//Storyboard Layer 3 (Foreground)
//Storyboard Sound Samples

[TimingPoints]
2606,324.324324324324,4,2,1,35,1,0
35038,-100,4,2,1,35,0,1
45416,-125,4,2,1,35,0,0
68768,-100,4,2,1,35,0,0
111578,-100,4,2,1,35,0,1
121957,-100,4,2,1,35,0,0

[HitObjects]
36,192,2606,5,4,0:0:0:0:
109,192,2606,1,2,0:0:0:0:
475,192,2606,1,0,0:0:0:0:
256,192,2606,1,0,0:0:0:0:
182,192,2768,1,0,0:0:0:0:
329,192,2930,1,0,0:0:0:0:
182,192,3254,1,0,0:0:0:0:
329,192,3416,1,0,0:0:0:0:
182,192,3741,1,0,0:0:0:0:
329,192,3903,1,0,0:0:0:0:
182,192,4227,1,0,0:0:0:0:
256,192,4389,1,0,0:0:0:0:
475,192,4551,1,0,0:0:0:0:
402,192,4876,1,0,0:0:0:0:
36,192,5038,1,4,0:0:0:0:
109,192,5038,1,2,0:0:0:0:
109,192,5200,1,4,0:0:0:0:
36,192,5200,1,2,0:0:0:0:
256,192,5200,1,0,0:0:0:0:
329,192,5362,1,0,0:0:0:0:
402,192,5524,1,0,0:0:0:0:
182,192,5849,1,0,0:0:0:0:
329,192,6011,1,0,0:0:0:0:
109,192,6335,1,0,0:0:0:0:
256,192,6497,1,0,0:0:0:0:
182,192,6822,1,0,0:0:0:0:
329,192,6984,1,0,0:0:0:0:
475,192,7146,1,0,0:0:0:0:
402,192,7470,1,0,0:0:0:0:
36,192,7633,1,2,0:0:0:0:
109,192,7633,1,4,0:0:0:0:
182,192,7714,1,2,0:0:0:0:
36,192,7795,1,4,0:0:0:0:
109,192,7795,1,2,0:0:0:0:
329,192,7795,1,0,0:0:0:0:
256,192,7957,1,0,0:0:0:0:
402,192,8119,1,0,0:0:0:0:
182,192,8443,1,0,0:0:0:0:
329,192,8605,1,0,0:0:0:0:
109,192,8930,1,0,0:0:0:0:
256,192,9092,1,0,0:0:0:0:
182,192,9416,1,0,0:0:0:0:
329,192,9578,1,0,0:0:0:0:
475,192,9741,1,0,0:0:0:0:
402,192,10065,1,4,0:0:0:0:
36,192,10065,1,2,0:0:0:0:
109,192,10065,1,0,0:0:0:0:
109,192,10227,1,4,0:0:0:0:
36,192,10227,1,2,0:0:0:0:
182,192,10227,1,0,0:0:0:0:
36,192,10389,1,2,0:0:0:0:
109,192,10389,1,4,0:0:0:0:
329,192,10389,1,0,0:0:0:0:
256,192,10551,1,0,0:0:0:0:
36,192,10714,1,2,0:0:0:0:
109,192,10714,1,4,0:0:0:0:
329,192,10714,1,0,0:0:0:0:
36,192,11038,1,2,0:0:0:0:
109,192,11038,1,4,0:0:0:0:
256,192,11038,1,0,0:0:0:0:
329,192,11200,1,0,0:0:0:0:
36,192,11362,1,2,0:0:0:0:
109,192,11362,1,4,0:0:0:0:
329,192,11362,1,0,0:0:0:0:
256,192,11524,1,0,0:0:0:0:
36,192,11687,1,2,0:0:0:0:
182,192,11687,1,4,0:0:0:0:
329,192,11687,1,0,0:0:0:0:
36,192,11849,1,4,0:0:0:0:
182,192,11849,1,2,0:0:0:0:
329,192,11849,1,0,0:0:0:0:
182,192,12011,1,4,0:0:0:0:
36,192,12011,1,2,0:0:0:0:
256,192,12011,1,0,0:0:0:0:
36,192,12173,1,4,0:0:0:0:
182,192,12173,1,2,0:0:0:0:
329,192,12173,1,0,0:0:0:0:
402,192,12335,1,4,0:0:0:0:
475,192,12335,1,2,0:0:0:0:
109,192,12335,1,0,0:0:0:0:
329,192,12416,1,2,0:0:0:0:
256,192,12416,1,0,0:0:0:0:
475,192,12497,1,2,0:0:0:0:
402,192,12497,1,0,0:0:0:0:
256,192,12578,1,2,0:0:0:0:
329,192,12578,1,0,0:0:0:0:
36,192,12660,1,2,0:0:0:0:
109,192,12660,1,0,0:0:0:0:
402,192,12660,1,0,0:0:0:0:
182,192,12741,1,2,0:0:0:0:
256,192,12741,1,0,0:0:0:0:
109,192,12822,1,2,0:0:0:0:
36,192,12822,1,0,0:0:0:0:
182,192,12903,1,2,0:0:0:0:
256,192,12903,1,0,0:0:0:0:
109,192,12984,1,4,0:0:0:0:
36,192,12984,1,2,0:0:0:0:
402,192,12984,1,0,0:0:0:0:
475,192,12984,1,0,0:0:0:0:
402,192,13146,1,8,0:0:0:0:
182,192,13146,1,0,0:0:0:0:
329,192,13227,1,8,0:0:0:0:
402,192,13308,1,8,0:0:0:0:
109,192,13308,1,0,0:0:0:0:
182,192,13470,1,4,0:0:0:0:
329,192,13470,1,2,0:0:0:0:
475,192,13470,1,0,0:0:0:0:
109,192,13633,1,0,0:0:0:0:
402,192,13633,1,0,0:0:0:0:
109,192,13795,1,8,0:0:0:0:
329,192,13795,1,2,0:0:0:0:
182,192,13876,1,8,0:0:0:0:
109,192,13957,1,8,0:0:0:0:
402,192,13957,1,2,0:0:0:0:
36,192,14119,1,8,0:0:0:0:
182,192,14119,1,2,0:0:0:0:
329,192,14119,1,0,0:0:0:0:
182,192,14281,1,8,0:0:0:0:
329,192,14281,1,2,0:0:0:0:
475,192,14281,1,0,0:0:0:0:
402,192,14443,1,8,0:0:0:0:
109,192,14443,1,0,0:0:0:0:
329,192,14524,1,2,0:0:0:0:
182,192,14524,1,0,0:0:0:0:
256,192,14524,1,0,0:0:0:0:
402,192,14605,1,8,0:0:0:0:
109,192,14605,1,0,0:0:0:0:
402,192,14768,1,2,0:0:0:0:
36,192,14768,1,8,0:0:0:0:
182,192,14768,1,0,0:0:0:0:
329,192,14930,1,2,0:0:0:0:
475,192,14930,1,4,0:0:0:0:
109,192,14930,1,0,0:0:0:0:
256,192,15011,1,0,0:0:0:0:
182,192,15092,1,0,0:0:0:0:
109,192,15173,1,0,0:0:0:0:
475,192,15254,1,4,0:0:0:0:
36,192,15254,1,2,0:0:0:0:
256,192,15254,1,0,0:0:0:0:
402,192,15335,1,0,0:0:0:0:
329,192,15416,1,0,0:0:0:0:
256,192,15497,1,0,0:0:0:0:
182,192,15578,1,4,0:0:0:0:
36,192,15578,1,2,0:0:0:0:
402,192,15578,1,0,0:0:0:0:
109,192,15741,1,8,0:0:0:0:
402,192,15741,1,0,0:0:0:0:
329,192,15822,1,8,0:0:0:0:
402,192,15903,1,8,0:0:0:0:
182,192,15903,1,0,0:0:0:0:
329,192,16065,1,4,0:0:0:0:
475,192,16065,1,2,0:0:0:0:
36,192,16065,1,0,0:0:0:0:
402,192,16227,1,0,0:0:0:0:
109,192,16227,1,0,0:0:0:0:
329,192,16389,1,8,0:0:0:0:
475,192,16389,1,2,0:0:0:0:
109,192,16389,1,0,0:0:0:0:
182,192,16470,1,8,0:0:0:0:
402,192,16551,1,8,0:0:0:0:
109,192,16551,1,2,0:0:0:0:
36,192,16714,1,2,0:0:0:0:
182,192,16714,1,8,0:0:0:0:
329,192,16714,1,0,0:0:0:0:
182,192,16876,1,2,0:0:0:0:
329,192,16876,1,8,0:0:0:0:
475,192,16876,1,0,0:0:0:0:
402,192,17038,1,8,0:0:0:0:
109,192,17038,1,0,0:0:0:0:
329,192,17119,1,2,0:0:0:0:
182,192,17119,1,0,0:0:0:0:
256,192,17119,1,0,0:0:0:0:
402,192,17200,1,8,0:0:0:0:
109,192,17200,1,0,0:0:0:0:
109,192,17362,1,2,0:0:0:0:
329,192,17362,1,8,0:0:0:0:
475,192,17362,1,0,0:0:0:0:
402,192,17524,1,4,0:0:0:0:
182,192,17524,1,2,0:0:0:0:
36,192,17524,1,0,0:0:0:0:
256,192,17605,1,0,0:0:0:0:
475,192,17605,1,0,0:0:0:0:
329,192,17687,1,0,0:0:0:0:
109,192,17687,1,0,0:0:0:0:
182,192,17768,1,0,0:0:0:0:
402,192,17768,1,0,0:0:0:0:
475,192,17849,1,0,0:0:0:0:
256,192,17849,1,0,0:0:0:0:
36,192,17889,1,0,0:0:0:0:
109,192,17930,1,0,0:0:0:0:
182,192,17970,1,0,0:0:0:0:
475,192,18011,1,0,0:0:0:0:
402,192,18011,1,0,0:0:0:0:
329,192,18051,1,0,0:0:0:0:
256,192,18092,1,0,0:0:0:0:
182,192,18133,1,0,0:0:0:0:
475,192,18173,1,0,0:0:0:0:
36,192,18173,1,0,0:0:0:0:
109,192,18173,1,0,0:0:0:0:
402,192,18335,1,8,0:0:0:0:
109,192,18335,1,0,0:0:0:0:
182,192,18416,1,8,0:0:0:0:
109,192,18497,1,8,0:0:0:0:
329,192,18497,1,0,0:0:0:0:
36,192,18660,1,2,0:0:0:0:
182,192,18660,1,4,0:0:0:0:
475,192,18660,1,0,0:0:0:0:
109,192,18822,1,0,0:0:0:0:
402,192,18822,1,0,0:0:0:0:
402,192,18984,1,8,0:0:0:0:
182,192,18984,1,2,0:0:0:0:
36,192,18984,1,0,0:0:0:0:
329,192,19065,1,0,0:0:0:0:
402,192,19146,1,8,0:0:0:0:
109,192,19146,1,2,0:0:0:0:
36,192,19308,1,8,0:0:0:0:
182,192,19308,1,2,0:0:0:0:
329,192,19308,1,0,0:0:0:0:
182,192,19470,1,8,0:0:0:0:
329,192,19470,1,2,0:0:0:0:
475,192,19470,1,0,0:0:0:0:
109,192,19633,1,8,0:0:0:0:
402,192,19633,1,0,0:0:0:0:
182,192,19714,1,2,0:0:0:0:
256,192,19714,1,0,0:0:0:0:
329,192,19714,1,0,0:0:0:0:
109,192,19795,1,8,0:0:0:0:
402,192,19795,1,0,0:0:0:0:
109,192,19957,1,2,0:0:0:0:
256,192,19957,1,8,0:0:0:0:
402,192,19957,1,0,0:0:0:0:
36,192,20119,1,2,0:0:0:0:
475,192,20119,1,4,0:0:0:0:
256,192,20119,1,0,0:0:0:0:
182,192,20200,1,0,0:0:0:0:
402,192,20200,1,0,0:0:0:0:
109,192,20281,1,0,0:0:0:0:
329,192,20281,1,0,0:0:0:0:
36,192,20362,1,0,0:0:0:0:
475,192,20362,1,0,0:0:0:0:
182,192,20443,1,4,0:0:0:0:
402,192,20443,1,2,0:0:0:0:
256,192,20443,1,0,0:0:0:0:
109,192,20524,1,0,0:0:0:0:
329,192,20524,1,0,0:0:0:0:
36,192,20605,1,0,0:0:0:0:
475,192,20605,1,0,0:0:0:0:
182,192,20687,1,0,0:0:0:0:
402,192,20687,1,0,0:0:0:0:
109,192,20768,1,4,0:0:0:0:
329,192,20768,1,2,0:0:0:0:
256,192,20768,1,0,0:0:0:0:
109,192,20930,1,8,0:0:0:0:
402,192,20930,1,0,0:0:0:0:
182,192,21011,1,8,0:0:0:0:
109,192,21092,1,8,0:0:0:0:
329,192,21092,1,0,0:0:0:0:
182,192,21254,1,2,0:0:0:0:
36,192,21254,1,4,0:0:0:0:
475,192,21254,1,0,0:0:0:0:
109,192,21416,1,0,0:0:0:0:
402,192,21416,1,0,0:0:0:0:
402,192,21578,1,2,0:0:0:0:
182,192,21578,1,8,0:0:0:0:
36,192,21578,1,0,0:0:0:0:
329,192,21660,1,8,0:0:0:0:
402,192,21741,1,8,0:0:0:0:
109,192,21741,1,2,0:0:0:0:
182,192,21903,1,8,0:0:0:0:
36,192,21903,1,2,0:0:0:0:
329,192,21903,1,0,0:0:0:0:
182,192,22065,1,8,0:0:0:0:
329,192,22065,1,2,0:0:0:0:
475,192,22065,1,0,0:0:0:0:
109,192,22227,1,8,0:0:0:0:
402,192,22227,1,0,0:0:0:0:
182,192,22308,1,2,0:0:0:0:
256,192,22308,1,0,0:0:0:0:
329,192,22308,1,0,0:0:0:0:
109,192,22389,1,8,0:0:0:0:
402,192,22389,1,0,0:0:0:0:
109,192,22551,1,8,0:0:0:0:
256,192,22551,1,2,0:0:0:0:
402,192,22551,1,0,0:0:0:0:
36,192,22714,1,4,0:0:0:0:
182,192,22714,1,2,0:0:0:0:
329,192,22714,1,0,0:0:0:0:
256,192,22795,1,0,0:0:0:0:
475,192,22795,1,0,0:0:0:0:
109,192,22876,1,0,0:0:0:0:
402,192,22876,1,0,0:0:0:0:
182,192,22957,1,0,0:0:0:0:
329,192,22957,1,0,0:0:0:0:
36,192,23038,1,2,0:0:0:0:
256,192,23038,1,4,0:0:0:0:
475,192,23038,1,0,0:0:0:0:
109,192,23119,1,0,0:0:0:0:
402,192,23119,1,0,0:0:0:0:
182,192,23200,1,0,0:0:0:0:
329,192,23200,1,0,0:0:0:0:
402,192,23281,1,0,0:0:0:0:
36,192,23281,1,0,0:0:0:0:
109,192,23362,1,4,0:0:0:0:
475,192,23362,1,0,0:0:0:0:
256,192,23362,128,0,24660:0:0:0:0:
402,192,24660,1,2,0:0:0:0:
329,192,24660,1,0,0:0:0:0:
182,192,24660,1,0,0:0:0:0:
109,192,24741,1,0,0:0:0:0:
256,192,24822,1,0,0:0:0:0:
36,192,24822,1,0,0:0:0:0:
329,192,24903,1,0,0:0:0:0:
182,192,24984,1,2,0:0:0:0:
402,192,24984,1,0,0:0:0:0:
475,192,24984,1,0,0:0:0:0:
109,192,25065,1,0,0:0:0:0:
329,192,25146,1,0,0:0:0:0:
36,192,25146,1,0,0:0:0:0:
402,192,25227,1,0,0:0:0:0:
256,192,25308,1,2,0:0:0:0:
475,192,25308,1,0,0:0:0:0:
182,192,25389,1,0,0:0:0:0:
402,192,25470,1,0,0:0:0:0:
109,192,25470,1,0,0:0:0:0:
475,192,25551,1,0,0:0:0:0:
329,192,25633,1,2,0:0:0:0:
182,192,25633,1,0,0:0:0:0:
36,192,25633,1,0,0:0:0:0:
109,192,25714,1,0,0:0:0:0:
256,192,25795,1,0,0:0:0:0:
475,192,25795,1,0,0:0:0:0:
402,192,25876,1,0,0:0:0:0:
109,192,25957,1,2,0:0:0:0:
329,192,25957,1,0,0:0:0:0:
182,192,26038,1,0,0:0:0:0:
402,192,26119,1,0,0:0:0:0:
256,192,26119,1,0,0:0:0:0:
475,192,26200,1,0,0:0:0:0:
329,192,26281,1,2,0:0:0:0:
109,192,26281,1,0,0:0:0:0:
36,192,26281,1,0,0:0:0:0:
256,192,26362,1,0,0:0:0:0:
182,192,26443,1,0,0:0:0:0:
402,192,26443,1,0,0:0:0:0:
36,192,26524,1,0,0:0:0:0:
475,192,26605,1,2,0:0:0:0:
256,192,26605,1,0,0:0:0:0:
182,192,26687,1,0,0:0:0:0:
109,192,26768,1,0,0:0:0:0:
329,192,26768,1,0,0:0:0:0:
402,192,26849,1,0,0:0:0:0:
475,192,26930,1,2,0:0:0:0:
182,192,26930,1,0,0:0:0:0:
256,192,26930,1,0,0:0:0:0:
109,192,27011,1,0,0:0:0:0:
36,192,27092,1,0,0:0:0:0:
329,192,27092,1,0,0:0:0:0:
402,192,27173,1,0,0:0:0:0:
475,192,27254,1,2,0:0:0:0:
256,192,27254,1,4,0:0:0:0:
109,192,27254,1,0,0:0:0:0:
182,192,27254,1,0,0:0:0:0:
36,192,27335,1,0,0:0:0:0:
329,192,27416,1,0,0:0:0:0:
402,192,27416,1,0,0:0:0:0:
475,192,27497,1,0,0:0:0:0:
36,192,27578,1,2,0:0:0:0:
109,192,27578,1,0,0:0:0:0:
182,192,27578,1,0,0:0:0:0:
256,192,27660,1,0,0:0:0:0:
329,192,27741,1,0,0:0:0:0:
402,192,27741,1,0,0:0:0:0:
475,192,27822,1,0,0:0:0:0:
182,192,27903,1,2,0:0:0:0:
36,192,27903,1,0,0:0:0:0:
256,192,27984,1,0,0:0:0:0:
109,192,28065,1,0,0:0:0:0:
329,192,28065,1,0,0:0:0:0:
182,192,28146,1,0,0:0:0:0:
256,192,28227,1,2,0:0:0:0:
36,192,28227,1,0,0:0:0:0:
402,192,28227,1,0,0:0:0:0:
329,192,28308,1,0,0:0:0:0:
475,192,28389,1,0,0:0:0:0:
109,192,28389,1,0,0:0:0:0:
402,192,28470,1,0,0:0:0:0:
36,192,28551,1,2,0:0:0:0:
256,192,28551,1,0,0:0:0:0:
182,192,28633,1,0,0:0:0:0:
109,192,28714,1,0,0:0:0:0:
402,192,28714,1,0,0:0:0:0:
329,192,28795,1,0,0:0:0:0:
256,192,28876,1,2,0:0:0:0:
36,192,28876,1,0,0:0:0:0:
475,192,28876,1,0,0:0:0:0:
109,192,28957,1,0,0:0:0:0:
182,192,29038,1,0,0:0:0:0:
329,192,29038,1,0,0:0:0:0:
402,192,29119,1,0,0:0:0:0:
475,192,29200,1,2,0:0:0:0:
256,192,29200,1,4,0:0:0:0:
36,192,29200,1,0,0:0:0:0:
109,192,29200,1,0,0:0:0:0:
402,192,29281,1,0,0:0:0:0:
36,192,29362,1,2,0:0:0:0:
109,192,29362,1,0,0:0:0:0:
329,192,29362,1,0,0:0:0:0:
256,192,29443,1,0,0:0:0:0:
475,192,29524,1,4,0:0:0:0:
36,192,29524,1,2,0:0:0:0:
402,192,29524,1,0,0:0:0:0:
109,192,29524,1,0,0:0:0:0:
182,192,29605,1,0,0:0:0:0:
475,192,29687,1,2,0:0:0:0:
402,192,29687,1,0,0:0:0:0:
256,192,29687,1,0,0:0:0:0:
329,192,29768,1,0,0:0:0:0:
36,192,29849,1,2,0:0:0:0:
402,192,29849,1,4,0:0:0:0:
475,192,29849,128,0,30092:0:0:0:0:
109,192,29849,1,0,0:0:0:0:
475,192,30173,1,2,0:0:0:0:
36,192,30173,1,0,0:0:0:0:
402,192,30254,1,2,0:0:0:0:
109,192,30254,1,0,0:0:0:0:
329,192,30335,1,2,0:0:0:0:
182,192,30335,1,0,0:0:0:0:
256,192,30416,1,2,0:0:0:0:
36,192,30416,1,0,0:0:0:0:
475,192,30497,1,4,0:0:0:0:
109,192,30497,1,2,0:0:0:0:
329,192,30497,128,0,30741:0:0:0:0:
329,192,30822,1,2,0:0:0:0:
36,192,30822,1,0,0:0:0:0:
402,192,30903,1,2,0:0:0:0:
182,192,30903,1,0,0:0:0:0:
475,192,30984,1,2,0:0:0:0:
109,192,30984,1,0,0:0:0:0:
36,192,31065,1,2,0:0:0:0:
329,192,31065,1,0,0:0:0:0:
402,192,31146,1,4,0:0:0:0:
182,192,31146,128,2,31389:0:0:0:0:
256,192,31146,1,0,0:0:0:0:
182,192,31470,1,2,0:0:0:0:
36,192,31470,1,0,0:0:0:0:
109,192,31551,1,2,0:0:0:0:
256,192,31551,1,0,0:0:0:0:
475,192,31633,1,2,0:0:0:0:
329,192,31633,1,0,0:0:0:0:
182,192,31714,1,2,0:0:0:0:
402,192,31714,1,0,0:0:0:0:
256,192,31795,1,2,0:0:0:0:
36,192,31795,128,4,32038:0:0:0:0:
109,192,31795,1,0,0:0:0:0:
36,192,32119,1,2,0:0:0:0:
182,192,32119,1,0,0:0:0:0:
109,192,32200,1,2,0:0:0:0:
256,192,32200,1,0,0:0:0:0:
182,192,32281,1,2,0:0:0:0:
329,192,32281,1,0,0:0:0:0:
256,192,32362,1,2,0:0:0:0:
402,192,32362,1,0,0:0:0:0:
329,192,32443,1,2,0:0:0:0:
475,192,32443,1,4,0:0:0:0:
36,192,32443,1,0,0:0:0:0:
109,192,32524,1,0,0:0:0:0:
182,192,32605,1,0,0:0:0:0:
402,192,32605,1,0,0:0:0:0:
256,192,32687,1,0,0:0:0:0:
109,192,32768,1,2,0:0:0:0:
475,192,32768,1,0,0:0:0:0:
329,192,32768,1,0,0:0:0:0:
182,192,32849,1,0,0:0:0:0:
256,192,32930,1,0,0:0:0:0:
402,192,32930,1,0,0:0:0:0:
329,192,33011,1,0,0:0:0:0:
182,192,33092,1,2,0:0:0:0:
36,192,33092,1,0,0:0:0:0:
256,192,33173,1,0,0:0:0:0:
329,192,33254,1,0,0:0:0:0:
109,192,33254,1,0,0:0:0:0:
402,192,33335,1,0,0:0:0:0:
256,192,33416,1,2,0:0:0:0:
475,192,33416,1,0,0:0:0:0:
36,192,33416,1,0,0:0:0:0:
329,192,33497,1,0,0:0:0:0:
402,192,33578,1,0,0:0:0:0:
109,192,33578,1,0,0:0:0:0:
475,192,33660,1,0,0:0:0:0:
329,192,33741,1,8,0:0:0:0:
182,192,33741,1,2,0:0:0:0:
36,192,33741,1,4,0:0:0:0:
182,192,33822,1,8,0:0:0:0:
36,192,33822,1,2,0:0:0:0:
402,192,33822,1,4,0:0:0:0:
36,192,33984,1,4,0:0:0:0:
329,192,33984,1,8,0:0:0:0:
475,192,33984,1,2,0:0:0:0:
329,192,34065,1,2,0:0:0:0:
475,192,34065,1,8,0:0:0:0:
109,192,34065,1,4,0:0:0:0:
182,192,34065,1,0,0:0:0:0:
182,192,34227,1,8,0:0:0:0:
36,192,34227,1,2,0:0:0:0:
329,192,34227,1,0,0:0:0:0:
36,192,34308,1,8,0:0:0:0:
182,192,34308,1,4,0:0:0:0:
109,192,34389,1,2,0:0:0:0:
402,192,34389,1,4,0:0:0:0:
256,192,34389,1,8,0:0:0:0:
475,192,34470,1,0,0:0:0:0:
329,192,34470,1,0,0:0:0:0:
182,192,34470,1,0,0:0:0:0:
475,192,34551,1,0,0:0:0:0:
329,192,34551,1,0,0:0:0:0:
109,192,34714,1,2,0:0:0:0:
36,192,34714,128,4,34957:0:0:0:0:
475,192,34714,128,0,34957:0:0:0:0:
402,192,34714,1,0,0:0:0:0:
182,192,34714,1,0,0:0:0:0:
329,192,34795,1,2,0:0:0:0:
182,192,34876,1,2,0:0:0:0:
329,192,34957,1,2,0:0:0:0:
475,192,35038,1,4,0:0:0:0:
256,192,35038,1,2,0:0:0:0:
36,192,35038,1,0,0:0:0:0:
109,192,35119,1,0,0:0:0:0:
182,192,35200,1,8,0:0:0:0:
402,192,35200,1,0,0:0:0:0:
329,192,35281,1,8,0:0:0:0:
475,192,35281,1,0,0:0:0:0:
36,192,35362,1,8,0:0:0:0:
256,192,35362,1,0,0:0:0:0:
109,192,35443,1,0,0:0:0:0:
182,192,35524,1,2,0:0:0:0:
402,192,35524,1,4,0:0:0:0:
475,192,35524,1,0,0:0:0:0:
329,192,35605,1,0,0:0:0:0:
256,192,35687,1,0,0:0:0:0:
109,192,35687,1,0,0:0:0:0:
182,192,35768,1,0,0:0:0:0:
36,192,35849,1,2,0:0:0:0:
329,192,35849,1,8,0:0:0:0:
475,192,35849,1,0,0:0:0:0:
109,192,35930,1,8,0:0:0:0:
256,192,35930,1,0,0:0:0:0:
182,192,36011,1,8,0:0:0:0:
402,192,36011,1,0,0:0:0:0:
329,192,36092,1,0,0:0:0:0:
109,192,36173,1,8,0:0:0:0:
36,192,36173,1,2,0:0:0:0:
256,192,36173,1,0,0:0:0:0:
182,192,36254,1,0,0:0:0:0:
109,192,36335,1,8,0:0:0:0:
36,192,36335,1,2,0:0:0:0:
475,192,36335,1,0,0:0:0:0:
402,192,36416,1,0,0:0:0:0:
329,192,36497,1,8,0:0:0:0:
182,192,36497,1,0,0:0:0:0:
256,192,36578,1,2,0:0:0:0:
36,192,36578,1,0,0:0:0:0:
475,192,36578,1,0,0:0:0:0:
109,192,36660,1,8,0:0:0:0:
402,192,36660,1,0,0:0:0:0:
182,192,36741,1,0,0:0:0:0:
256,192,36822,1,8,0:0:0:0:
475,192,36822,1,2,0:0:0:0:
36,192,36822,1,0,0:0:0:0:
402,192,36903,1,0,0:0:0:0:
329,192,36984,1,4,0:0:0:0:
182,192,36984,1,2,0:0:0:0:
109,192,36984,1,0,0:0:0:0:
475,192,37065,1,0,0:0:0:0:
36,192,37065,1,0,0:0:0:0:
256,192,37146,1,0,0:0:0:0:
402,192,37146,1,0,0:0:0:0:
329,192,37227,1,0,0:0:0:0:
109,192,37227,1,0,0:0:0:0:
475,192,37308,1,4,0:0:0:0:
36,192,37308,1,2,0:0:0:0:
182,192,37308,1,0,0:0:0:0:
402,192,37389,1,0,0:0:0:0:
256,192,37389,1,0,0:0:0:0:
329,192,37470,1,0,0:0:0:0:
109,192,37470,1,0,0:0:0:0:
475,192,37551,1,0,0:0:0:0:
182,192,37551,1,0,0:0:0:0:
256,192,37633,1,4,0:0:0:0:
402,192,37633,1,2,0:0:0:0:
36,192,37633,1,0,0:0:0:0:
109,192,37714,1,0,0:0:0:0:
475,192,37795,1,8,0:0:0:0:
329,192,37795,1,0,0:0:0:0:
402,192,37876,1,8,0:0:0:0:
182,192,37876,1,0,0:0:0:0:
109,192,37957,1,8,0:0:0:0:
256,192,37957,1,0,0:0:0:0:
36,192,38038,1,0,0:0:0:0:
475,192,38119,1,2,0:0:0:0:
402,192,38119,1,4,0:0:0:0:
182,192,38119,1,0,0:0:0:0:
329,192,38200,1,0,0:0:0:0:
256,192,38281,1,0,0:0:0:0:
109,192,38281,1,0,0:0:0:0:
36,192,38362,1,0,0:0:0:0:
475,192,38443,1,2,0:0:0:0:
182,192,38443,1,8,0:0:0:0:
329,192,38443,1,0,0:0:0:0:
109,192,38524,1,8,0:0:0:0:
402,192,38524,1,0,0:0:0:0:
36,192,38605,1,8,0:0:0:0:
256,192,38605,1,0,0:0:0:0:
182,192,38687,1,0,0:0:0:0:
475,192,38768,1,2,0:0:0:0:
109,192,38768,1,8,0:0:0:0:
402,192,38768,1,0,0:0:0:0:
329,192,38849,1,0,0:0:0:0:
36,192,38930,1,2,0:0:0:0:
475,192,38930,1,8,0:0:0:0:
402,192,38930,1,0,0:0:0:0:
256,192,39011,1,0,0:0:0:0:
329,192,39092,1,8,0:0:0:0:
109,192,39092,1,0,0:0:0:0:
402,192,39173,1,2,0:0:0:0:
36,192,39173,1,0,0:0:0:0:
182,192,39173,1,0,0:0:0:0:
475,192,39254,1,8,0:0:0:0:
256,192,39254,1,0,0:0:0:0:
329,192,39335,1,0,0:0:0:0:
109,192,39416,1,8,0:0:0:0:
402,192,39416,1,2,0:0:0:0:
36,192,39416,1,0,0:0:0:0:
182,192,39497,1,0,0:0:0:0:
256,192,39578,1,4,0:0:0:0:
329,192,39578,1,2,0:0:0:0:
475,192,39578,1,0,0:0:0:0:
36,192,39660,1,0,0:0:0:0:
402,192,39660,1,0,0:0:0:0:
182,192,39741,1,0,0:0:0:0:
256,192,39741,1,0,0:0:0:0:
475,192,39822,1,0,0:0:0:0:
329,192,39822,1,0,0:0:0:0:
109,192,39903,1,2,0:0:0:0:
402,192,39903,1,4,0:0:0:0:
36,192,39903,1,0,0:0:0:0:
329,192,39984,1,0,0:0:0:0:
182,192,39984,1,0,0:0:0:0:
402,192,40065,1,2,0:0:0:0:
36,192,40065,1,0,0:0:0:0:
109,192,40065,1,0,0:0:0:0:
329,192,40146,1,0,0:0:0:0:
182,192,40146,1,0,0:0:0:0:
475,192,40227,1,4,0:0:0:0:
109,192,40227,1,2,0:0:0:0:
36,192,40227,1,0,0:0:0:0:
256,192,40308,1,0,0:0:0:0:
402,192,40389,1,8,0:0:0:0:
182,192,40389,1,0,0:0:0:0:
329,192,40470,1,8,0:0:0:0:
109,192,40470,1,0,0:0:0:0:
475,192,40551,1,8,0:0:0:0:
256,192,40551,1,0,0:0:0:0:
402,192,40633,1,0,0:0:0:0:
36,192,40714,1,2,0:0:0:0:
329,192,40714,1,4,0:0:0:0:
109,192,40714,1,0,0:0:0:0:
182,192,40795,1,0,0:0:0:0:
256,192,40876,1,0,0:0:0:0:
402,192,40876,1,0,0:0:0:0:
329,192,40957,1,0,0:0:0:0:
182,192,41038,1,2,0:0:0:0:
475,192,41038,1,8,0:0:0:0:
36,192,41038,1,0,0:0:0:0:
402,192,41119,1,8,0:0:0:0:
256,192,41119,1,0,0:0:0:0:
329,192,41200,1,2,0:0:0:0:
109,192,41200,1,8,0:0:0:0:
182,192,41281,1,0,0:0:0:0:
402,192,41362,1,2,0:0:0:0:
256,192,41362,1,8,0:0:0:0:
475,192,41362,1,0,0:0:0:0:
329,192,41443,1,0,0:0:0:0:
475,192,41524,1,8,0:0:0:0:
36,192,41524,1,2,0:0:0:0:
402,192,41524,1,0,0:0:0:0:
109,192,41605,1,0,0:0:0:0:
329,192,41687,1,8,0:0:0:0:
182,192,41687,1,0,0:0:0:0:
256,192,41768,1,2,0:0:0:0:
475,192,41768,1,0,0:0:0:0:
36,192,41768,1,0,0:0:0:0:
402,192,41849,1,8,0:0:0:0:
109,192,41849,1,0,0:0:0:0:
329,192,41930,1,0,0:0:0:0:
475,192,42011,1,2,0:0:0:0:
256,192,42011,1,8,0:0:0:0:
36,192,42011,1,0,0:0:0:0:
109,192,42092,1,0,0:0:0:0:
182,192,42173,1,2,0:0:0:0:
402,192,42173,1,4,0:0:0:0:
329,192,42173,1,0,0:0:0:0:
475,192,42254,1,0,0:0:0:0:
36,192,42254,1,0,0:0:0:0:
256,192,42335,1,4,0:0:0:0:
109,192,42335,1,2,0:0:0:0:
402,192,42416,1,0,0:0:0:0:
182,192,42416,1,0,0:0:0:0:
475,192,42497,1,4,0:0:0:0:
36,192,42497,1,2,0:0:0:0:
329,192,42497,1,0,0:0:0:0:
109,192,42578,1,0,0:0:0:0:
256,192,42578,1,0,0:0:0:0:
182,192,42660,1,2,0:0:0:0:
402,192,42660,1,4,0:0:0:0:
36,192,42741,1,0,0:0:0:0:
329,192,42741,1,0,0:0:0:0:
256,192,42822,1,4,0:0:0:0:
475,192,42822,1,2,0:0:0:0:
109,192,42822,1,0,0:0:0:0:
402,192,42903,1,0,0:0:0:0:
182,192,42984,1,8,0:0:0:0:
36,192,42984,1,0,0:0:0:0:
329,192,43065,1,8,0:0:0:0:
109,192,43065,1,0,0:0:0:0:
256,192,43146,1,8,0:0:0:0:
402,192,43146,1,0,0:0:0:0:
475,192,43227,1,0,0:0:0:0:
329,192,43308,1,2,0:0:0:0:
36,192,43308,1,4,0:0:0:0:
109,192,43308,1,0,0:0:0:0:
182,192,43389,1,0,0:0:0:0:
256,192,43470,1,0,0:0:0:0:
402,192,43470,1,0,0:0:0:0:
475,192,43551,1,0,0:0:0:0:
329,192,43633,1,8,0:0:0:0:
182,192,43633,1,2,0:0:0:0:
36,192,43633,1,0,0:0:0:0:
109,192,43714,1,8,0:0:0:0:
402,192,43714,1,0,0:0:0:0:
475,192,43795,1,2,0:0:0:0:
256,192,43795,1,8,0:0:0:0:
329,192,43876,1,0,0:0:0:0:
36,192,43957,1,2,0:0:0:0:
402,192,43957,1,8,0:0:0:0:
109,192,43957,1,0,0:0:0:0:
182,192,44038,1,0,0:0:0:0:
475,192,44119,1,2,0:0:0:0:
109,192,44119,1,8,0:0:0:0:
36,192,44119,1,0,0:0:0:0:
256,192,44200,1,0,0:0:0:0:
402,192,44281,1,8,0:0:0:0:
182,192,44281,1,0,0:0:0:0:
109,192,44362,1,2,0:0:0:0:
475,192,44362,1,0,0:0:0:0:
329,192,44362,1,0,0:0:0:0:
36,192,44443,1,8,0:0:0:0:
256,192,44443,1,0,0:0:0:0:
182,192,44524,1,0,0:0:0:0:
329,192,44605,1,2,0:0:0:0:
402,192,44605,1,8,0:0:0:0:
109,192,44605,1,0,0:0:0:0:
256,192,44687,1,0,0:0:0:0:
475,192,44768,1,2,0:0:0:0:
182,192,44768,1,0,0:0:0:0:
36,192,44768,1,0,0:0:0:0:
329,192,44849,1,2,0:0:0:0:
109,192,44849,1,0,0:0:0:0:
256,192,44930,1,2,0:0:0:0:
402,192,44930,1,0,0:0:0:0:
36,192,45011,1,2,0:0:0:0:
109,192,45092,1,2,0:0:0:0:
402,192,45092,1,0,0:0:0:0:
475,192,45092,1,0,0:0:0:0:
329,192,45173,1,2,0:0:0:0:
256,192,45173,1,0,0:0:0:0:
182,192,45173,1,0,0:0:0:0:
36,192,45254,1,2,0:0:0:0:
109,192,45254,1,0,0:0:0:0:
475,192,45254,1,0,0:0:0:0:
182,192,45335,1,2,0:0:0:0:
329,192,45335,1,0,0:0:0:0:
402,192,45335,1,0,0:0:0:0:
256,192,45416,1,4,0:0:0:0:
182,192,47687,1,0,0:0:0:0:
256,192,47849,1,0,0:0:0:0:
329,192,48011,1,0,0:0:0:0:
36,192,48011,128,0,48092:0:0:0:0:
256,192,48335,1,0,0:0:0:0:
329,192,48660,1,0,0:0:0:0:
402,192,48822,1,0,0:0:0:0:
256,192,49146,1,0,0:0:0:0:
182,192,49308,128,0,49389:0:0:0:0:
256,192,49470,1,0,0:0:0:0:
109,192,49633,1,0,0:0:0:0:
329,192,49957,1,0,0:0:0:0:
475,192,49957,128,0,50119:0:0:0:0:
182,192,50119,1,0,0:0:0:0:
402,192,50281,1,0,0:0:0:0:
256,192,50443,1,0,0:0:0:0:
475,192,50605,1,0,0:0:0:0:
182,192,51092,1,0,0:0:0:0:
36,192,51903,128,0,51984:0:0:0:0:
109,192,52551,128,0,52714:0:0:0:0:
109,192,52876,1,0,0:0:0:0:
402,192,53200,1,0,0:0:0:0:
329,192,54011,1,0,0:0:0:0:
256,192,54173,1,0,0:0:0:0:
182,192,54335,1,0,0:0:0:0:
109,192,54497,128,0,54578:0:0:0:0:
36,192,55146,1,0,0:0:0:0:
182,192,55146,128,0,55308:0:0:0:0:
329,192,55470,1,0,0:0:0:0:
256,192,55795,1,0,0:0:0:0:
402,192,56281,1,0,0:0:0:0:
329,192,57092,1,0,0:0:0:0:
182,192,57092,128,0,57173:0:0:0:0:
475,192,57578,1,0,0:0:0:0:
329,192,57741,128,0,57903:0:0:0:0:
402,192,58389,1,0,0:0:0:0:
329,192,58633,1,0,0:0:0:0:
256,192,58876,1,0,0:0:0:0:
182,192,59038,1,0,0:0:0:0:
36,192,59687,1,0,0:0:0:0:
182,192,59768,1,0,0:0:0:0:
329,192,59849,1,0,0:0:0:0:
402,192,59930,1,0,0:0:0:0:
109,192,60011,1,0,0:0:0:0:
182,192,60092,1,0,0:0:0:0:
329,192,60173,1,0,0:0:0:0:
475,192,60254,1,0,0:0:0:0:
36,192,60335,1,0,0:0:0:0:
109,192,60416,1,0,0:0:0:0:
256,192,60497,1,0,0:0:0:0:
402,192,60578,1,0,0:0:0:0:
182,192,60660,1,0,0:0:0:0:
329,192,60741,1,0,0:0:0:0:
402,192,60822,1,0,0:0:0:0:
475,192,60903,1,0,0:0:0:0:
256,192,60984,1,0,0:0:0:0:
182,192,61227,1,0,0:0:0:0:
109,192,61470,1,0,0:0:0:0:
36,192,61633,1,0,0:0:0:0:
475,192,62281,1,0,0:0:0:0:
329,192,62362,1,0,0:0:0:0:
182,192,62443,1,0,0:0:0:0:
109,192,62524,1,0,0:0:0:0:
402,192,62605,1,0,0:0:0:0:
329,192,62687,1,0,0:0:0:0:
182,192,62768,1,0,0:0:0:0:
36,192,62849,1,0,0:0:0:0:
475,192,62930,1,0,0:0:0:0:
402,192,63011,1,0,0:0:0:0:
182,192,63092,1,0,0:0:0:0:
109,192,63173,1,0,0:0:0:0:
329,192,63254,1,0,0:0:0:0:
36,192,63254,1,0,0:0:0:0:
256,192,63335,1,0,0:0:0:0:
402,192,63416,1,0,0:0:0:0:
182,192,63416,1,0,0:0:0:0:
109,192,63497,1,0,0:0:0:0:
475,192,63578,1,0,0:0:0:0:
329,192,63578,1,0,0:0:0:0:
182,192,64065,1,0,0:0:0:0:
329,192,64551,1,0,0:0:0:0:
36,192,64876,1,0,0:0:0:0:
182,192,65362,1,0,0:0:0:0:
402,192,65849,1,0,0:0:0:0:
402,192,66173,1,0,0:0:0:0:
475,192,67308,1,0,0:0:0:0:
402,192,67389,1,0,0:0:0:0:
329,192,67470,1,0,0:0:0:0:
36,192,67470,128,0,67551:0:0:0:0:
475,192,68119,128,0,68281:0:0:0:0:
402,192,68443,1,0,0:0:0:0:
329,192,68484,1,0,0:0:0:0:
109,192,68524,1,0,0:0:0:0:
182,192,68565,1,0,0:0:0:0:
402,192,68605,1,0,0:0:0:0:
329,192,68646,1,0,0:0:0:0:
109,192,68687,1,0,0:0:0:0:
182,192,68727,1,0,0:0:0:0:
475,192,68768,1,2,0:0:0:0:
36,192,68768,1,4,0:0:0:0:
256,192,68768,1,0,0:0:0:0:
329,192,68930,1,0,0:0:0:0:
329,192,69254,1,0,0:0:0:0:
329,192,69578,1,0,0:0:0:0:
329,192,69903,1,0,0:0:0:0:
329,192,70227,1,0,0:0:0:0:
329,192,70551,1,0,0:0:0:0:
329,192,70876,1,0,0:0:0:0:
329,192,71200,1,2,0:0:0:0:
36,192,71200,1,4,0:0:0:0:
475,192,71200,1,0,0:0:0:0:
36,192,71362,1,2,0:0:0:0:
475,192,71362,1,4,0:0:0:0:
182,192,71362,1,0,0:0:0:0:
182,192,71524,1,0,0:0:0:0:
182,192,71849,1,0,0:0:0:0:
182,192,72173,1,0,0:0:0:0:
182,192,72497,1,0,0:0:0:0:
36,192,72660,1,4,0:0:0:0:
475,192,72660,1,2,0:0:0:0:
329,192,72660,1,0,0:0:0:0:
182,192,72822,1,0,0:0:0:0:
182,192,73146,1,4,0:0:0:0:
36,192,73146,1,2,0:0:0:0:
475,192,73146,1,0,0:0:0:0:
182,192,73470,1,4,0:0:0:0:
36,192,73470,1,2,0:0:0:0:
475,192,73470,1,0,0:0:0:0:
329,192,73633,1,4,0:0:0:0:
475,192,73633,1,2,0:0:0:0:
36,192,73633,1,0,0:0:0:0:
402,192,73795,1,0,0:0:0:0:
36,192,73957,1,2,0:0:0:0:
109,192,73957,1,4,0:0:0:0:
182,192,73957,1,0,0:0:0:0:
256,192,74119,1,0,0:0:0:0:
256,192,74443,1,0,0:0:0:0:
256,192,74768,1,4,0:0:0:0:
36,192,74768,1,2,0:0:0:0:
475,192,74768,1,0,0:0:0:0:
256,192,75092,1,4,0:0:0:0:
36,192,75092,1,2,0:0:0:0:
475,192,75092,1,0,0:0:0:0:
256,192,75416,1,0,0:0:0:0:
256,192,75741,1,0,0:0:0:0:
36,192,75903,1,4,0:0:0:0:
182,192,75903,1,2,0:0:0:0:
475,192,75903,1,0,0:0:0:0:
256,192,76065,1,0,0:0:0:0:
329,192,76227,1,4,0:0:0:0:
475,192,76227,1,2,0:0:0:0:
36,192,76227,1,0,0:0:0:0:
256,192,76389,1,0,0:0:0:0:
36,192,76551,1,2,0:0:0:0:
182,192,76551,1,4,0:0:0:0:
475,192,76551,1,0,0:0:0:0:
256,192,76714,1,0,0:0:0:0:
256,192,77038,1,4,0:0:0:0:
402,192,77038,1,2,0:0:0:0:
109,192,77038,1,0,0:0:0:0:
256,192,77362,1,0,0:0:0:0:
329,192,77524,1,2,0:0:0:0:
109,192,77524,1,4,0:0:0:0:
402,192,77524,1,0,0:0:0:0:
256,192,77687,1,0,0:0:0:0:
182,192,77849,1,2,0:0:0:0:
36,192,77849,1,4,0:0:0:0:
475,192,77849,1,0,0:0:0:0:
402,192,78011,1,0,0:0:0:0:
402,192,78335,1,2,0:0:0:0:
36,192,78335,1,4,0:0:0:0:
182,192,78335,1,0,0:0:0:0:
402,192,78660,1,0,0:0:0:0:
36,192,78822,1,2,0:0:0:0:
475,192,78822,1,0,0:0:0:0:
182,192,78903,1,2,0:0:0:0:
36,192,78984,1,2,0:0:0:0:
475,192,78984,1,0,0:0:0:0:
182,192,79065,1,2,0:0:0:0:
475,192,79146,1,2,0:0:0:0:
36,192,79146,1,4,0:0:0:0:
329,192,79146,1,0,0:0:0:0:
329,192,79308,1,8,0:0:0:0:
36,192,79470,1,0,0:0:0:0:
182,192,79470,1,0,0:0:0:0:
329,192,79470,1,0,0:0:0:0:
329,192,79633,1,8,0:0:0:0:
402,192,79714,1,8,0:0:0:0:
329,192,79795,1,8,0:0:0:0:
182,192,79795,1,2,0:0:0:0:
36,192,79795,1,0,0:0:0:0:
329,192,79957,1,8,0:0:0:0:
329,192,80119,1,8,0:0:0:0:
182,192,80119,1,2,0:0:0:0:
36,192,80119,1,0,0:0:0:0:
329,192,80281,1,8,0:0:0:0:
182,192,80443,1,8,0:0:0:0:
36,192,80443,1,2,0:0:0:0:
329,192,80443,1,0,0:0:0:0:
329,192,80605,1,8,0:0:0:0:
36,192,80768,1,8,0:0:0:0:
182,192,80768,1,2,0:0:0:0:
329,192,80768,1,0,0:0:0:0:
329,192,80930,1,8,0:0:0:0:
402,192,81011,1,8,0:0:0:0:
36,192,81092,1,8,0:0:0:0:
182,192,81092,1,2,0:0:0:0:
329,192,81092,1,0,0:0:0:0:
329,192,81254,1,8,0:0:0:0:
182,192,81416,1,8,0:0:0:0:
36,192,81416,1,2,0:0:0:0:
329,192,81416,1,0,0:0:0:0:
402,192,81497,1,8,0:0:0:0:
329,192,81578,1,8,0:0:0:0:
256,192,81660,1,8,0:0:0:0:
329,192,81741,1,2,0:0:0:0:
475,192,81741,1,8,0:0:0:0:
182,192,81741,1,0,0:0:0:0:
182,192,81903,1,8,0:0:0:0:
182,192,82065,1,0,0:0:0:0:
329,192,82065,1,0,0:0:0:0:
475,192,82065,1,0,0:0:0:0:
182,192,82227,1,8,0:0:0:0:
109,192,82308,1,8,0:0:0:0:
182,192,82389,1,2,0:0:0:0:
475,192,82389,1,8,0:0:0:0:
329,192,82389,1,0,0:0:0:0:
182,192,82551,1,8,0:0:0:0:
329,192,82714,1,8,0:0:0:0:
475,192,82714,1,2,0:0:0:0:
182,192,82714,1,0,0:0:0:0:
182,192,82876,1,8,0:0:0:0:
475,192,83038,1,2,0:0:0:0:
329,192,83038,1,8,0:0:0:0:
182,192,83038,1,0,0:0:0:0:
182,192,83200,1,8,0:0:0:0:
329,192,83362,1,2,0:0:0:0:
475,192,83362,1,8,0:0:0:0:
182,192,83362,1,0,0:0:0:0:
182,192,83524,1,8,0:0:0:0:
109,192,83605,1,8,0:0:0:0:
475,192,83687,1,8,0:0:0:0:
329,192,83687,1,2,0:0:0:0:
182,192,83687,1,0,0:0:0:0:
329,192,83849,1,2,0:0:0:0:
475,192,83849,1,0,0:0:0:0:
182,192,83849,1,0,0:0:0:0:
329,192,84011,1,8,0:0:0:0:
475,192,84011,1,2,0:0:0:0:
182,192,84011,1,0,0:0:0:0:
109,192,84092,1,8,0:0:0:0:
329,192,84173,1,8,0:0:0:0:
475,192,84173,1,2,0:0:0:0:
182,192,84173,1,0,0:0:0:0:
256,192,84254,1,8,0:0:0:0:
182,192,84335,1,8,0:0:0:0:
36,192,84335,1,2,0:0:0:0:
402,192,84335,1,0,0:0:0:0:
36,192,84497,1,2,0:0:0:0:
182,192,84497,1,8,0:0:0:0:
402,192,84497,1,0,0:0:0:0:
182,192,84660,1,2,0:0:0:0:
36,192,84660,1,8,0:0:0:0:
402,192,84660,1,0,0:0:0:0:
36,192,84822,1,8,0:0:0:0:
182,192,84822,1,2,0:0:0:0:
402,192,84822,1,8,0:0:0:0:
256,192,84903,1,0,0:0:0:0:
329,192,84984,1,8,0:0:0:0:
475,192,84984,1,2,0:0:0:0:
109,192,84984,1,0,0:0:0:0:
475,192,85146,1,2,0:0:0:0:
329,192,85146,1,8,0:0:0:0:
109,192,85146,1,0,0:0:0:0:
329,192,85308,1,2,0:0:0:0:
475,192,85308,1,8,0:0:0:0:
109,192,85308,1,0,0:0:0:0:
329,192,85470,1,2,0:0:0:0:
475,192,85470,1,8,0:0:0:0:
109,192,85470,1,0,0:0:0:0:
36,192,85633,1,8,0:0:0:0:
182,192,85633,1,2,0:0:0:0:
475,192,85633,1,4,0:0:0:0:
402,192,85633,1,0,0:0:0:0:
256,192,85633,1,0,0:0:0:0:
36,192,85795,1,8,0:0:0:0:
182,192,85795,1,2,0:0:0:0:
402,192,85795,1,0,0:0:0:0:
182,192,85957,1,8,0:0:0:0:
36,192,85957,1,2,0:0:0:0:
402,192,85957,1,0,0:0:0:0:
182,192,86119,1,2,0:0:0:0:
36,192,86119,1,8,0:0:0:0:
402,192,86119,1,0,0:0:0:0:
256,192,86200,1,8,0:0:0:0:
329,192,86281,1,2,0:0:0:0:
475,192,86281,1,8,0:0:0:0:
109,192,86281,1,0,0:0:0:0:
475,192,86443,1,8,0:0:0:0:
329,192,86443,1,2,0:0:0:0:
109,192,86443,1,0,0:0:0:0:
475,192,86605,1,2,0:0:0:0:
329,192,86605,1,8,0:0:0:0:
109,192,86605,1,0,0:0:0:0:
182,192,86687,1,8,0:0:0:0:
329,192,86768,1,2,0:0:0:0:
475,192,86768,1,8,0:0:0:0:
36,192,86768,1,0,0:0:0:0:
109,192,86849,1,8,0:0:0:0:
182,192,86930,1,8,0:0:0:0:
402,192,86930,1,2,0:0:0:0:
329,192,87011,1,2,0:0:0:0:
182,192,87092,1,2,0:0:0:0:
329,192,87173,1,2,0:0:0:0:
109,192,87254,1,6,0:0:0:0:
256,192,87254,1,0,0:0:0:0:
402,192,87335,1,2,0:0:0:0:
109,192,87416,1,2,0:0:0:0:
402,192,87497,1,2,0:0:0:0:
182,192,87578,1,6,0:0:0:0:
36,192,87578,1,2,0:0:0:0:
475,192,87660,1,2,0:0:0:0:
182,192,87741,1,2,0:0:0:0:
475,192,87822,1,2,0:0:0:0:
36,192,87903,1,4,0:0:0:0:
402,192,87903,1,2,0:0:0:0:
329,192,87984,1,2,0:0:0:0:
36,192,88065,1,2,0:0:0:0:
329,192,88146,1,2,0:0:0:0:
182,192,88227,1,2,0:0:0:0:
109,192,88227,1,0,0:0:0:0:
329,192,88308,1,2,0:0:0:0:
475,192,88308,1,0,0:0:0:0:
36,192,88389,1,2,0:0:0:0:
182,192,88389,1,0,0:0:0:0:
402,192,88470,1,2,0:0:0:0:
475,192,88470,1,0,0:0:0:0:
109,192,88551,1,2,0:0:0:0:
36,192,88551,1,0,0:0:0:0:
475,192,88633,1,2,0:0:0:0:
329,192,88633,1,0,0:0:0:0:
182,192,88714,1,2,0:0:0:0:
36,192,88714,1,0,0:0:0:0:
329,192,88795,1,2,0:0:0:0:
402,192,88795,1,0,0:0:0:0:
36,192,88876,1,2,0:0:0:0:
256,192,88876,1,0,0:0:0:0:
109,192,88876,1,0,0:0:0:0:
402,192,88957,1,2,0:0:0:0:
182,192,88957,1,0,0:0:0:0:
329,192,89038,1,2,0:0:0:0:
475,192,89038,1,0,0:0:0:0:
182,192,89119,1,2,0:0:0:0:
109,192,89119,1,0,0:0:0:0:
402,192,89200,1,2,0:0:0:0:
36,192,89200,1,0,0:0:0:0:
256,192,89200,1,0,0:0:0:0:
109,192,89281,1,2,0:0:0:0:
329,192,89281,1,0,0:0:0:0:
475,192,89362,1,2,0:0:0:0:
182,192,89362,1,0,0:0:0:0:
36,192,89443,1,2,0:0:0:0:
402,192,89443,1,0,0:0:0:0:
182,192,89524,1,2,0:0:0:0:
329,192,89524,1,4,0:0:0:0:
109,192,89524,1,0,0:0:0:0:
256,192,89524,128,0,89849:0:0:0:0:
475,192,89687,1,0,0:0:0:0:
36,192,89687,1,0,0:0:0:0:
109,192,89849,128,2,90011:0:0:0:0:
329,192,89849,1,0,0:0:0:0:
182,192,89849,1,0,0:0:0:0:
402,192,89849,1,0,0:0:0:0:
256,192,90011,1,0,0:0:0:0:
475,192,90011,1,0,0:0:0:0:
329,192,90173,128,2,90335:0:0:0:0:
36,192,90173,1,0,0:0:0:0:
182,192,90173,1,0,0:0:0:0:
402,192,90335,128,0,90497:0:0:0:0:
109,192,90335,1,0,0:0:0:0:
256,192,90497,1,2,0:0:0:0:
475,192,90497,1,0,0:0:0:0:
36,192,90497,1,0,0:0:0:0:
329,192,90660,128,0,90822:0:0:0:0:
182,192,90660,1,0,0:0:0:0:
109,192,90660,1,0,0:0:0:0:
475,192,90822,1,2,0:0:0:0:
402,192,90822,1,0,0:0:0:0:
36,192,90822,1,0,0:0:0:0:
329,192,90984,128,0,91146:0:0:0:0:
256,192,90984,1,0,0:0:0:0:
182,192,91146,128,2,91308:0:0:0:0:
402,192,91146,1,0,0:0:0:0:
475,192,91146,1,0,0:0:0:0:
36,192,91146,1,0,0:0:0:0:
109,192,91308,1,0,0:0:0:0:
329,192,91470,128,2,91633:0:0:0:0:
182,192,91470,1,0,0:0:0:0:
402,192,91470,1,0,0:0:0:0:
475,192,91470,1,0,0:0:0:0:
109,192,91633,1,0,0:0:0:0:
256,192,91633,1,0,0:0:0:0:
402,192,91795,128,2,91957:0:0:0:0:
36,192,91795,1,0,0:0:0:0:
329,192,91795,1,0,0:0:0:0:
182,192,91795,1,0,0:0:0:0:
256,192,91957,1,0,0:0:0:0:
475,192,92119,128,2,92524:0:0:0:0:
109,192,92119,1,4,0:0:0:0:
36,192,92119,1,0,0:0:0:0:
182,192,92119,1,0,0:0:0:0:
402,192,92119,1,0,0:0:0:0:
329,192,92362,1,0,0:0:0:0:
182,192,92443,1,2,0:0:0:0:
109,192,92443,1,0,0:0:0:0:
36,192,92605,128,4,94146:0:0:0:0:
402,192,92605,1,0,0:0:0:0:
475,192,92605,1,0,0:0:0:0:
329,192,92605,1,0,0:0:0:0:
256,192,92605,1,0,0:0:0:0:
109,192,92768,1,2,0:0:0:0:
182,192,92768,1,0,0:0:0:0:
329,192,92930,1,0,0:0:0:0:
109,192,93092,1,2,0:0:0:0:
256,192,93092,1,0,0:0:0:0:
402,192,93092,1,0,0:0:0:0:
475,192,93254,1,0,0:0:0:0:
182,192,93416,1,2,0:0:0:0:
109,192,93416,1,4,0:0:0:0:
329,192,93416,1,0,0:0:0:0:
402,192,93416,1,0,0:0:0:0:
256,192,93578,1,0,0:0:0:0:
475,192,93741,1,2,0:0:0:0:
182,192,93741,1,0,0:0:0:0:
402,192,93903,1,4,0:0:0:0:
256,192,93903,1,0,0:0:0:0:
109,192,93903,1,0,0:0:0:0:
182,192,94065,1,2,0:0:0:0:
475,192,94065,1,0,0:0:0:0:
329,192,94065,1,0,0:0:0:0:
256,192,94146,1,0,0:0:0:0:
402,192,94227,1,0,0:0:0:0:
36,192,94389,128,2,94551:0:0:0:0:
109,192,94389,1,0,0:0:0:0:
402,192,94389,1,0,0:0:0:0:
475,192,94389,1,0,0:0:0:0:
256,192,94389,1,0,0:0:0:0:
256,192,94551,1,2,0:0:0:0:
475,192,94714,128,2,95524:0:0:0:0:
256,192,94714,1,4,0:0:0:0:
36,192,94714,1,0,0:0:0:0:
182,192,94714,1,0,0:0:0:0:
109,192,94876,1,0,0:0:0:0:
329,192,95038,1,2,0:0:0:0:
402,192,95038,1,0,0:0:0:0:
182,192,95038,1,0,0:0:0:0:
36,192,95038,1,0,0:0:0:0:
256,192,95200,1,0,0:0:0:0:
109,192,95200,1,0,0:0:0:0:
329,192,95362,1,2,0:0:0:0:
182,192,95362,1,0,0:0:0:0:
402,192,95524,128,0,95687:0:0:0:0:
256,192,95524,1,0,0:0:0:0:
329,192,95687,128,2,95849:0:0:0:0:
182,192,95687,1,0,0:0:0:0:
109,192,95687,1,0,0:0:0:0:
36,192,95687,1,0,0:0:0:0:
256,192,95849,128,0,96660:0:0:0:0:
475,192,95849,1,0,0:0:0:0:
36,192,96011,1,2,0:0:0:0:
402,192,96011,1,0,0:0:0:0:
182,192,96173,1,0,0:0:0:0:
109,192,96335,1,2,0:0:0:0:
329,192,96335,1,0,0:0:0:0:
475,192,96335,1,0,0:0:0:0:
402,192,96497,1,0,0:0:0:0:
182,192,96497,1,0,0:0:0:0:
36,192,96660,128,2,96984:0:0:0:0:
109,192,96660,1,0,0:0:0:0:
329,192,96660,1,0,0:0:0:0:
475,192,96660,1,0,0:0:0:0:
402,192,96822,1,0,0:0:0:0:
256,192,96984,128,2,97308:0:0:0:0:
182,192,96984,1,0,0:0:0:0:
329,192,96984,1,0,0:0:0:0:
475,192,96984,1,0,0:0:0:0:
109,192,97146,1,0,0:0:0:0:
182,192,97308,128,4,97795:0:0:0:0:
36,192,97308,1,2,0:0:0:0:
402,192,97308,1,0,0:0:0:0:
475,192,97308,1,0,0:0:0:0:
329,192,97308,1,0,0:0:0:0:
256,192,97470,1,0,0:0:0:0:
475,192,97633,1,2,0:0:0:0:
109,192,97633,1,0,0:0:0:0:
329,192,97795,128,4,98605:0:0:0:0:
36,192,97795,1,0,0:0:0:0:
402,192,97795,1,0,0:0:0:0:
256,192,97795,1,0,0:0:0:0:
109,192,97957,1,2,0:0:0:0:
475,192,97957,1,0,0:0:0:0:
182,192,98119,1,0,0:0:0:0:
36,192,98281,1,2,0:0:0:0:
109,192,98281,1,0,0:0:0:0:
402,192,98281,1,0,0:0:0:0:
182,192,98443,1,2,0:0:0:0:
402,192,98443,1,0,0:0:0:0:
402,192,98605,128,4,99092:0:0:0:0:
256,192,98605,1,2,0:0:0:0:
475,192,98605,1,0,0:0:0:0:
109,192,98605,1,0,0:0:0:0:
36,192,98605,1,0,0:0:0:0:
36,192,98849,1,2,0:0:0:0:
109,192,98849,1,0,0:0:0:0:
182,192,98930,1,2,0:0:0:0:
256,192,98930,1,0,0:0:0:0:
475,192,99092,128,4,99822:0:0:0:0:
36,192,99092,1,2,0:0:0:0:
109,192,99092,1,0,0:0:0:0:
329,192,99092,1,0,0:0:0:0:
182,192,99173,1,2,0:0:0:0:
109,192,99254,1,2,0:0:0:0:
402,192,99254,1,0,0:0:0:0:
109,192,99416,1,2,0:0:0:0:
256,192,99416,1,0,0:0:0:0:
109,192,99578,1,2,0:0:0:0:
329,192,99578,1,0,0:0:0:0:
182,192,99660,1,0,0:0:0:0:
109,192,99741,1,2,0:0:0:0:
402,192,99741,1,0,0:0:0:0:
182,192,99822,1,2,0:0:0:0:
109,192,99903,1,4,0:0:0:0:
329,192,99903,1,2,0:0:0:0:
475,192,99903,1,0,0:0:0:0:
36,192,99903,1,0,0:0:0:0:
256,192,99984,1,0,0:0:0:0:
182,192,100065,1,0,0:0:0:0:
402,192,100065,1,0,0:0:0:0:
329,192,100146,1,0,0:0:0:0:
109,192,100227,1,2,0:0:0:0:
256,192,100227,1,0,0:0:0:0:
475,192,100227,1,0,0:0:0:0:
402,192,100389,1,0,0:0:0:0:
182,192,100389,1,0,0:0:0:0:
329,192,100470,1,0,0:0:0:0:
256,192,100551,1,2,0:0:0:0:
36,192,100551,1,0,0:0:0:0:
475,192,100551,1,0,0:0:0:0:
109,192,100633,1,0,0:0:0:0:
182,192,100714,1,0,0:0:0:0:
402,192,100714,1,0,0:0:0:0:
329,192,100795,1,0,0:0:0:0:
256,192,100876,1,2,0:0:0:0:
36,192,100876,1,0,0:0:0:0:
475,192,100876,1,0,0:0:0:0:
109,192,100957,1,0,0:0:0:0:
182,192,101038,1,0,0:0:0:0:
402,192,101038,1,0,0:0:0:0:
329,192,101119,1,0,0:0:0:0:
256,192,101200,1,2,0:0:0:0:
36,192,101200,1,0,0:0:0:0:
475,192,101200,1,0,0:0:0:0:
109,192,101281,1,0,0:0:0:0:
182,192,101362,1,0,0:0:0:0:
402,192,101362,1,0,0:0:0:0:
329,192,101443,1,0,0:0:0:0:
256,192,101524,1,2,0:0:0:0:
36,192,101524,1,0,0:0:0:0:
475,192,101524,1,0,0:0:0:0:
109,192,101605,1,0,0:0:0:0:
182,192,101687,1,0,0:0:0:0:
402,192,101687,1,0,0:0:0:0:
329,192,101768,1,0,0:0:0:0:
256,192,101849,1,2,0:0:0:0:
36,192,101849,1,0,0:0:0:0:
475,192,101849,1,0,0:0:0:0:
109,192,101930,1,0,0:0:0:0:
182,192,102011,1,0,0:0:0:0:
402,192,102011,1,0,0:0:0:0:
329,192,102092,1,0,0:0:0:0:
256,192,102173,1,2,0:0:0:0:
109,192,102173,1,0,0:0:0:0:
36,192,102173,1,0,0:0:0:0:
475,192,102173,1,0,0:0:0:0:
402,192,102254,1,0,0:0:0:0:
329,192,102335,1,2,0:0:0:0:
109,192,102335,1,0,0:0:0:0:
36,192,102335,1,0,0:0:0:0:
182,192,102416,1,0,0:0:0:0:
475,192,102497,128,2,102741:0:0:0:0:
402,192,102497,1,4,0:0:0:0:
36,192,102497,1,0,0:0:0:0:
109,192,102497,1,0,0:0:0:0:
256,192,102497,1,0,0:0:0:0:
182,192,102660,1,0,0:0:0:0:
329,192,102741,128,0,102984:0:0:0:0:
475,192,102822,1,2,0:0:0:0:
36,192,102822,1,0,0:0:0:0:
109,192,102903,1,0,0:0:0:0:
182,192,102984,128,0,103146:0:0:0:0:
402,192,102984,1,0,0:0:0:0:
329,192,103065,1,0,0:0:0:0:
36,192,103146,128,2,103714:0:0:0:0:
475,192,103146,1,0,0:0:0:0:
256,192,103146,1,0,0:0:0:0:
402,192,103227,1,0,0:0:0:0:
109,192,103308,1,0,0:0:0:0:
329,192,103308,1,0,0:0:0:0:
182,192,103389,1,0,0:0:0:0:
475,192,103470,1,2,0:0:0:0:
256,192,103470,1,0,0:0:0:0:
402,192,103551,1,0,0:0:0:0:
109,192,103633,1,0,0:0:0:0:
329,192,103633,1,0,0:0:0:0:
182,192,103714,1,0,0:0:0:0:
475,192,103795,1,2,0:0:0:0:
256,192,103795,1,0,0:0:0:0:
36,192,103795,1,0,0:0:0:0:
402,192,103876,1,0,0:0:0:0:
109,192,103957,1,0,0:0:0:0:
329,192,103957,1,0,0:0:0:0:
182,192,104038,1,0,0:0:0:0:
475,192,104119,1,2,0:0:0:0:
256,192,104119,1,0,0:0:0:0:
36,192,104119,1,0,0:0:0:0:
402,192,104200,1,0,0:0:0:0:
109,192,104281,1,0,0:0:0:0:
329,192,104281,1,0,0:0:0:0:
182,192,104362,1,0,0:0:0:0:
475,192,104443,1,2,0:0:0:0:
36,192,104443,1,0,0:0:0:0:
256,192,104443,1,0,0:0:0:0:
329,192,104524,1,0,0:0:0:0:
109,192,104524,1,0,0:0:0:0:
182,192,104524,1,0,0:0:0:0:
402,192,104605,1,0,0:0:0:0:
475,192,104605,1,0,0:0:0:0:
256,192,104687,1,0,0:0:0:0:
329,192,104768,1,2,0:0:0:0:
36,192,104768,1,0,0:0:0:0:
109,192,104768,1,0,0:0:0:0:
402,192,104849,1,0,0:0:0:0:
36,192,104930,1,2,0:0:0:0:
182,192,104930,1,0,0:0:0:0:
109,192,104930,1,0,0:0:0:0:
329,192,105011,1,0,0:0:0:0:
109,192,105092,1,2,0:0:0:0:
256,192,105092,1,4,0:0:0:0:
475,192,105092,1,0,0:0:0:0:
402,192,105092,1,0,0:0:0:0:
36,192,105173,1,0,0:0:0:0:
329,192,105254,1,2,0:0:0:0:
109,192,105254,1,0,0:0:0:0:
182,192,105335,1,0,0:0:0:0:
475,192,105416,1,2,0:0:0:0:
109,192,105416,1,0,0:0:0:0:
256,192,105416,1,0,0:0:0:0:
36,192,105497,1,0,0:0:0:0:
402,192,105578,1,2,0:0:0:0:
109,192,105578,1,0,0:0:0:0:
182,192,105660,1,0,0:0:0:0:
475,192,105741,1,2,0:0:0:0:
109,192,105741,1,4,0:0:0:0:
329,192,105741,1,0,0:0:0:0:
256,192,105741,1,0,0:0:0:0:
36,192,105822,1,0,0:0:0:0:
402,192,105903,1,2,0:0:0:0:
109,192,105903,1,0,0:0:0:0:
182,192,105984,1,0,0:0:0:0:
329,192,106065,1,2,0:0:0:0:
109,192,106065,1,0,0:0:0:0:
475,192,106065,1,0,0:0:0:0:
36,192,106146,1,0,0:0:0:0:
256,192,106227,1,2,0:0:0:0:
109,192,106227,1,0,0:0:0:0:
182,192,106308,1,0,0:0:0:0:
36,192,106389,1,2,0:0:0:0:
475,192,106389,1,4,0:0:0:0:
109,192,106389,1,0,0:0:0:0:
402,192,106389,1,0,0:0:0:0:
329,192,106470,1,0,0:0:0:0:
256,192,106551,1,2,0:0:0:0:
402,192,106551,1,0,0:0:0:0:
475,192,106633,1,0,0:0:0:0:
36,192,106714,1,2,0:0:0:0:
402,192,106714,1,0,0:0:0:0:
182,192,106714,1,0,0:0:0:0:
329,192,106795,1,0,0:0:0:0:
109,192,106876,1,2,0:0:0:0:
402,192,106876,1,0,0:0:0:0:
475,192,106957,1,0,0:0:0:0:
36,192,107038,1,2,0:0:0:0:
402,192,107038,1,4,0:0:0:0:
182,192,107038,1,0,0:0:0:0:
256,192,107038,1,0,0:0:0:0:
329,192,107119,1,0,0:0:0:0:
109,192,107200,1,2,0:0:0:0:
402,192,107200,1,0,0:0:0:0:
475,192,107281,1,0,0:0:0:0:
36,192,107362,1,2,0:0:0:0:
402,192,107362,1,0,0:0:0:0:
182,192,107362,1,0,0:0:0:0:
329,192,107443,1,0,0:0:0:0:
256,192,107524,1,2,0:0:0:0:
402,192,107524,1,0,0:0:0:0:
475,192,107605,1,0,0:0:0:0:
109,192,107687,1,4,0:0:0:0:
402,192,107687,1,2,0:0:0:0:
182,192,107687,1,0,0:0:0:0:
36,192,107768,1,2,0:0:0:0:
329,192,107768,1,0,0:0:0:0:
475,192,107849,1,2,0:0:0:0:
256,192,107849,1,0,0:0:0:0:
402,192,107930,1,2,0:0:0:0:
109,192,107930,1,0,0:0:0:0:
36,192,108011,1,2,0:0:0:0:
182,192,108011,1,4,0:0:0:0:
329,192,108011,1,0,0:0:0:0:
256,192,108092,1,2,0:0:0:0:
475,192,108092,1,0,0:0:0:0:
402,192,108173,1,2,0:0:0:0:
109,192,108173,1,0,0:0:0:0:
329,192,108254,1,2,0:0:0:0:
182,192,108254,1,0,0:0:0:0:
402,192,108335,1,2,0:0:0:0:
109,192,108335,1,4,0:0:0:0:
256,192,108335,1,0,0:0:0:0:
475,192,108416,1,2,0:0:0:0:
36,192,108416,1,0,0:0:0:0:
402,192,108497,1,2,0:0:0:0:
182,192,108497,1,0,0:0:0:0:
329,192,108578,1,2,0:0:0:0:
109,192,108578,1,0,0:0:0:0:
256,192,108660,1,2,0:0:0:0:
475,192,108660,1,4,0:0:0:0:
36,192,108660,1,0,0:0:0:0:
402,192,108741,1,2,0:0:0:0:
182,192,108741,1,0,0:0:0:0:
329,192,108822,1,2,0:0:0:0:
109,192,108822,1,0,0:0:0:0:
402,192,108903,1,2,0:0:0:0:
182,192,108903,1,0,0:0:0:0:
36,192,108984,1,2,0:0:0:0:
256,192,108984,1,0,0:0:0:0:
475,192,108984,1,0,0:0:0:0:
109,192,109065,1,2,0:0:0:0:
329,192,109065,1,0,0:0:0:0:
182,192,109146,1,2,0:0:0:0:
402,192,109146,1,0,0:0:0:0:
475,192,109227,1,2,0:0:0:0:
109,192,109227,1,0,0:0:0:0:
36,192,109308,1,2,0:0:0:0:
329,192,109308,1,0,0:0:0:0:
182,192,109308,1,0,0:0:0:0:
402,192,109389,1,2,0:0:0:0:
256,192,109389,1,0,0:0:0:0:
475,192,109470,1,2,0:0:0:0:
109,192,109470,1,0,0:0:0:0:
329,192,109551,1,2,0:0:0:0:
182,192,109551,1,0,0:0:0:0:
36,192,109633,1,2,0:0:0:0:
402,192,109633,1,0,0:0:0:0:
256,192,109633,1,0,0:0:0:0:
475,192,109714,1,2,0:0:0:0:
109,192,109714,1,0,0:0:0:0:
329,192,109795,1,2,0:0:0:0:
182,192,109795,1,0,0:0:0:0:
36,192,109876,1,2,0:0:0:0:
402,192,109876,1,0,0:0:0:0:
109,192,109957,1,2,0:0:0:0:
256,192,109957,1,0,0:0:0:0:
475,192,109957,1,0,0:0:0:0:
182,192,110038,1,2,0:0:0:0:
329,192,110038,1,0,0:0:0:0:
402,192,110119,1,2,0:0:0:0:
36,192,110119,1,0,0:0:0:0:
475,192,110200,1,2,0:0:0:0:
109,192,110200,1,0,0:0:0:0:
256,192,110281,1,2,0:0:0:0:
182,192,110281,1,0,0:0:0:0:
329,192,110281,1,0,0:0:0:0:
256,192,110443,128,0,111497:0:0:0:0:
256,192,111578,1,2,0:0:0:0:
475,192,111578,1,4,0:0:0:0:
402,192,111578,1,0,0:0:0:0:
182,192,111578,1,0,0:0:0:0:
109,192,111660,1,0,0:0:0:0:
329,192,111741,1,8,0:0:0:0:
36,192,111741,1,0,0:0:0:0:
402,192,111822,1,8,0:0:0:0:
182,192,111822,1,0,0:0:0:0:
475,192,111903,1,8,0:0:0:0:
256,192,111903,1,0,0:0:0:0:
329,192,111984,1,0,0:0:0:0:
402,192,112065,1,2,0:0:0:0:
36,192,112065,1,4,0:0:0:0:
109,192,112065,1,0,0:0:0:0:
182,192,112065,1,0,0:0:0:0:
329,192,112146,1,0,0:0:0:0:
256,192,112227,1,0,0:0:0:0:
475,192,112227,1,0,0:0:0:0:
36,192,112308,1,0,0:0:0:0:
109,192,112389,1,8,0:0:0:0:
329,192,112389,1,2,0:0:0:0:
402,192,112389,1,0,0:0:0:0:
182,192,112389,1,0,0:0:0:0:
256,192,112470,1,8,0:0:0:0:
475,192,112470,1,0,0:0:0:0:
36,192,112551,1,8,0:0:0:0:
402,192,112551,1,2,0:0:0:0:
329,192,112633,1,0,0:0:0:0:
256,192,112714,1,2,0:0:0:0:
182,192,112714,1,8,0:0:0:0:
109,192,112714,1,0,0:0:0:0:
475,192,112714,1,0,0:0:0:0:
402,192,112795,1,0,0:0:0:0:
109,192,112876,1,8,0:0:0:0:
36,192,112876,1,2,0:0:0:0:
182,192,112876,1,0,0:0:0:0:
329,192,112876,1,0,0:0:0:0:
402,192,112957,1,0,0:0:0:0:
256,192,113038,1,8,0:0:0:0:
475,192,113038,1,0,0:0:0:0:
182,192,113119,1,2,0:0:0:0:
109,192,113119,1,0,0:0:0:0:
36,192,113119,1,0,0:0:0:0:
329,192,113119,1,0,0:0:0:0:
402,192,113200,1,8,0:0:0:0:
475,192,113200,1,0,0:0:0:0:
329,192,113281,1,0,0:0:0:0:
182,192,113362,1,8,0:0:0:0:
109,192,113362,1,2,0:0:0:0:
36,192,113362,1,0,0:0:0:0:
256,192,113362,1,0,0:0:0:0:
475,192,113443,1,0,0:0:0:0:
329,192,113524,1,2,0:0:0:0:
182,192,113524,1,4,0:0:0:0:
402,192,113524,1,0,0:0:0:0:
109,192,113524,1,0,0:0:0:0:
36,192,113605,1,0,0:0:0:0:
475,192,113605,1,0,0:0:0:0:
402,192,113687,1,0,0:0:0:0:
109,192,113687,1,0,0:0:0:0:
329,192,113768,1,0,0:0:0:0:
182,192,113768,1,0,0:0:0:0:
475,192,113849,1,2,0:0:0:0:
109,192,113849,1,4,0:0:0:0:
402,192,113849,1,0,0:0:0:0:
36,192,113849,1,0,0:0:0:0:
182,192,113930,1,0,0:0:0:0:
329,192,113930,1,0,0:0:0:0:
109,192,114011,1,0,0:0:0:0:
402,192,114011,1,0,0:0:0:0:
36,192,114092,1,0,0:0:0:0:
475,192,114092,1,0,0:0:0:0:
109,192,114173,1,2,0:0:0:0:
182,192,114173,1,4,0:0:0:0:
402,192,114173,1,0,0:0:0:0:
329,192,114173,1,0,0:0:0:0:
256,192,114254,1,0,0:0:0:0:
36,192,114335,1,8,0:0:0:0:
475,192,114335,1,0,0:0:0:0:
109,192,114416,1,8,0:0:0:0:
402,192,114416,1,0,0:0:0:0:
329,192,114497,1,8,0:0:0:0:
256,192,114497,1,0,0:0:0:0:
402,192,114578,1,0,0:0:0:0:
109,192,114660,1,8,0:0:0:0:
36,192,114660,1,4,0:0:0:0:
475,192,114660,1,0,0:0:0:0:
182,192,114660,1,0,0:0:0:0:
402,192,114741,1,0,0:0:0:0:
256,192,114822,1,0,0:0:0:0:
329,192,114822,1,0,0:0:0:0:
182,192,114903,1,0,0:0:0:0:
475,192,114984,1,2,0:0:0:0:
402,192,114984,1,8,0:0:0:0:
109,192,114984,1,0,0:0:0:0:
36,192,114984,1,0,0:0:0:0:
256,192,115065,1,8,0:0:0:0:
329,192,115065,1,0,0:0:0:0:
182,192,115146,1,2,0:0:0:0:
109,192,115146,1,8,0:0:0:0:
329,192,115227,1,0,0:0:0:0:
475,192,115308,1,8,0:0:0:0:
182,192,115308,1,2,0:0:0:0:
36,192,115308,1,0,0:0:0:0:
109,192,115308,1,0,0:0:0:0:
256,192,115389,1,0,0:0:0:0:
329,192,115470,1,2,0:0:0:0:
402,192,115470,1,8,0:0:0:0:
475,192,115470,1,0,0:0:0:0:
36,192,115470,1,0,0:0:0:0:
109,192,115551,1,0,0:0:0:0:
182,192,115633,1,8,0:0:0:0:
109,192,115714,1,2,0:0:0:0:
329,192,115714,1,0,0:0:0:0:
402,192,115714,1,0,0:0:0:0:
475,192,115714,1,0,0:0:0:0:
36,192,115795,1,8,0:0:0:0:
256,192,115795,1,0,0:0:0:0:
182,192,115876,1,0,0:0:0:0:
109,192,115957,1,8,0:0:0:0:
329,192,115957,1,2,0:0:0:0:
402,192,115957,1,0,0:0:0:0:
475,192,115957,1,0,0:0:0:0:
182,192,116038,1,0,0:0:0:0:
256,192,116119,1,2,0:0:0:0:
402,192,116119,1,4,0:0:0:0:
36,192,116119,1,0,0:0:0:0:
329,192,116119,1,0,0:0:0:0:
109,192,116200,1,0,0:0:0:0:
475,192,116200,1,0,0:0:0:0:
182,192,116281,1,0,0:0:0:0:
402,192,116281,1,0,0:0:0:0:
329,192,116362,1,0,0:0:0:0:
36,192,116362,1,0,0:0:0:0:
256,192,116443,1,2,0:0:0:0:
109,192,116443,1,4,0:0:0:0:
182,192,116443,1,0,0:0:0:0:
475,192,116443,1,0,0:0:0:0:
402,192,116524,1,0,0:0:0:0:
182,192,116605,1,2,0:0:0:0:
329,192,116605,1,0,0:0:0:0:
256,192,116605,1,0,0:0:0:0:
109,192,116605,1,0,0:0:0:0:
475,192,116687,1,0,0:0:0:0:
402,192,116768,1,4,0:0:0:0:
109,192,116768,1,2,0:0:0:0:
256,192,116768,1,0,0:0:0:0:
182,192,116768,1,0,0:0:0:0:
329,192,116849,1,0,0:0:0:0:
475,192,116930,1,8,0:0:0:0:
36,192,116930,1,0,0:0:0:0:
402,192,117011,1,8,0:0:0:0:
109,192,117011,1,0,0:0:0:0:
256,192,117092,1,8,0:0:0:0:
182,192,117092,1,0,0:0:0:0:
36,192,117173,1,0,0:0:0:0:
475,192,117254,1,4,0:0:0:0:
329,192,117254,1,2,0:0:0:0:
402,192,117254,1,0,0:0:0:0:
109,192,117254,1,0,0:0:0:0:
182,192,117335,1,0,0:0:0:0:
36,192,117416,1,0,0:0:0:0:
256,192,117416,1,0,0:0:0:0:
475,192,117497,1,0,0:0:0:0:
182,192,117578,1,8,0:0:0:0:
109,192,117578,1,2,0:0:0:0:
329,192,117578,1,0,0:0:0:0:
402,192,117578,1,0,0:0:0:0:
256,192,117660,1,8,0:0:0:0:
36,192,117660,1,0,0:0:0:0:
475,192,117741,1,8,0:0:0:0:
109,192,117741,1,2,0:0:0:0:
182,192,117822,1,0,0:0:0:0:
329,192,117903,1,8,0:0:0:0:
36,192,117903,1,2,0:0:0:0:
402,192,117903,1,0,0:0:0:0:
256,192,117903,1,0,0:0:0:0:
109,192,117984,1,0,0:0:0:0:
402,192,118065,1,2,0:0:0:0:
182,192,118065,1,8,0:0:0:0:
475,192,118065,1,0,0:0:0:0:
329,192,118065,1,0,0:0:0:0:
109,192,118146,1,0,0:0:0:0:
256,192,118227,1,8,0:0:0:0:
36,192,118227,1,0,0:0:0:0:
182,192,118308,1,2,0:0:0:0:
402,192,118308,1,0,0:0:0:0:
329,192,118308,1,0,0:0:0:0:
475,192,118308,1,0,0:0:0:0:
36,192,118389,1,8,0:0:0:0:
109,192,118389,1,0,0:0:0:0:
256,192,118470,1,0,0:0:0:0:
182,192,118551,1,8,0:0:0:0:
402,192,118551,1,2,0:0:0:0:
329,192,118551,1,0,0:0:0:0:
475,192,118551,1,0,0:0:0:0:
256,192,118633,1,0,0:0:0:0:
182,192,118714,1,2,0:0:0:0:
109,192,118714,1,4,0:0:0:0:
36,192,118714,1,0,0:0:0:0:
475,192,118714,1,0,0:0:0:0:
402,192,118795,1,0,0:0:0:0:
329,192,118795,1,0,0:0:0:0:
36,192,118876,1,2,0:0:0:0:
109,192,118876,1,0,0:0:0:0:
329,192,118957,1,0,0:0:0:0:
256,192,118957,1,0,0:0:0:0:
402,192,119038,1,2,0:0:0:0:
475,192,119038,1,0,0:0:0:0:
109,192,119038,1,0,0:0:0:0:
36,192,119038,1,0,0:0:0:0:
256,192,119119,1,0,0:0:0:0:
182,192,119119,1,0,0:0:0:0:
402,192,119200,1,2,0:0:0:0:
475,192,119200,1,0,0:0:0:0:
109,192,119281,1,0,0:0:0:0:
182,192,119281,1,0,0:0:0:0:
329,192,119362,1,4,0:0:0:0:
402,192,119362,1,2,0:0:0:0:
475,192,119362,1,0,0:0:0:0:
256,192,119362,1,0,0:0:0:0:
182,192,119443,1,0,0:0:0:0:
36,192,119524,5,8,0:0:0:0:
475,192,119524,1,0,0:0:0:0:
402,192,119605,1,8,0:0:0:0:
109,192,119605,1,0,0:0:0:0:
256,192,119687,1,8,0:0:0:0:
182,192,119687,1,0,0:0:0:0:
109,192,119768,1,0,0:0:0:0:
475,192,119849,1,4,0:0:0:0:
329,192,119849,1,2,0:0:0:0:
402,192,119849,1,0,0:0:0:0:
36,192,119849,1,0,0:0:0:0:
109,192,119930,1,0,0:0:0:0:
182,192,120011,1,0,0:0:0:0:
256,192,120011,1,0,0:0:0:0:
329,192,120092,1,0,0:0:0:0:
475,192,120173,1,2,0:0:0:0:
36,192,120173,1,8,0:0:0:0:
109,192,120173,1,0,0:0:0:0:
402,192,120173,1,0,0:0:0:0:
182,192,120254,1,8,0:0:0:0:
256,192,120254,1,0,0:0:0:0:
329,192,120335,1,2,0:0:0:0:
402,192,120335,1,8,0:0:0:0:
475,192,120335,1,0,0:0:0:0:
109,192,120416,1,0,0:0:0:0:
329,192,120497,1,2,0:0:0:0:
402,192,120497,1,8,0:0:0:0:
475,192,120497,1,0,0:0:0:0:
256,192,120578,1,0,0:0:0:0:
36,192,120660,1,2,0:0:0:0:
109,192,120660,1,0,0:0:0:0:
329,192,120660,1,0,0:0:0:0:
402,192,120660,1,0,0:0:0:0:
475,192,120660,1,0,0:0:0:0:
182,192,120741,1,2,0:0:0:0:
256,192,120822,1,0,0:0:0:0:
329,192,120903,1,2,0:0:0:0:
402,192,120903,1,0,0:0:0:0:
109,192,120903,1,0,0:0:0:0:
36,192,120903,1,0,0:0:0:0:
475,192,120903,1,0,0:0:0:0:
182,192,120984,1,2,0:0:0:0:
256,192,121065,1,0,0:0:0:0:
402,192,121146,1,2,0:0:0:0:
475,192,121146,1,0,0:0:0:0:
329,192,121146,1,0,0:0:0:0:
36,192,121146,1,0,0:0:0:0:
109,192,121146,1,0,0:0:0:0:
182,192,121227,1,2,0:0:0:0:
256,192,121308,1,2,0:0:0:0:
36,192,121308,1,0,0:0:0:0:
475,192,121308,1,0,0:0:0:0:
109,192,121308,1,4,0:0:0:0:
402,192,121308,1,0,0:0:0:0:
329,192,121389,1,0,0:0:0:0:
475,192,121470,1,2,0:0:0:0:
182,192,121470,1,0,0:0:0:0:
402,192,121470,1,0,0:0:0:0:
109,192,121470,1,0,0:0:0:0:
256,192,121551,1,0,0:0:0:0:
109,192,121633,1,2,0:0:0:0:
36,192,121633,1,0,0:0:0:0:
182,192,121633,1,0,0:0:0:0:
329,192,121633,1,0,0:0:0:0:
256,192,121714,1,2,0:0:0:0:
475,192,121714,1,0,0:0:0:0:
402,192,121714,1,0,0:0:0:0:
109,192,121795,1,2,0:0:0:0:
182,192,121795,1,0,0:0:0:0:
36,192,121795,1,0,0:0:0:0:
329,192,121795,1,0,0:0:0:0:
475,192,121876,1,2,0:0:0:0:
402,192,121876,1,0,0:0:0:0:
256,192,121876,1,0,0:0:0:0:
109,192,121957,1,2,0:0:0:0:
36,192,121957,1,0,0:0:0:0:
329,192,121957,1,0,0:0:0:0:
182,192,121997,1,0,0:0:0:0:
402,192,122038,1,0,0:0:0:0:
