osu file format v14

[General]
AudioFilename: 04-slit.mp3
AudioLeadIn: 0
PreviewTime: 85825
Countdown: 0
SampleSet: Soft
StackLeniency: 0.7
Mode: 0
LetterboxInBreaks: 0
WidescreenStoryboard: 0

[Editor]
Bookmarks: 27623,62552,87280
DistanceSpacing: 1
BeatDivisor: 4
GridSize: 4
TimelineZoom: 1.7

[Metadata]
Title:Slit
TitleUnicode:Ø
Artist:EBICO & jioyi
ArtistUnicode:EBICO & jioyi
Creator:Spring
Version:Normal
Source:Cytus
Tags:liaoxingyao Parad_X chyu0123
BeatmapID:809831
BeatmapSetID:368040

[Difficulty]
HPDrainRate:4
CircleSize:3.5
OverallDifficulty:4
ApproachRate:5
SliderMultiplier:1
SliderTickRate:1

[Events]
//Background and Video events
0,0,"04-slit.png",0,0
//Break Periods
2,4571,14807
//Storyboard Layer 0 (Background)
//Storyboard Layer 1 (Fail)
//Storyboard Layer 2 (Pass)
//Storyboard Layer 3 (Foreground)
//Storyboard Sound Samples

[TimingPoints]
1462,363.636363636364,4,2,0,40,1,0
87280,-100,4,2,0,40,0,1
110552,-100,4,2,0,40,0,0

[Colours]
Combo1 : 255,0,128
Combo2 : 190,190,190
Combo3 : 128,128,255
Combo4 : 0,219,219
Combo5 : 255,0,0

[HitObjects]
116,248,1462,6,0,L|224:256,1,100,0|0,0:0|0:0,0:0:0:0:
312,236,2189,2,0,L|320:288,2,50,0|0|0,0:0|0:0|0:0,0:0:0:0:
264,148,2916,6,0,P|364:152|416:232,1,200,0|0,0:0|0:0,0:0:0:0:
216,216,4371,21,4,1:2:0:0:
92,96,16007,54,0,L|204:108,1,100,4|0,1:2|0:0,0:0:0:0:
256,184,16734,2,0,P|304:200|360:184,1,100,0|0,0:0|0:0,0:0:0:0:
384,152,17280,1,0,0:0:0:0:
412,112,17462,2,0,B|440:208|440:208|388:296,1,200
292,308,18552,1,0,0:0:0:0:
192,324,18916,54,0,P|144:336|92:316,1,100
148,236,19643,2,0,L|156:136,1,100,0|0,0:0|0:0,0:0:0:0:
120,100,20189,1,0,0:0:0:0:
80,68,20371,2,0,L|308:56,1,200
372,100,21462,1,0,0:0:0:0:
288,156,21825,6,0,L|300:260,1,100,4|0,1:2|0:0,0:0:0:0:
216,308,22552,2,0,B|192:272|192:272|204:208,1,100,0|0,1:0|0:0,0:0:0:0:
288,156,23280,1,4,1:2:0:0:
372,208,23643,1,0,0:0:0:0:
464,168,24007,2,0,B|456:52|456:56,1,100,0|0,1:0|0:0,0:0:0:0:
256,192,24734,12,0,26189,0:0:0:0:
240,88,27643,6,0,B|248:188|248:188|344:140,1,200,4|2,1:2|1:2,0:0:0:0:
424,96,28734,1,0,0:0:0:0:
460,188,29098,2,0,L|448:288|448:288,1,100,0|2,0:0|0:0,0:0:0:0:
356,324,29825,2,0,L|350:274,2,50,2|0|0,1:2|0:0|0:0,0:0:0:0:
260,296,30552,54,0,B|232:316|232:316|156:308,1,100,0|0,1:0|0:0,0:0:0:0:
68,320,31280,2,0,L|84:200,1,100,2|0,1:2|0:0,0:0:0:0:
48,128,32007,1,2,1:2:0:0:
236,56,32734,1,0,0:0:0:0:
332,84,33098,1,2,1:2:0:0:
256,148,33462,5,4,1:2:0:0:
256,148,34189,2,0,B|240:208|240:208|264:280|264:280|244:344,2,200,2|0|2,1:2|1:0|1:2,0:0:0:0:
352,116,36007,1,0,0:0:0:0:
448,148,36371,54,0,L|508:140,1,50,2|0,1:2|0:0,0:0:0:0:
352,116,37098,2,0,B|328:168|328:168|368:280,1,150,0|0,1:2|0:0,0:0:0:0:
384,300,37825,1,2,1:2:0:0:
184,284,38552,1,2,1:2:0:0:
284,292,38916,1,2,1:2:0:0:
184,284,40007,6,0,P|128:288|88:316,2,100,2|0|2,1:2|0:0|1:2,0:0:0:0:
236,200,41098,1,0,0:0:0:0:
220,100,41462,1,2,1:2:0:0:
432,36,42189,54,0,L|428:144,1,100,4|0,3:0|0:0,0:0:0:0:
320,152,42916,2,0,B|348:128|348:128|328:60,1,100,2|0,1:2|0:0,0:0:0:0:
224,104,43643,2,0,P|120:136|44:88,1,200,2|2,1:2|1:2,0:0:0:0:
4,184,44734,1,0,0:0:0:0:
44,276,45098,6,0,B|144:272,1,100
224,212,45825,2,0,B|276:204|276:204|320:220,1,100,2|0,1:2|0:0,0:0:0:0:
376,304,46552,2,0,L|476:288,2,100,2|0|2,1:2|0:0|1:0,0:0:0:0:
276,304,47643,1,0,0:0:0:0:
256,192,48007,12,4,50916,3:0:0:0:
152,100,52371,54,0,P|136:172|180:236,2,150
240,52,53825,1,0,0:0:0:0:
328,100,54189,2,0,L|388:96,1,50,0|0,0:0|0:0,0:0:0:0:
377,96,55280,6,0,L|396:296,1,200,0|0,0:0|0:0,0:0:0:0:
300,328,56371,2,0,L|304:268,2,50,0|0|0,0:0|0:0|0:0,0:0:0:0:
300,328,58189,54,0,P|232:304|156:336,2,150
396,300,59643,1,0,0:0:0:0:
332,200,61098,6,0,L|168:216,2,150,0|0|0,0:0|0:0|0:0,0:0:0:0:
412,140,62552,54,0,P|432:180|416:248,1,100,4|0,0:0|0:0,0:0:0:0:
332,200,63280,2,0,B|320:248|320:248|344:296,1,100,0|0,0:0|0:0,0:0:0:0:
384,320,63825,1,0,0:0:0:0:
432,324,64007,6,0,L|200:340,1,200,0|0,0:0|0:0,0:0:0:0:
136,316,65098,1,0,0:0:0:0:
40,344,65462,54,0,L|52:244,1,100
132,184,66189,2,0,B|144:136|144:136|128:88,1,100,0|0,0:0|0:0,0:0:0:0:
156,48,66734,1,0,0:0:0:0:
204,52,66916,6,0,L|312:64,3,100,0|0|0|0,0:0|0:0|0:0|0:0,0:0:0:0:
380,128,68371,53,4,0:0:0:0:
476,96,68734,1,0,0:0:0:0:
452,192,69098,2,0,L|444:292,1,100,0|0,0:0|0:0,0:0:0:0:
356,336,69825,5,4,0:0:0:0:
260,316,70189,1,0,0:0:0:0:
164,292,70552,2,0,B|112:280|112:280|68:304,1,100,0|0,0:0|0:0,0:0:0:0:
48,204,71280,54,0,P|64:160|60:104,1,100,4|0,0:0|0:0,0:0:0:0:
160,108,72007,2,0,P|152:56|120:24,1,100,4|4,0:0|0:0,0:0:0:0:
256,192,72734,12,0,74189,0:0:0:0:
200,68,75643,22,0,P|192:124|216:168,1,100,6|0,1:2|0:0,0:0:0:0:
260,172,76189,2,0,P|288:256|248:320,1,150,0|0,0:0|0:0,0:0:0:0:
136,280,78552,53,4,1:0:0:0:
92,188,78916,2,0,L|100:124,1,50
120,92,79280,2,0,P|164:84|216:104,1,100
272,84,81462,6,0,B|336:68|336:68|304:236|304:236|376:220,1,300,0|0,1:0|0:0,0:0:0:0:
256,192,82916,12,0,85825,0:0:0:0:
396,88,87280,6,0,L|384:208,1,100,4|0,0:0|0:0,0:0:0:0:
300,140,88007,2,0,B|248:128|248:128|196:152,1,100,0|8,0:0|0:0,0:0:0:0:
160,164,88552,1,0,0:0:0:0:
116,140,88734,54,0,L|132:252,1,100,0|8,0:0|0:0,0:0:0:0:
64,316,89462,1,0,0:0:0:0:
160,340,89825,1,8,0:0:0:0:
244,288,90189,6,0,P|288:280|344:296,1,100,0|0,0:0|0:0,0:0:0:0:
432,340,90916,2,0,B|452:308|452:308|440:236,1,100,8|0,0:0|0:0,0:0:0:0:
428,200,91462,1,0,0:0:0:0:
432,152,91643,54,0,L|448:32,2,100,4|4|4,0:0|0:0|0:0,0:0:0:0:
336,180,92734,2,0,L|324:124,1,50,4|0,0:0|0:0,0:0:0:0:
312,84,93098,6,0,P|260:97|208:80,1,100,4|0,0:0|0:0,0:0:0:0:
132,32,93825,2,0,P|112:80|132:136,1,100,0|8,0:0|0:0,0:0:0:0:
160,160,94371,1,0,0:0:0:0:
184,204,94552,54,0,L|176:312,1,100,2|0,0:0|0:0,0:0:0:0:
272,336,95280,2,0,L|268:232,1,100,0|2,0:0|0:0,0:0:0:0:
292,192,95825,1,0,0:0:0:0:
328,156,96007,6,0,P|388:152|420:172,2,100,2|0|8,0:0|0:0|0:0,0:0:0:0:
240,112,97098,1,0,0:0:0:0:
144,88,97462,6,0,L|88:100,2,50,4|0|0,0:0|0:0|0:0,0:0:0:0:
160,188,98189,2,0,L|144:248,2,50,0|0|8,0:0|0:0|0:0,0:0:0:0:
256,220,98916,54,0,P|264:276|244:328,1,100,4|0,0:0|0:0,0:0:0:0:
352,324,99643,2,0,L|464:312,1,100,0|8,0:0|0:0,0:0:0:0:
436,264,100189,1,0,0:0:0:0:
420,216,100371,54,0,B|408:168|408:168|436:116,1,100,2|0,0:0|0:0,0:0:0:0:
352,64,101098,1,0,0:0:0:0:
264,112,101462,1,8,0:0:0:0:
168,84,101825,6,0,L|64:76,1,100,2|0,0:0|0:0,0:0:0:0:
20,164,102552,2,0,L|124:156,1,100,0|12,0:0|0:0,0:0:0:0:
156,192,103098,1,0,0:0:0:0:
172,240,103280,54,0,P|180:288|144:340,2,100
256,188,104371,1,0,0:0:0:0:
352,216,104734,5,4,1:2:0:0:
448,188,105098,1,0,0:0:0:0:
352,216,105462,2,0,B|344:272|344:272|356:320,1,100,0|0,1:0|0:0,0:0:0:0:
256,296,106189,53,4,1:2:0:0:
164,332,106552,1,0,0:0:0:0:
64,316,106916,2,0,L|80:208,1,100,0|0,1:0|0:0,0:0:0:0:
112,180,107462,1,0,0:0:0:0:
144,144,107643,6,0,B|156:92|156:92|144:44,1,100,4|0,1:2|0:0,0:0:0:0:
244,68,108371,1,4,0:0:0:0:
340,44,108734,2,0,L|408:56,1,50,4|0,0:0|0:0,0:0:0:0:
408,100,109098,54,0,L|376:216,2,100
484,164,110189,1,0,0:0:0:0:
464,260,110552,21,6,1:2:0:0:
