osu file format v14

[General]
AudioFilename: 04-slit.mp3
AudioLeadIn: 0
PreviewTime: 85825
Countdown: 0
SampleSet: Soft
StackLeniency: 0.7
Mode: 0
LetterboxInBreaks: 0
WidescreenStoryboard: 0

[Editor]
Bookmarks: 27623,62552,87280
DistanceSpacing: 0.5
BeatDivisor: 4
GridSize: 4
TimelineZoom: 2.1

[Metadata]
Title:Slit
TitleUnicode:Ø
Artist:EBICO & jioyi
ArtistUnicode:EBICO & jioyi
Creator:Spring
Version:Collab Insane
Source:Cytus
Tags:liaoxingyao Parad_X chyu0123
BeatmapID:809927
BeatmapSetID:368040

[Difficulty]
HPDrainRate:6
CircleSize:4
OverallDifficulty:7
ApproachRate:8
SliderMultiplier:1.3
SliderTickRate:1

[Events]
//Background and Video events
0,0,"04-slit.png",0,0
//Break Periods
2,51116,60348
//Storyboard Layer 0 (Background)
//Storyboard Layer 1 (Fail)
//Storyboard Layer 2 (Pass)
//Storyboard Layer 3 (Foreground)
//Storyboard Sound Samples

[TimingPoints]
1462,363.636363636364,4,2,0,40,1,0
4371,-133.333333333333,4,2,0,40,0,0
16007,-117.647058823529,4,2,0,40,0,0
27643,-100,4,2,0,40,0,0
28552,-66.6666666666667,4,2,0,40,0,0
29098,-100,4,2,0,40,0,0
30552,-66.6666666666667,4,2,0,40,0,0
31643,-100,4,2,0,40,0,0
33098,-66.6666666666667,4,2,0,40,0,0
33462,-100,4,2,0,40,0,0
37825,-66.6666666666667,4,2,0,40,0,0
40734,-100,4,2,0,40,0,0
75643,-142.857142857143,4,2,0,40,0,0
76734,-100,4,2,0,40,0,0

[Colours]
Combo1 : 255,0,128
Combo2 : 128,128,128
Combo3 : 128,128,255
Combo4 : 0,219,219
Combo5 : 255,0,0

[HitObjects]
90,117,1462,6,0,P|142:124|171:119,1,65,2|0,0:0|0:0,0:0:0:0:
226,77,1825,1,8,0:0:0:0:
354,119,2007,1,0,0:0:0:0:
338,123,2097,1,0,0:0:0:0:
322,125,2188,1,2,0:0:0:0:
306,126,2279,1,0,0:0:0:0:
289,124,2370,1,8,0:0:0:0:
226,77,2552,2,0,L|231:7,1,65,0|0,0:0|0:0,0:0:0:0:
316,35,2916,6,0,L|379:31,3,32.5,2|0|0|0,0:0|0:0|0:0|0:0,0:0:0:0:
422,70,3280,2,0,L|485:74,3,32.5,8|0|0|0,0:0|0:0|0:0|0:0,0:0:0:0:
489,157,3643,5,4,1:2:0:0:
392,211,3916,1,4,1:2:0:0:
312,136,4189,1,4,1:2:0:0:
257,200,4371,5,0,1:2:0:0:
257,200,5825,5,0,0:0:0:0:
334,244,6007,2,0,L|436:240,1,97.50000371933
505,156,6734,2,0,L|403:152,1,97.50000371933
341,100,7280,1,0,0:0:0:0:
232,192,8552,1,0,0:0:0:0:
186,300,9462,1,0,0:0:0:0:
232,192,9825,2,0,P|261:187|282:189,1,48.750001859665,0|0,0:0|0:0,0:0:0:0:
356,231,10189,53,0,0:0:0:0:
356,231,11643,2,0,P|376:288|324:368,2,146.250005578995,0|0|0,0:0|0:0|0:0,0:0:0:0:
280,188,13098,5,0,0:0:0:0:
271,196,14552,1,0,0:0:0:0:
271,196,16007,54,0,L|163:199,2,82.8750015807152,4|0|0,0:0|0:0|0:0,0:0:0:0:
340,261,16734,1,0,0:0:0:0:
344,288,16824,1,0,0:0:0:0:
342,315,16915,1,0,0:0:0:0:
261,361,17098,2,0,L|207:358,3,27.6250005269051
154,315,17462,6,0,L|46:312,2,82.8750015807152,0|0|0,0:0|0:0|0:0,0:0:0:0:
223,250,18189,1,0,0:0:0:0:
227,222,18279,1,0,0:0:0:0:
225,195,18370,1,0,0:0:0:0:
131,147,18553,2,0,L|77:150,3,27.6250005269051,0|0|0|0,0:0|0:0|0:0|0:0,0:0:0:0:
43,100,18916,54,0,P|35:63|47:17,2,82.8750015807152,2|0|0,0:0|0:0|0:0,0:0:0:0:
103,148,19643,1,0,0:0:0:0:
104,175,19733,1,0,0:0:0:0:
101,202,19824,1,0,0:0:0:0:
40,274,20007,2,0,P|37:291|40:311,3,27.6250005269051,0|0|0|0,0:0|0:0|0:0|0:0,0:0:0:0:
106,355,20371,6,0,P|143:363|189:351,2,82.8750015807152,2|0|0,0:0|0:0|0:0,0:0:0:0:
40,274,21098,1,0,0:0:0:0:
40,274,21189,1,0,0:0:0:0:
101,202,21371,1,0,0:0:0:0:
101,202,21462,2,0,L|179:199,1,55.2500010538101,0|0,0:0|0:0,0:0:0:0:
229,161,21825,6,0,P|233:127|228:105,1,55.2500010538101,0|0,0:0|0:0,0:0:0:0:
154,14,22189,2,0,P|150:48|155:70,1,55.2500010538101,8|0,0:0|0:0,0:0:0:0:
156,199,22552,2,0,P|122:203|100:198,1,55.2500010538101,0|0,0:0|0:0,0:0:0:0:
9,124,22916,2,0,P|43:120|65:125,1,55.2500010538101,8|0,0:0|0:0,0:0:0:0:
101,198,23280,54,0,L|104:265,1,55.2500010538101,0|0,0:0|0:0,0:0:0:0:
179,290,23643,2,0,L|182:357,1,55.2500010538101,8|0,0:0|0:0,0:0:0:0:
263,194,24007,2,0,L|266:261,1,55.2500010538101,0|0,0:0|0:0,0:0:0:0:
341,286,24370,2,0,L|344:353,1,55.2500010538101,8|0,0:0|0:0,0:0:0:0:
425,348,24734,6,0,L|465:350,3,27.6250005269051,0|0|0|0,0:0|0:0|0:0|0:0,0:0:0:0:
498,284,25098,2,0,P|501:257|493:216,1,55.2500010538101,8|0,0:0|0:0,0:0:0:0:
417,173,25462,2,0,L|410:126,3,27.6250005269051,0|0|0|0,0:0|0:0|0:0|0:0,0:0:0:0:
342,112,25825,2,0,L|335:65,3,27.6250005269051,8|0|0|0,0:0|0:0|0:0|0:0,0:0:0:0:
251,100,26189,54,0,B|206:112|206:112|150:82|150:82|90:89,1,165.75000316143,4|0,0:0|0:0,0:0:0:0:
44,164,26916,6,0,L|41:215,2,36.8333340358734,0|0|0,0:0|0:0|0:0,0:0:0:0:
128,157,27280,2,0,L|125:106,2,36.8333340358734,0|0|0,0:0|0:0|0:0,0:0:0:0:
144,236,27643,54,0,L|252:244,1,97.5,4|0,1:2|0:0,0:0:0:0:
256,224,28007,1,2,1:2:0:0:
68,288,28189,1,2,1:2:0:0:
149,322,28371,1,10,0:0:0:0:
149,322,28552,6,0,P|165:274|141:234,1,97.50000371933,2|0,1:0|0:0,0:0:0:0:
132,152,28825,2,0,L|152:40,1,97.50000371933,2|0,1:0|0:0,0:0:0:0:
128,64,29098,53,2,1:2:0:0:
212,104,29280,1,0,0:0:0:0:
228,108,29371,1,0,0:0:0:0:
244,108,29462,2,0,P|264:108|280:96,1,32.5,0|0,0:0|0:0,0:0:0:0:
348,136,29643,2,0,P|364:124|376:104,1,32.5,0|0,0:0|0:0,0:0:0:0:
448,64,29825,6,0,L|376:60,1,65,10|0,1:2|0:0,0:0:0:0:
309,206,30189,1,2,1:2:0:0:
384,256,30371,1,0,0:0:0:0:
396,252,30462,1,0,0:0:0:0:
408,248,30552,54,0,P|400:304|432:328,1,97.50000371933,2|0,1:2|0:0,0:0:0:0:
264,304,30916,2,0,L|312:292,2,48.750001859665,0|0|0,0:0|0:0|0:0,0:0:0:0:
180,280,31280,2,0,L|200:200,1,65.0000024795533,10|2,1:2|0:1,0:0:0:0:
123,197,31522,1,2,0:1:0:0:
47,219,31643,6,0,P|39:183|51:159,1,65,14|0,1:3|0:0,0:0:0:0:
148,52,32007,2,0,L|96:48,2,43.3333333333333,2|0|0,1:2|0:0|0:0,0:0:0:0:
236,96,32371,2,0,B|248:112|248:112|264:72|260:32,1,97.5,0|0,0:0|0:0,0:0:0:0:
343,100,32734,54,0,P|342:115|335:132,1,32.5,10|0,1:2|0:0,0:0:0:0:
301,213,32916,2,0,P|315:219|332:222,1,32.5,0|0,0:0|0:0,0:0:0:0:
404,256,33098,6,0,L|456:248,1,48.750001859665,2|0,1:3|0:0,0:0:0:0:
476,245,33280,2,0,L|424:237,1,48.750001859665,2|0,1:3|0:0,0:0:0:0:
348,180,33462,54,0,B|336:148|336:148|356:80,1,97.5,6|0,1:2|0:0,0:0:0:0:
364,48,33825,2,0,L|280:56,1,65,2|2,0:1|0:1,0:0:0:0:
208,76,34189,6,0,L|160:68,2,43.3333333333333,2|2|2,1:2|1:2|1:2,0:0:0:0:
116,144,34552,2,0,L|72:148,2,43.3333333333333,2|2|2,1:2|1:2|1:2,0:0:0:0:
181,208,34916,2,0,L|224:216,2,43.3333333333333,2|2|2,1:2|1:2|1:2,0:0:0:0:
128,292,35280,2,0,L|172:288,2,43.3333333333333,2|2|2,1:2|1:2|1:2,0:0:0:0:
224,340,35643,1,10,1:2:0:0:
256,328,35734,1,0,0:0:0:0:
292,324,35825,1,0,0:0:0:0:
328,332,35916,1,0,0:0:0:0:
360,352,36007,2,0,L|404:348,2,32.5,0|0|0,0:0|0:0|0:0,0:0:0:0:
376,176,36371,53,2,1:2:0:0:
328,256,36552,1,0,0:0:0:0:
320,100,36734,1,0,0:0:0:0:
316,88,36825,1,0,0:0:0:0:
312,76,36916,1,0,0:0:0:0:
308,64,37007,1,0,0:0:0:0:
304,52,37098,2,0,L|408:40,2,97.5,2|2|2,1:0|1:0|1:0,0:0:0:0:
212,108,37825,6,0,P|188:112|164:104,2,48.750001859665,2|0|0,1:2|0:0|0:0,0:0:0:0:
80,72,38098,2,0,P|76:132|132:192,1,146.250005578995,0|0,0:0|0:0,0:0:0:0:
220,200,38462,1,0,0:0:0:0:
236,184,38552,2,0,L|232:244,1,48.750001859665,10|0,1:2|0:0,0:0:0:0:
180,348,38734,2,0,L|176:299,1,48.750001859665,0|0,0:0|0:0,0:0:0:0:
104,260,38916,2,0,L|52:256,3,48.750001859665,10|10|10|10,1:2|1:2|1:2|1:2,0:0:0:0:
104,260,40007,54,0,L|32:264,2,65.0000024795533,2|0|2,1:0|0:0|0:1,0:0:0:0:
176,192,40371,2,0,L|240:196,2,65.0000024795533,2|2|2,0:1|0:1|0:1,0:0:0:0:
223,110,40734,6,0,P|291:94|343:130,1,130,2|0,1:2|0:0,0:0:0:0:
336,304,41280,1,0,0:0:0:0:
336,304,41462,2,0,B|288:316|288:316|240:300,2,97.5,10|0|0,1:2|0:0|0:0,0:0:0:0:
424,276,42189,53,0,3:0:0:0:
300,136,42552,1,0,3:0:0:0:
420,48,42916,2,0,L|500:56,1,65,10|0,1:2|0:0,0:0:0:0:
300,136,43280,2,0,L|376:124,1,65,0|0,0:0|0:0,0:0:0:0:
216,104,43643,6,0,L|208:168,2,43.3333333333333,2|2|2,0:0|0:0|0:0,0:0:0:0:
124,136,44007,2,0,P|116:192|144:232,1,97.5,0|0,1:0|1:0,0:0:0:0:
160,236,44371,1,10,1:2:0:0:
216,104,44734,1,10,1:2:0:0:
216,104,44916,1,10,1:2:0:0:
288,52,45098,54,0,L|436:64,1,130,4|0,0:0|0:0,0:0:0:0:
380,152,45643,1,0,0:0:0:0:
380,152,45734,1,0,0:0:0:0:
380,152,45825,2,0,B|368:216|368:216|396:280,1,130,8|0,1:2|0:0,0:0:0:0:
280,344,46552,6,0,L|348:336,1,65,2|0,1:2|0:0,0:0:0:0:
200,292,46916,2,0,L|136:284,1,65,0|0,0:0|0:0,0:0:0:0:
52,232,47280,2,0,B|36:268|36:268|48:332,2,97.5,10|2|2,1:2|0:1|0:1,0:0:0:0:
112,152,48007,54,0,L|108:108,3,32.5,0|0|0|0,3:0|3:0|3:0|3:0,0:0:0:0:
72,112,48371,2,0,L|76:68,3,32.5,2|2|2|2,3:1|3:1|3:1|3:1,0:0:0:0:
96,56,48734,1,2,3:1:0:0:
124,44,48825,1,2,3:1:0:0:
152,40,48916,1,2,3:1:0:0:
180,44,49007,1,2,3:1:0:0:
208,56,49098,1,2,3:1:0:0:
236,64,49189,1,2,3:1:0:0:
264,68,49280,1,2,3:1:0:0:
292,60,49371,1,2,3:1:0:0:
316,44,49462,6,0,L|368:36,3,32.5,2|2|0|0,3:1|3:1|3:1|3:1,0:0:0:0:
448,92,49825,2,0,L|396:84,3,32.5,2|2|2|2,3:1|3:1|3:1|3:1,0:0:0:0:
352,128,50189,1,2,3:1:0:0:
344,156,50280,1,2,3:1:0:0:
336,184,50371,1,2,3:1:0:0:
328,212,50462,1,2,3:1:0:0:
356,204,50552,1,2,3:1:0:0:
384,196,50643,1,2,3:1:0:0:
412,188,50734,1,2,3:1:0:0:
440,180,50825,1,2,3:1:0:0:
432,208,50916,21,4,1:3:0:0:
256,192,61098,12,0,62371,0:0:0:0:
284,128,62552,6,0,P|348:136|416:112,1,130,4|8,1:2|3:2,0:0:0:0:
216,68,63280,1,0,3:0:0:0:
188,216,63462,1,8,3:2:0:0:
164,136,63643,2,0,L|88:144,1,65,0|0,0:0|0:0,0:0:0:0:
317,227,64007,6,0,L|177:215,1,130,8|8,1:3|3:2,0:0:0:0:
368,296,64734,1,0,3:0:0:0:
296,128,64916,1,8,3:2:0:0:
448,200,65098,2,0,P|456:236|436:272,1,65
296,128,65462,54,0,L|408:136,2,97.5,8|0|0,1:3|0:0|0:0,0:0:0:0:
212,144,66189,2,0,P|176:148|148:140,1,65,0|8,3:0|3:2,0:0:0:0:
88,84,66552,2,0,L|24:92,1,65
100,220,66916,5,8,1:3:0:0:
184,40,67189,1,0,0:0:0:0:
212,144,67462,1,0,0:0:0:0:
100,220,67643,1,2,1:3:0:0:
84,200,67734,2,0,L|92:280,1,65,0|0,0:0|0:0,0:0:0:0:
144,328,68007,2,0,P|172:336|216:320,1,65,0|0,0:0|0:0,0:0:0:0:
272,284,68371,53,6,1:2:0:0:
272,284,68552,1,0,0:0:0:0:
364,236,68734,2,0,L|356:316,1,65,8|0,0:0|0:0,0:0:0:0:
252,160,69098,1,0,0:0:0:0:
252,160,69280,1,8,0:0:0:0:
164,192,69462,2,0,L|157:127,1,65,0|0,0:0|0:0,0:0:0:0:
68,64,69825,6,0,L|60:136,1,65,0|0,1:2|0:0,0:0:0:0:
259,95,70189,2,0,L|251:167,1,65,8|0,0:0|0:0,0:0:0:0:
180,280,70552,2,0,B|172:312|172:312|184:344,1,65,0|8,0:0|0:0,0:0:0:0:
340,312,70916,2,0,B|348:280|348:280|336:248,1,65,4|0,0:0|0:0,0:0:0:0:
368,176,71280,53,4,1:2:0:0:
380,180,71371,1,0,0:0:0:0:
392,184,71462,1,0,0:0:0:0:
404,188,71552,1,0,0:0:0:0:
416,192,71643,2,0,L|412:124,1,65,0|0,0:0|0:0,0:0:0:0:
324,52,72007,1,4,1:2:0:0:
312,56,72098,1,0,0:0:0:0:
300,60,72189,1,0,0:0:0:0:
288,64,72280,1,0,0:0:0:0:
276,68,72371,2,0,L|284:132,1,65,0|0,0:0|0:0,0:0:0:0:
244,216,72734,6,0,B|180:236|180:236|116:212,1,130,2|2,0:0|0:0,0:0:0:0:
40,124,73280,1,2,0:0:0:0:
52,128,73371,1,0,0:0:0:0:
64,132,73462,2,0,L|104:124,2,32.5,2|2|2,3:0|3:0|3:0,0:0:0:0:
88,296,73825,2,0,L|124:304,2,32.5,2|2|2,3:0|3:0|3:0,0:0:0:0:
200,320,74189,5,2,1:2:0:0:
304,264,74371,2,0,L|344:272,1,32.5,0|2,0:0|1:2,0:0:0:0:
208,200,74643,2,0,L|168:208,1,32.5,0|2,0:0|1:2,0:0:0:0:
64,140,74916,2,0,L|72:88,1,32.5,0|2,0:0|1:2,0:0:0:0:
192,36,75189,2,0,L|184:80,1,32.5,0|2,0:0|0:0,0:0:0:0:
104,24,75371,2,0,L|71:19,2,32.5,2|2|2,1:2|1:2|1:2,0:0:0:0:
208,52,75643,22,0,B|232:68|232:68|292:56,1,90.9999972229005
384,40,76189,2,0,P|404:88|396:128,1,90.9999972229005
340,176,76734,6,0,L|292:168,3,32.5,2|2|2|2,0:0|0:0|0:0|0:0,0:0:0:0:
404,224,77098,21,2,1:2:0:0:
316,272,77280,2,0,L|320:316,1,32.5,0|0,0:0|1:2,0:0:0:0:
232,232,77552,2,0,L|228:272,1,32.5,0|2,0:0|1:2,0:0:0:0:
144,312,77825,2,0,L|148:356,1,32.5,0|2,0:0|1:2,0:0:0:0:
56,276,78098,2,0,L|48:320,1,32.5,0|2,0:0|0:0,0:0:0:0:
104,208,78280,2,0,L|101:175,2,32.5,2|2|2,1:2|1:2|1:2,0:0:0:0:
48,120,78552,54,0,P|44:88|56:56,1,65
248,104,78916,2,0,L|324:112,1,65,0|0,0:0|0:0,0:0:0:0:
332,96,79189,1,0,0:0:0:0:
348,80,79280,2,0,L|344:144,1,65,0|0,0:0|0:0,0:0:0:0:
403,275,79643,1,2,3:0:0:0:
402,261,79734,1,2,3:0:0:0:
402,249,79825,1,2,3:0:0:0:
400,236,79916,1,2,3:0:0:0:
400,224,80007,5,2,1:2:0:0:
276,280,80189,2,0,L|324:272,1,32.5,0|2,0:0|1:2,0:0:0:0:
244,192,80462,2,0,L|296:200,1,32.5,0|2,0:0|1:2,0:0:0:0:
160,260,80734,2,0,L|208:252,1,32.5,0|2,0:0|1:2,0:0:0:0:
116,172,81007,2,0,L|168:180,1,32.5,0|2,1:2|1:2,0:0:0:0:
52,232,81189,2,0,L|56:284,2,32.5,2|2|2,0:0|0:0|0:0,0:0:0:0:
44,144,81462,22,0,P|32:108|44:72,1,65,0|0,0:0|0:0,0:0:0:0:
64,52,81734,2,0,L|144:48,1,65,0|0,0:0|0:0,0:0:0:0:
160,80,82007,2,0,L|240:76,1,65,0|0,0:0|0:0,0:0:0:0:
256,48,82280,2,0,L|336:44,1,65,0|0,0:0|0:0,0:0:0:0:
360,60,82552,1,2,0:0:0:0:
360,60,82734,1,2,0:0:0:0:
296,136,82916,37,2,1:2:0:0:
352,252,83098,2,0,L|360:204,1,32.5,0|2,0:0|1:2,0:0:0:0:
224,232,83371,1,0,0:0:0:0:
228,248,83462,1,2,1:2:0:0:
232,264,83552,1,0,0:0:0:0:
236,280,83643,1,2,1:2:0:0:
364,244,83825,2,0,L|372:196,1,32.5,0|2,0:0|1:2,0:0:0:0:
296,136,84098,2,0,L|256:132,1,32.5,0|2,0:0|1:2,0:0:0:0:
360,60,84371,54,0,L|400:56,1,32.5,0|2,0:0|1:2,0:0:0:0:
484,100,84643,1,0,0:0:0:0:
480,116,84734,1,2,1:2:0:0:
476,132,84825,1,2,1:2:0:0:
472,148,84916,2,0,L|432:144,1,32.5,2|2,1:2|1:2,0:0:0:0:
368,184,85098,2,0,B|356:208|356:208|380:296,2,97.5,0|0|0,3:0|0:0|0:0,0:0:0:0:
256,192,85825,12,12,86916,0:0:0:0:
374,276,87280,6,0,L|481:269,2,97.5,6|0|0,1:2|0:0|0:0,0:0:0:0:
312,211,88007,1,2,1:2:0:0:
306,179,88097,1,0,0:0:0:0:
309,147,88188,1,0,0:0:0:0:
373,80,88371,1,10,1:2:0:0:
345,63,88461,1,0,0:0:0:0:
313,56,88552,1,0,0:0:0:0:
281,59,88643,1,0,0:0:0:0:
251,72,88734,54,0,B|205:58|205:58|142:65,2,97.5,0|0|0,1:2|0:0|0:0,0:0:0:0:
213,153,89462,2,0,L|206:212,2,32.5,2|0|0,1:2|0:0|0:0,0:0:0:0:
125,238,89825,2,0,L|118:179,3,32.5,10|0|0|0,1:2|0:0|0:0|0:0,0:0:0:0:
55,151,90189,6,0,B|49:112|49:112|62:54,2,97.5,2|0|0,1:2|0:0|0:0,0:0:0:0:
121,205,90916,1,2,1:2:0:0:
153,211,91006,1,0,0:0:0:0:
185,208,91097,1,0,0:0:0:0:
252,144,91280,1,10,1:2:0:0:
269,172,91370,1,0,0:0:0:0:
276,204,91461,1,0,0:0:0:0:
273,236,91552,1,0,0:0:0:0:
260,266,91643,54,0,P|211:291|126:281,1,130,6|6,1:2|1:2,0:0:0:0:
121,205,92189,1,0,0:0:0:0:
169,135,92371,1,0,0:0:0:0:
252,144,92552,2,0,L|264:62,2,65,0|14|0,0:0|1:2|0:0,0:0:0:0:
185,208,93098,6,0,P|187:255|225:305,2,97.5,4|0|0,1:2|0:0|0:0,0:0:0:0:
55,151,93825,1,2,1:2:0:0:
50,118,93915,1,0,0:0:0:0:
45,86,94006,1,0,0:0:0:0:
142,76,94189,1,10,1:2:0:0:
137,109,94279,1,0,0:0:0:0:
132,141,94370,1,0,0:0:0:0:
126,173,94462,1,0,0:0:0:0:
121,205,94552,54,0,P|142:238|123:306,2,97.5,2|0|0,1:2|0:0|0:0,0:0:0:0:
137,109,95280,1,0,0:0:0:0:
169,103,95370,1,0,0:0:0:0:
201,106,95461,1,0,0:0:0:0:
268,170,95644,1,10,1:2:0:0:
285,142,95734,1,0,0:0:0:0:
292,110,95825,1,0,0:0:0:0:
289,78,95916,1,0,0:0:0:0:
276,48,96007,6,0,P|238:25|172:34,2,97.5,2|0|0,1:2|0:0|0:0,0:0:0:0:
376,75,96734,2,0,L|382:113,2,32.5,2|0|0,1:2|0:0|0:0,0:0:0:0:
345,184,97098,2,0,L|339:222,3,32.5,10|0|0|0,1:2|0:0|0:0|0:0,0:0:0:0:
263,271,97462,54,0,B|230:256|230:256|149:269,2,97.5,2|0|0,1:2|0:0|0:0,0:0:0:0:
339,216,98189,2,0,B|372:231|372:231|453:218,2,97.5,2|0|0,1:2|0:0|0:0,0:0:0:0:
285,142,98916,6,0,L|184:148,1,97.5,6|0,1:2|0:0,0:0:0:0:
152,130,99280,2,0,P|144:107|152:56,1,65,0|0,0:0|0:0,0:0:0:0:
73,20,99643,2,0,L|26:24,2,32.5,2|0|0,1:2|0:0|0:0,0:0:0:0:
147,67,100007,2,0,L|194:71,3,32.5,10|0|0|0,1:2|0:0|0:0|0:0,0:0:0:0:
244,26,100371,54,0,B|282:13|282:13|346:22,1,97.5,2|0,1:2|0:0,0:0:0:0:
361,47,100734,2,0,P|366:78|359:111,1,65,10|0,1:2|0:0,0:0:0:0:
285,142,101098,1,0,1:2:0:0:
253,136,101188,1,0,0:0:0:0:
221,139,101279,1,0,0:0:0:0:
153,211,101462,1,10,1:2:0:0:
122,222,101552,1,0,0:0:0:0:
90,223,101643,1,0,0:0:0:0:
60,211,101734,1,0,0:0:0:0:
36,189,101825,6,0,B|17:240|38:294,2,97.5,2|0|0,1:2|0:0|0:0,0:0:0:0:
94,120,102552,2,0,L|141:117,2,32.5,2|0|0,1:2|0:0|0:0,0:0:0:0:
221,139,102916,2,0,L|268:142,3,32.5,14|0|0|0,1:2|0:0|0:0|0:0,0:0:0:0:
317,198,103280,54,0,L|320:288,1,65,6|4,1:2|0:0,0:0:0:0:
380,353,103825,1,4,0:0:0:0:
475,366,104189,1,0,0:0:0:0:
380,353,104371,2,0,L|332:347,3,32.5,10|0|0|0,1:2|0:0|0:0|0:0,0:0:0:0:
280,323,104734,6,0,L|286:246,1,65,6|0,1:2|0:0,0:0:0:0:
210,191,105098,2,0,L|204:268,1,65,10|0,1:2|0:0,0:0:0:0:
120,329,105462,2,0,L|126:252,1,65,2|2,1:2|1:2,0:0:0:0:
50,197,105826,2,0,L|44:274,1,65,10|2,1:2|1:2,0:0:0:0:
128,158,106189,54,0,P|135:127|125:87,1,65,6|2,1:2|1:2,0:0:0:0:
54,73,106552,2,0,P|47:42|57:2,1,65,10|0,1:2|0:0,0:0:0:0:
132,2,106916,2,0,P|163:-5|203:5,1,65,2|0,1:2|0:0,0:0:0:0:
217,76,107280,2,0,P|248:83|284:76,1,65,10|0,1:2|0:0,0:0:0:0:
352,116,107643,6,0,B|362:152|362:152|353:216,2,97.5,6|0|2,1:2|0:0|1:2,0:0:0:0:
452,157,108371,2,0,B|442:121|442:121|451:57,2,97.5,2|0|2,1:2|0:0|1:2,0:0:0:0:
432,258,109098,54,0,P|427:300|444:373,2,97.5,2|0|0,1:2|0:0|0:0,0:0:0:0:
452,157,109825,2,0,L|490:156,3,32.5,2|2|2|2,1:2|1:2|1:2|1:2,0:0:0:0:
474,80,110189,2,0,L|512:79,3,32.5,2|2|2|2,1:2|1:2|1:2|1:2,0:0:0:0:
510,7,110552,21,4,0:0:0:0:
