osu file format v14

[General]
AudioFilename: Slit.mp3
AudioLeadIn: 477
PreviewTime: 85886
Countdown: 0
SampleSet: Normal
StackLeniency: 0.4
Mode: 0
LetterboxInBreaks: 0
WidescreenStoryboard: 0

[Editor]
DistanceSpacing: 0.3
BeatDivisor: 4
GridSize: 4
TimelineZoom: 3.799999

[Metadata]
Title:Slit
TitleUnicode:Ø
Artist:EBICO & jioyi
ArtistUnicode:EBICO & jioyi
Creator:Megurine Luka
Version:Hyper
Source:Cytus
Tags:G_S_X Deye Axey judgment light Jycool __Ag instrumental electronic video game
BeatmapID:4582836
BeatmapSetID:301422

[Difficulty]
HPDrainRate:6
CircleSize:4
OverallDifficulty:5
ApproachRate:7
SliderMultiplier:1.6
SliderTickRate:1

[Events]
//Background and Video events
0,0,"slit.jpg",0,0
//Break Periods
//Storyboard Layer 0 (Background)
//Storyboard Layer 1 (Fail)
//Storyboard Layer 2 (Pass)
//Storyboard Layer 3 (Foreground)
//Storyboard Layer 4 (Overlay)
//Storyboard Sound Samples

[TimingPoints]
1513,363.636363636364,4,1,0,30,1,0
2967,-200,4,1,0,50,0,0
3603,-200,4,1,0,5,0,0
3694,-200,4,1,0,70,0,0
4422,-200,4,2,0,60,0,1
4603,-200,4,2,0,60,0,0
5513,-200,4,2,0,60,0,0
8785,-200,4,2,0,60,0,0
9331,-200,4,2,0,20,0,0
9513,-200,4,2,0,60,0,0
14058,-200,4,2,0,5,0,0
16058,-100,4,1,0,60,0,0
21876,-100,4,1,0,70,0,0
23240,-100,4,1,0,60,0,0
27694,-100,4,1,0,70,0,0
28603,-133.333333333333,4,1,0,50,0,0
29149,-100,4,1,0,50,0,0
29876,-76.9230769230769,4,1,0,50,0,0
30240,-100,4,1,0,50,0,0
30603,-100,4,1,0,50,0,0
31331,-76.9230769230769,4,1,0,50,0,0
31694,-133.333333333333,4,1,0,50,0,0
32058,-100,4,1,0,50,0,0
33149,-66.6666666666667,4,1,0,50,0,0
33513,-100,4,1,0,50,0,0
33876,-76.9230769230769,4,1,0,50,0,0
34240,-100,4,1,0,50,0,0
37149,-133.333333333333,4,1,0,50,0,0
37876,-100,4,1,0,50,0,0
39331,-133.333333333333,4,1,0,20,0,0
40058,-100,4,1,0,50,0,0
40785,-100,4,1,0,50,0,0
41331,-100,4,1,0,50,0,0
46603,-200,4,1,0,50,0,0
47331,-133.333333333333,4,1,0,50,0,0
48058,-100,4,1,0,50,0,0
48785,-76.9230769230769,4,1,0,50,0,0
49513,-76.9230769230769,4,1,0,70,0,0
50240,-100,4,1,0,70,0,0
50967,-100,4,1,0,40,0,0
52422,-100,4,2,0,30,0,0
61149,-100,4,2,0,40,0,0
61876,-100,4,2,0,50,0,0
62603,-100,4,1,1,50,0,0
69149,-125,4,1,1,60,0,0
69876,-100,4,1,1,70,0,0
70603,-83.3333333333333,4,1,1,80,0,0
71513,-83.3333333333333,4,1,1,60,0,0
72785,-83.3333333333333,4,1,0,50,0,0
74240,-100,4,1,0,70,0,0
75694,-100,4,1,0,70,0,0
76785,-100,4,2,0,50,0,0
77149,-100,4,1,0,70,0,0
80058,-100,4,1,0,70,0,0
81513,-133.333333333333,4,1,0,70,0,0
81694,-133.333333333333,4,1,0,20,0,0
81785,-133.333333333333,4,1,0,70,0,0
81967,-133.333333333333,4,1,0,20,0,0
82058,-133.333333333333,4,1,0,70,0,0
82240,-133.333333333333,4,1,0,20,0,0
82331,-133.333333333333,4,1,0,70,0,0
82513,-133.333333333333,4,1,0,20,0,0
82603,-100,4,1,0,70,0,0
82967,-100,4,1,0,70,0,0
86876,-100,4,2,0,40,0,0
86967,-100,4,1,0,55,0,1
87331,-100,4,1,0,60,0,1
98876,-100,4,1,0,60,0,0
98967,-100,4,1,0,60,0,1
102967,-100,4,1,0,70,0,1
103058,-100,4,1,0,20,0,1
103331,-100,4,1,0,70,0,1
103967,-100,4,1,0,50,0,1
104240,-100,4,1,0,70,0,1
104422,-100,4,1,0,60,0,1
109149,-100,4,1,0,70,0,1
110513,-66.6666666666667,4,1,0,70,0,0
110603,-66.6666666666667,4,1,0,70,0,1
110694,-200,4,1,0,70,0,0

[Colours]
Combo1 : 251,0,0
Combo2 : 192,192,192
Combo3 : 128,128,255

[HitObjects]
100,172,1513,5,0,0:0:0:0:
100,172,1694,1,0,2:0:0:0:
72,280,1876,2,0,P|152:236|248:248,1,160,8|0,0:0|2:0,0:0:0:0:
244,324,2422,1,0,0:0:0:0:
392,292,2603,2,0,L|308:288,1,80,0|0,2:0|2:0,0:0:0:0:
492,216,2967,6,0,L|332:208,1,160,0|0,0:0|0:0,0:0:0:0:
252,160,3967,5,0,0:0:0:0:
200,88,4240,1,0,0:0:0:0:
56,180,4422,6,0,P|132:188|176:164,1,120,4|0,0:0|0:3,0:0:0:0:
252,160,5513,1,2,0:3:0:0:
356,120,5876,2,0,L|344:208,1,80,2|0,0:0|0:0,0:0:0:0:
428,264,6422,2,0,L|444:176,1,80,2|0,0:0|0:0,0:0:0:0:
444,92,6967,1,2,0:0:0:0:
288,40,7331,6,0,P|248:64|132:40,1,160,2|0,0:0|0:0,0:0:0:0:
72,208,8422,1,0,0:0:0:0:
72,208,8603,2,0,P|112:184|228:208,1,160,2|0,0:0|0:0,0:0:0:0:
324,172,9513,2,0,P|308:268|244:308,1,160,2|6,0:0|0:0,0:0:0:0:
168,192,11694,2,0,B|32:200|32:200,1,120,2|2,0:0|0:0,0:0:0:0:
249,75,12785,1,2,0:0:0:0:
256,192,13149,12,0,14513,0:0:0:0:
256,192,14603,12,2,15513,0:0:0:0:
320,96,16058,5,2,0:2:0:0:
248,40,16240,2,0,L|204:28,1,40,0|2,0:0|0:2,0:0:0:0:
192,112,16513,1,0,0:0:0:0:
188,120,16604,1,2,0:2:0:0:
184,128,16695,1,0,0:0:0:0:
180,136,16785,1,0,0:0:0:0:
176,144,16876,1,2,0:2:0:0:
152,236,17058,6,0,L|208:224,5,40,0|2|0|2|0|2,0:0|0:2|0:0|0:2|0:0|0:2,0:0:0:0:
60,272,17785,2,0,P|108:324|168:336,2,120,2|2|2,0:2|0:2|0:2,0:0:0:0:
72,184,18603,2,0,L|88:136,4,40,2|0|2|0|2,0:2|0:0|0:2|0:0|0:2,0:0:0:0:
32,80,19240,2,0,P|104:64|156:96,2,120,2|2|0,0:2|0:2|0:0,0:0:0:0:
216,128,20058,5,2,0:2:0:0:
224,124,20149,1,0,0:0:0:0:
232,120,20240,1,2,0:2:0:0:
240,116,20331,1,0,0:0:0:0:
248,112,20422,1,2,0:2:0:0:
280,192,20694,2,0,P|236:216|152:196,1,120,2|0,0:2|0:0,0:0:0:0:
80,184,21149,5,0,0:0:0:0:
76,196,21240,1,0,0:0:0:0:
72,208,21331,1,0,0:0:0:0:
68,220,21422,1,0,0:0:0:0:
64,232,21513,1,0,0:0:0:0:
64,324,21694,1,0,0:0:0:0:
144,368,21876,5,4,0:0:0:0:
216,336,22058,1,0,0:0:0:0:
296,328,22240,1,8,0:0:0:0:
376,336,22422,1,0,0:0:0:0:
452,360,22603,2,0,L|504:284,1,80,0|0,0:0|0:0,0:0:0:0:
416,256,22967,2,0,L|468:180,1,80,8|0,0:0|0:0,0:0:0:0:
408,124,23331,5,0,0:0:0:0:
396,40,23513,1,0,0:0:0:0:
316,52,23694,1,8,0:0:0:0:
328,136,23876,1,0,0:0:0:0:
284,204,24058,1,0,0:0:0:0:
212,164,24240,1,0,0:0:0:0:
252,92,24422,1,8,0:0:0:0:
328,136,24603,1,0,0:0:0:0:
364,216,24785,5,0,0:0:0:0:
361,231,24876,1,0,0:0:0:0:
354,245,24967,1,0,0:0:0:0:
345,258,25058,1,0,0:0:0:0:
334,269,25149,1,8,0:0:0:0:
322,280,25240,1,0,0:0:0:0:
306,285,25331,1,0,0:0:0:0:
291,291,25422,1,0,0:0:0:0:
275,293,25513,2,0,L|216:283,3,40,0|0|0|0,0:0|0:0|0:0|0:0,0:0:0:0:
219,284,25876,2,0,L|156:291,3,40,8|0|2|0,0:0|0:0|0:2|0:0,0:0:0:0:
167,299,26240,6,0,L|24:305,1,120,0|2,0:0|0:0,0:0:0:0:
27,230,26603,2,0,L|110:227,1,80,0|2,0:0|0:0,0:0:0:0:
145,159,26967,6,0,L|208:157,1,40,2|4,0:0|0:2,0:0:0:0:
298,154,27240,1,2,0:0:0:0:
211,43,27513,1,6,0:0:0:0:
145,159,27694,6,0,L|17:167,1,120,4|0,0:2|0:0,0:0:0:0:
8,152,28058,1,0,0:0:0:0:
40,60,28240,1,0,0:3:0:0:
136,12,28422,2,0,L|212:44,1,80,0|2,0:3|0:0,0:0:0:0:
300,32,28785,2,0,L|304:132,1,90.0000034332277,0|0,0:0|0:0,0:0:0:0:
320,148,29149,5,4,0:3:0:0:
412,280,29331,1,0,0:0:0:0:
412,272,29422,1,0,0:0:0:0:
412,264,29513,1,0,0:0:0:0:
412,256,29603,1,0,0:0:0:0:
412,248,29694,1,0,0:0:0:0:
412,240,29785,1,0,0:0:0:0:
412,228,29876,2,0,L|376:356,1,103.999995239258,2|2,0:0|0:0,0:0:0:0:
304,352,30240,1,2,0:0:0:0:
228,312,30422,5,0,0:0:0:0:
228,312,30513,1,0,0:0:0:0:
228,312,30603,2,0,L|100:328,1,120,4|4,0:3|0:3,0:0:0:0:
32,224,31058,1,0,0:0:0:0:
32,112,31240,1,0,0:0:0:0:
32,112,31331,6,0,L|64:36,2,69.3333301595054,0|0|0,0:0|0:0|0:0,0:0:0:0:
32,224,31694,1,2,0:0:0:0:
84,312,31876,1,0,2:0:0:0:
84,312,32058,6,0,L|172:296,1,53.3333333333333,4|0,0:3|0:0,0:0:0:0:
176,224,32300,2,0,L|240:232,1,53.3333333333333
384,304,32785,1,2,0:0:0:0:
441,248,32967,1,2,0:0:0:0:
384,191,33149,1,2,0:0:0:0:
328,248,33331,1,2,0:0:0:0:
308,168,33513,6,0,L|164:148,1,120,4|0,0:0|0:0,0:0:0:0:
168,136,33876,1,0,0:0:0:0:
72,108,34058,1,4,0:3:0:0:
36,204,34240,6,0,L|100:216,2,53.3333333333333,2|0|2,0:0|0:0|0:0,0:0:0:0:
132,304,34603,2,0,L|79:294,2,53.3333333333333,0|2|0,0:0|0:0|0:0,0:0:0:0:
180,240,34967,2,0,L|244:252,2,53.3333333333333,4|0|4,0:3|0:0|0:3,0:0:0:0:
276,340,35330,2,0,L|223:330,2,53.3333333333333,0|4|0,0:0|0:3|0:0,0:0:0:0:
352,304,35694,5,0,0:0:0:0:
344,216,35876,1,2,0:0:0:0:
408,160,36058,1,2,2:0:0:0:
384,72,36240,1,2,2:0:0:0:
316,132,36422,2,0,L|336:224,1,80,4|2,0:3|0:0,0:0:0:0:
168,340,37149,5,0,0:3:0:0:
56,260,37422,1,0,0:0:0:0:
96,120,37694,1,0,0:0:0:0:
188,100,37876,6,0,P|300:168|252:352,1,320,2|2,0:0|0:0,0:0:0:0:
264,336,38876,2,0,L|244:292,4,40,0|4|0|0|0,0:0|0:3|0:0|0:0|0:0,0:0:0:0:
256,344,39513,6,0,P|340:288|440:296,1,180.000006866455,0|2,0:0|0:0,0:0:0:0:
488,236,40179,2,0,L|432:208,1,53.3333333333333,0|2,0:0|0:0,0:0:0:0:
384,156,40422,2,0,L|312:164,2,53.3333333333333,2|0|2,0:0|0:0|0:0,0:0:0:0:
472,136,40785,6,0,P|408:72|248:92,1,240,4|0,0:3|0:0,0:0:0:0:
84,136,41513,2,0,P|152:176|208:160,1,120,0|2,0:0|0:0,0:0:0:0:
220,160,41876,1,2,0:0:0:0:
328,204,42058,1,2,0:0:0:0:
408,296,42240,6,0,P|300:356|280:352,1,120,0|0,0:0|0:0,0:0:0:0:
280,352,42603,1,8,2:0:0:0:
180,320,42785,1,0,1:0:0:0:
88,248,42967,2,0,L|48:320,1,80,2|0,0:3|0:0,0:0:0:0:
40,144,43331,2,0,L|0:216,1,80,2|0,0:3|0:0,0:0:0:0:
152,72,43694,2,0,L|124:132,3,53.3333333333333,4|4|0|2,0:3|0:3|0:3|0:2,0:0:0:0:
260,104,44240,2,0,L|276:68,1,40
288,40,44422,5,2,0:2:0:0:
420,96,44785,1,2,0:0:0:0:
444,172,44967,1,0,0:0:0:0:
496,240,45149,2,0,P|400:256|316:212,1,160,4|2,0:3|0:0,0:0:0:0:
264,200,45694,1,0,0:0:0:0:
264,200,45785,1,0,0:0:0:0:
264,200,45876,1,2,0:3:0:0:
344,160,46240,5,2,0:0:0:0:
296,84,46603,2,0,L|272:128,1,40,4|0,0:3|0:0,0:0:0:0:
240,28,46967,2,0,L|216:72,1,40,2|4,0:2|0:3,0:0:0:0:
76,168,47331,2,0,B|115:120|115:120|113:85,2,90.0000034332277,4|2|2,0:3|0:0|0:0,0:0:0:0:
40,240,48058,2,0,B|56:273|56:273|51:331|51:331|72:368,2,120,4|0|0,0:3|0:0|0:0,0:0:0:0:
40,240,48785,1,0,0:3:0:0:
256,192,49149,1,4,0:3:0:0:
480,228,49513,5,0,0:0:0:0:
424,168,49694,1,0,0:0:0:0:
408,92,49876,1,0,0:0:0:0:
432,16,50058,1,0,0:0:0:0:
484,80,50240,5,0,0:0:0:0:
484,88,50331,1,0,0:0:0:0:
484,96,50422,1,0,0:0:0:0:
484,104,50513,1,0,0:3:0:0:
500,116,50603,1,0,0:0:0:0:
500,124,50694,1,0,0:0:0:0:
500,132,50785,1,0,0:0:0:0:
500,140,50876,1,4,0:3:0:0:
500,148,50967,1,4,0:0:0:0:
320,308,52422,5,2,0:0:0:0:
240,292,52967,1,2,0:0:0:0:
160,296,53513,1,0,0:0:0:0:
80,324,53876,2,0,P|132:272|140:180,1,160,2|2,0:0|0:0,0:0:0:0:
32,216,54422,1,0,0:0:0:0:
188,56,55331,1,0,0:0:0:0:
416,124,56058,1,0,0:0:0:0:
328,160,56422,5,0,0:0:0:0:
388,212,56603,1,0,0:0:0:0:
468,204,56785,1,2,0:0:0:0:
256,276,58240,2,0,B|312:240|376:252|376:252|429:294|438:361,2,240,2|0|2,0:0|0:0|0:0,0:0:0:0:
256,192,59694,12,0,61149,0:0:0:0:
256,192,61240,12,0,61876,0:0:0:0:
52,252,62603,6,0,L|136:232,2,80,4|0|8,0:0|0:0|0:0,0:0:0:0:
16,180,63149,1,0,0:0:0:0:
12,164,63240,1,0,0:0:0:0:
4,324,63422,1,0,0:0:0:0:
8,344,63513,1,8,0:0:0:0:
112,160,63694,1,0,0:0:0:0:
248,272,63876,1,0,0:0:0:0:
300,100,64058,6,0,P|280:156|172:180,1,160,0|8,0:0|0:0,0:0:0:0:
320,352,64603,2,0,P|353:282|429:265,1,160,0|8,0:0|0:0,0:0:0:0:
408,104,65149,2,0,L|436:196,1,80,0|0,0:0|0:0,0:0:0:0:
468,60,65513,6,0,L|328:36,1,120,0|0,0:0|0:0,0:0:0:0:
196,60,65876,2,0,L|276:32,1,80,8|0,0:0|0:0,0:0:0:0:
432,136,66240,2,0,L|292:112,2,120
476,204,66967,5,0,0:0:0:0:
404,292,67240,1,8,0:0:0:0:
500,360,67513,1,0,0:0:0:0:
392,204,67785,1,8,0:0:0:0:
480,284,68058,5,8,0:0:0:0:
480,284,68240,1,4,0:2:0:0:
352,348,68422,1,4,0:2:0:0:
324,272,68603,1,0,0:0:0:0:
268,216,68785,1,8,0:0:0:0:
192,200,68967,1,0,0:0:0:0:
148,264,69149,1,0,0:0:0:0:
220,276,69331,1,0,0:0:0:0:
268,216,69513,1,8,0:0:0:0:
192,200,69694,1,0,0:0:0:0:
232,127,69876,6,0,L|312:120,1,80,4|0,0:2|0:0,0:0:0:0:
156,100,70240,2,0,L|72:108,1,80,8|0,0:0|0:0,0:0:0:0:
232,48,70603,1,0,0:0:0:0:
116,32,70785,1,0,0:0:0:0:
232,128,70967,1,8,0:0:0:0:
348,44,71149,1,0,0:0:0:0:
192,200,71331,5,4,0:2:0:0:
205,204,71422,1,0,0:0:0:0:
218,207,71512,1,0,0:0:0:0:
232,210,71603,1,0,0:0:0:0:
245,242,71694,1,8,0:0:0:0:
259,239,71785,1,0,0:0:0:0:
273,236,71876,1,2,0:0:0:0:
287,233,71967,1,0,0:0:0:0:
322,214,72058,6,0,L|372:225,3,47.9999985351563,4|0|0|0,0:2|0:0|0:0|0:0,0:0:0:0:
389,251,72422,2,0,L|438:303,3,47.9999985351563,4|0|2|0,0:2|0:0|0:0|0:0,0:0:0:0:
484,320,72785,2,0,P|394:208|421:43,1,287.999991210938,4|2,0:2|0:0,0:0:0:0:
455,15,73513,1,0,0:0:0:0:
480,87,73876,6,0,L|486:128,6,23.9999992675781
379,22,74240,6,0,L|301:41,1,80,4|4,0:0|0:3,0:0:0:0:
271,33,74513,1,0,0:0:0:0:
246,109,74694,2,0,L|189:71,1,40,4|0,0:3|0:0,0:0:0:0:
292,176,74967,2,0,L|328:160,1,40,4|0,0:3|0:0,0:0:0:0:
248,296,75240,5,0,0:0:0:0:
228,328,75331,2,0,L|191:343,1,40,4|0,0:3|0:0,0:0:0:0:
152,276,75513,2,0,L|115:291,1,40,4|0,0:3|0:0,0:0:0:0:
53,338,75694,6,0,P|109:263|91:191,1,160,4|8,0:3|0:3,0:0:0:0:
156,57,76240,2,0,P|149:134|201:192,1,160,8|4,0:3|0:3,0:0:0:0:
276,228,76785,2,0,L|286:255,5,26.6666666666667,2|0|0|0|0|0,0:0|0:0|0:0|0:0|0:0|0:0,0:0:0:0:
294,276,77149,6,0,L|268:366,1,80,0|4,0:0|0:3,0:0:0:0:
241,367,77422,1,0,0:0:0:0:
381,292,77603,2,0,L|425:275,1,40,4|0,0:3|0:0,0:0:0:0:
424,188,77876,2,0,L|386:202,1,40,4|0,0:3|0:0,0:0:0:0:
471,89,78149,5,4,0:3:0:0:
451,92,78240,1,0,0:0:0:0:
431,90,78331,1,0,0:0:0:0:
412,82,78422,1,0,0:0:0:0:
397,68,78513,1,0,0:0:0:0:
393,48,78603,6,0,B|429:24|487:93|503:73,1,120,4|0,0:3|0:0,0:0:0:0:
495,163,78967,2,0,P|440:173|369:151,1,120,2|0,0:0|0:0,0:0:0:0:
263,213,79331,2,0,B|299:189|357:258|373:238,1,120,2|0,0:0|0:0,0:0:0:0:
434,297,79694,1,2,0:0:0:0:
424,304,79785,1,2,0:3:0:0:
415,311,79876,1,2,0:3:0:0:
403,315,79967,1,2,0:3:0:0:
393,322,80058,6,0,L|303:329,1,80,0|4,0:0|0:3,0:0:0:0:
279,314,80331,1,0,0:0:0:0:
200,304,80513,2,0,L|177:354,1,40,4|0,0:3|0:0,0:0:0:0:
187,224,80785,2,0,L|203:187,1,40,4|0,0:3|0:0,0:0:0:0:
233,94,81058,5,4,0:3:0:0:
252,87,81149,1,0,0:0:0:0:
271,81,81240,1,0,0:0:0:0:
290,76,81331,1,0,0:0:0:0:
309,71,81422,1,0,0:0:0:0:
323,66,81513,6,0,L|400:74,1,60.0000022888184,2|0,0:0|0:0,0:0:0:0:
431,146,81785,2,0,L|365:150,1,60.0000022888184,2|0,0:0|0:0,0:0:0:0:
307,227,82058,2,0,L|381:222,1,60.0000022888184,2|0,0:0|0:0,0:0:0:0:
437,293,82331,2,0,L|373:308,1,60.0000022888184,2|0,0:0|0:0,0:0:0:0:
305,330,82603,1,4,0:3:0:0:
305,330,82785,1,4,0:0:0:0:
219,308,82967,6,0,L|119:315,1,80,0|0,0:0|0:0,0:0:0:0:
103,303,83240,1,0,0:0:0:0:
53,190,83513,2,0,L|9:169,2,40,0|0|0,0:0|0:0|0:0,0:0:0:0:
14,268,83876,2,0,B|12:296|12:296|28:328|28:328|27:353,2,80
140,228,84422,5,0,0:0:0:0:
152,208,84513,1,0,0:0:0:0:
252,184,84694,1,0,0:0:0:0:
260,208,84785,1,0,0:0:0:0:
368,164,84967,1,0,0:0:0:0:
422,258,85149,2,0,L|490:268,1,40,0|0,0:0|0:0,0:0:0:0:
322,330,85422,2,0,L|358:314,3,40,0|0|0|0,0:0|0:0|0:0|0:0,0:0:0:0:
280,324,86967,6,0,B|272:344|272:344|348:316|348:316|408:336,1,160,2|4,0:2|0:2,0:0:0:0:
488,363,87513,1,0,0:0:0:0:
488,363,87603,1,2,0:2:0:0:
488,363,87694,1,0,0:0:0:0:
475,243,87876,2,0,L|465:290,1,40,2|0,0:2|0:0,0:0:0:0:
398,238,88058,2,0,L|406:198,1,40,0|2,0:0|0:2,0:0:0:0:
408,104,88331,5,0,0:0:0:0:
388,110,88422,1,8,0:0:0:0:
368,112,88513,1,0,0:0:0:0:
348,110,88604,1,0,0:0:0:0:
329,103,88694,1,0,0:0:0:0:
312,91,88785,2,0,P|384:64|443:91,1,120,2|2,0:2|0:2,0:0:0:0:
440,84,89149,2,0,P|493:100|532:78,1,80,0|2,0:0|0:2,0:0:0:0:
448,171,89513,1,0,0:0:0:0:
448,171,89603,1,2,0:2:0:0:
326,223,89876,5,8,0:0:0:0:
326,223,89967,1,0,0:0:0:0:
326,223,90058,1,0,0:0:0:0:
326,223,90149,1,0,0:0:0:0:
326,223,90240,2,0,P|261:203|204:224,1,120,2|2,0:2|0:2,0:0:0:0:
193,220,90603,2,0,L|251:290,1,80,0|2,0:0|0:2,0:0:0:0:
71,327,90967,5,0,0:0:0:0:
90,322,91058,1,2,0:2:0:0:
109,318,91149,1,0,0:0:0:0:
128,313,91240,1,0,0:0:0:0:
147,310,91331,2,0,L|224:368,1,80,8|0,0:0|0:0,0:0:0:0:
289,371,91694,6,0,P|356:351|466:368,1,160,2|8,0:2|0:0,0:0:0:0:
482,284,92240,1,2,0:2:0:0:
456,187,92422,1,0,0:0:0:0:
463,208,92513,1,8,0:0:0:0:
386,257,92694,1,8,0:0:0:0:
405,262,92785,1,0,0:0:0:0:
482,284,92967,1,0,0:0:0:0:
376,176,93149,5,4,0:2:0:0:
292,226,93331,2,0,L|253:258,1,40,0|2,0:0|0:2,0:0:0:0:
448,106,93603,2,0,L|478:80,1,40,0|2,0:0|0:2,0:0:0:0:
313,103,93876,2,0,L|282:77,1,40,0|2,0:0|0:2,0:0:0:0:
444,238,94149,2,0,L|474:263,4,40,0|8|0|0|0,0:0|0:0|0:0|0:0|0:0,0:0:0:0:
504,343,94603,6,0,P|438:334|413:310,1,80,2|0,0:2|0:0,0:0:0:0:
405,322,94876,2,0,P|321:325|311:333,1,80,2|0,0:2|0:0,0:0:0:0:
307,332,95149,1,2,0:2:0:0:
231,274,95331,2,0,L|191:281,1,40,0|2,0:0|0:2,0:0:0:0:
164,196,95603,1,0,0:0:0:0:
164,196,95694,2,0,L|124:203,3,40,8|0|2|0,0:0|0:0|0:2|0:2,0:0:0:0:
175,167,96058,6,0,L|281:149,1,80,2|0,0:2|0:0,0:0:0:0:
255,133,96331,2,0,L|141:131,1,80,2|0,0:2|0:0,0:0:0:0:
176,112,96603,2,0,L|261:104,1,80,2|0,0:2|0:0,0:0:0:0:
269,87,96876,1,2,0:2:0:0:
370,49,97058,1,0,0:0:0:0:
370,49,97149,2,0,L|430:43,4,40,8|0|0|0|4,0:0|0:0|0:0|0:0|0:0,0:0:0:0:
338,123,97694,5,0,0:0:0:0:
338,123,97785,1,4,0:0:0:0:
423,254,98058,1,4,0:0:0:0:
345,348,98240,2,0,L|285:319,1,40,8|0,0:0|0:0,0:0:0:0:
195,292,98513,1,8,0:0:0:0:
122,308,98694,5,0,0:0:0:0:
141,294,98785,1,12,0:2:0:0:
164,288,98876,1,0,0:0:0:0:
195,292,98967,2,0,P|246:299|341:243,1,160,4|8,0:2|0:0,0:0:0:0:
352,172,99513,1,2,0:2:0:0:
425,133,99694,2,0,L|456:56,1,80,0|0,0:0|0:0,0:0:0:0:
496,181,100058,5,8,0:0:0:0:
488,203,100149,1,0,0:0:0:0:
480,225,100240,1,2,0:2:0:0:
471,247,100331,1,0,0:2:0:0:
464,272,100422,6,0,L|473:368,1,80,2|0,0:2|0:0,0:0:0:0:
377,303,100785,2,0,L|369:223,1,80,8|2,0:0|0:2,0:0:0:0:
279,179,101149,2,0,L|288:275,1,80,0|0,0:0|0:0,0:0:0:0:
196,222,101513,2,0,L|188:142,1,80,8|2,0:0|0:2,0:0:0:0:
103,104,101876,2,0,L|112:200,1,80,2|0,0:2|0:0,0:0:0:0:
96,205,102149,1,2,0:2:0:0:
96,204,102240,1,8,0:0:0:0:
96,205,102331,1,0,0:0:0:0:
96,205,102422,1,2,0:2:0:0:
46,272,102603,6,0,L|51:319,1,40,0|2,0:0|0:2,0:0:0:0:
142,360,102876,2,0,L|137:320,1,40,0|8,0:0|0:0,0:0:0:0:
211,262,103149,1,0,0:0:0:0:
303,217,103331,2,0,P|361:253|459:240,1,160,2|8,0:2|0:0,0:0:0:0:
387,168,103876,1,2,0:2:0:0:
304,118,104058,5,0,0:0:0:0:
283,131,104149,1,8,0:0:0:0:
259,137,104240,1,0,0:0:0:0:
235,135,104331,1,8,0:0:0:0:
212,126,104422,1,0,0:0:0:0:
252,36,104603,1,4,0:2:0:0:
349,40,104785,6,0,L|436:31,1,80,4|0,0:2|0:0,0:0:0:0:
374,118,105149,2,0,L|468:114,1,80,8|2,0:0|0:2,0:0:0:0:
384,201,105513,2,0,L|474:199,1,80
364,278,105876,2,0,L|460:287,1,80,8|0,0:0|0:0,0:0:0:0:
313,358,106240,5,0,0:0:0:0:
248,262,106422,1,0,0:0:0:0:
240,352,106603,5,8,0:0:0:0:
316,208,106785,1,0,0:0:0:0:
172,328,106967,5,0,0:0:0:0:
396,224,107149,1,0,0:0:0:0:
172,232,107331,5,8,0:0:0:0:
184,132,107513,1,0,0:0:0:0:
88,68,107694,5,4,0:2:0:0:
166,46,107876,1,0,0:0:0:0:
249,51,108058,1,8,0:0:0:0:
326,88,108240,1,0,0:2:0:0:
376,156,108422,2,0,L|359:198,3,40,0|0|0|0,0:0|0:2|0:0|0:0,0:0:0:0:
360,210,108785,2,0,L|371:253,3,40,8|0|0|0,0:0|0:0|0:0|0:0,0:0:0:0:
376,272,109149,5,4,0:2:0:0:
250,328,109422,1,2,0:0:0:0:
503,302,109694,1,2,0:0:0:0:
383,362,109876,1,0,0:0:0:0:
383,362,109967,1,0,0:0:0:0:
383,362,110058,1,0,0:0:0:0:
383,362,110149,2,0,L|378:308,1,40,0|8,0:0|0:0,0:0:0:0:
456,232,110422,5,0,0:0:0:0:
383,362,110603,1,4,0:0:0:0:
