osu file format v14

[General]
AudioFilename: Slit.mp3
AudioLeadIn: 477
PreviewTime: 85886
Countdown: 0
SampleSet: Normal
StackLeniency: 0.4
Mode: 0
LetterboxInBreaks: 0
WidescreenStoryboard: 1

[Editor]
DistanceSpacing: 1.5
BeatDivisor: 4
GridSize: 4
TimelineZoom: 2.100001

[Metadata]
Title:Slit
TitleUnicode:Ø
Artist:EBICO & jioyi
ArtistUnicode:EBICO & jioyi
Creator:Megurine Luka
Version:Beginner
Source:Cytus
Tags:G_S_X Deye Axey judgment light Jycool __Ag instrumental electronic video game
BeatmapID:675914
BeatmapSetID:301422

[Difficulty]
HPDrainRate:3
CircleSize:3
OverallDifficulty:2
ApproachRate:3
SliderMultiplier:0.6
SliderTickRate:1

[Events]
//Background and Video events
0,0,"slit.jpg",0,0
//Break Periods
//Storyboard Layer 0 (Background)
//Storyboard Layer 1 (Fail)
//Storyboard Layer 2 (Pass)
//Storyboard Layer 3 (Foreground)
//Storyboard Layer 4 (Overlay)
//Storyboard Sound Samples

[TimingPoints]
1513,363.636363636364,4,1,0,40,1,0
2967,-100,4,1,0,50,0,0
4422,-100,4,2,0,60,0,1
4603,-100,4,2,0,60,0,0
16058,-100,4,1,0,70,0,0
27240,-100,4,1,0,80,0,0
29149,-100,4,1,0,50,0,0
37876,-100,4,1,0,60,0,0
40058,-100,4,1,0,50,0,0
42240,-100,4,1,0,60,0,0
43694,-100,4,1,0,30,0,0
50967,-100,4,1,0,30,0,0
52422,-100,4,2,0,30,0,0
62422,-100,4,2,0,50,0,0
62603,-100,4,1,1,60,0,0
65513,-100,4,1,1,60,0,0
69149,-100,4,1,0,60,0,0
76785,-100,4,2,0,50,0,0
86967,-100,4,1,0,45,0,1
87331,-100,4,1,0,70,0,1
110331,-100,4,1,0,70,0,1
110422,-100,4,1,0,70,0,0
110603,-100,4,1,0,70,0,1
110785,-100,4,1,0,70,0,0

[Colours]
Combo1 : 251,0,0
Combo2 : 192,192,192
Combo3 : 128,128,255

[HitObjects]
424,240,1513,6,0,P|336:252|300:232,1,120,0|2,0:0|2:0,0:0:0:0:
256,192,2967,12,4,4422,0:0:0:0:
84,324,5876,6,0,L|72:224,2,90,2|2|2,0:0|0:0|0:0,0:0:0:0:
144,356,7331,2,0,P|208:300|360:304,1,240,2|2,0:0|0:0,0:0:0:0:
480,344,9513,1,2,0:0:0:0:
436,220,10240,2,0,L|452:88,1,120,2|0,0:0|0:0,0:0:0:0:
336,32,11694,2,0,L|320:132,2,90,2|2|2,0:0|0:0|0:0,0:0:0:0:
256,192,13149,12,2,14603,0:0:0:0:
260,192,16058,5,6,0:2:0:0:
164,100,16785,1,0,0:0:0:0:
60,180,17513,2,0,L|76:300,1,120,2|8,0:2|0:0,0:0:0:0:
200,344,18967,6,0,P|288:304|368:328,1,180,2|10,0:2|0:2,0:0:0:0:
428,348,20422,2,0,L|404:228,1,120,2|2,0:2|0:2,0:0:0:0:
392,164,21513,1,8,0:0:0:0:
372,100,21876,6,0,P|312:112|252:80,1,120,4|8,0:0|0:0,0:0:0:0:
132,52,23331,2,0,P|189:64|243:40,1,120,0|8,0:0|0:0,0:0:0:0:
252,172,24785,2,0,L|240:296,1,120,0|8,0:0|0:0,0:0:0:0:
364,336,26240,6,2,L|344:240,2,90
424,360,27694,1,4,0:2:0:0:
464,232,28422,1,0,0:3:0:0:
432,104,29149,2,0,L|440:36,2,60,4|0|2,0:3|0:0|0:0,0:0:0:0:
304,128,30603,6,2,P|216:136|140:76,1,180,4|2,0:3|0:0,0:0:0:0:
80,92,32058,1,4,0:3:0:0:
56,224,32785,1,0,0:0:0:0:
104,348,33513,6,0,P|156:316|216:316,2,120,4|2|4,0:0|0:0|0:3,0:0:0:0:
56,224,35694,1,2,0:0:0:0:
120,108,36422,5,4,0:3:0:0:
208,208,37149,2,2,B|264:188|316:248|316:248|328:172|392:164,1,240,0|2,0:3|0:0,0:0:0:0:
448,148,38967,1,0,0:0:0:0:
456,344,40058,6,0,L|392:340,1,60,2|2,0:0|0:0,0:0:0:0:
332,352,40785,2,2,P|256:352|220:328,1,120,4|0,0:3|0:0,0:0:0:0:
176,280,41876,1,0,0:0:0:0:
124,240,42240,2,0,L|32:268,2,90,4|0|2,0:0|1:0|0:3,0:0:0:0:
136,176,43694,6,2,B|184:164|184:164|256:160|256:160|324:140,1,180,4|2,0:3|0:0,0:0:0:0:
344,88,45149,1,4,0:3:0:0:
452,164,45876,1,2,0:3:0:0:
420,292,46603,2,2,L|432:360,2,60,4|2|4,0:3|0:2|0:3,0:0:0:0:
420,224,47694,1,0,0:0:0:0:
452,164,48058,6,0,L|456:104,1,60,4|4,0:3|0:3,0:0:0:0:
392,72,48785,2,0,L|356:20,1,60,0|4,0:3|0:3,0:0:0:0:
292,32,49513,2,0,P|200:48|168:32,1,120,0|0,0:0|0:0,0:0:0:0:
116,16,50603,1,0,0:0:0:0:
56,48,50967,1,4,0:0:0:0:
96,308,52422,6,0,L|72:208,2,90,2|0|0,0:0|0:0|0:0,0:0:0:0:
148,348,53876,2,0,B|216:368|216:368|280:324|280:324|312:320,1,180,2|0,0:0|0:0,0:0:0:0:
368,352,55331,2,0,L|416:236,1,120,2|0,0:0|0:0,0:0:0:0:
432,176,56422,2,0,P|380:104|412:24,1,180
280,40,58240,2,0,L|184:64,2,90,2|0|2,0:0|0:0|0:0,0:0:0:0:
256,192,59694,12,2,61149,0:0:0:0:
220,292,62603,6,0,P|248:228|228:180,1,120,4|0,0:0|0:0,0:0:0:0:
124,108,64058,2,0,P|96:172|116:220,1,120,0|0,0:0|0:0,0:0:0:0:
176,332,65513,6,0,L|172:272,2,60,0|8|0,0:0|0:0|0:0,0:0:0:0:
232,364,66603,1,0,0:0:0:0:
296,352,66967,2,0,L|292:292,2,60,0|8|0,0:0|0:0|0:0,0:0:0:0:
360,364,68058,1,0,0:0:0:0:
424,368,68422,6,0,B|428:272|428:272|456:252|476:204,1,180,4|0,0:2|0:0,0:0:0:0:
468,140,69876,2,0,P|392:168|336:100,1,180,4|0,0:2|0:0,0:0:0:0:
276,72,71331,6,0,P|180:188|276:148,1,420,4|0,0:2|0:0,0:0:0:0:
332,144,74240,6,0,L|420:158,2,90,4|0|0,0:0|0:0|0:0,0:0:0:0:
300,184,75694,2,0,P|236:192|284:260,1,180,4|2,0:3|0:0,0:0:0:0:
356,260,77149,6,0,L|445:275,2,90,0|0|0,0:0|0:0|0:0,0:0:0:0:
300,300,78603,2,0,L|121:322,1,180,4|2,0:3|0:0,0:0:0:0:
72,280,80058,6,0,L|30:200,2,90,0|0|0,0:0|0:0|0:0,0:0:0:0:
140,276,81513,2,2,L|182:356,2,90,2|2|4,0:0|0:0|0:3,0:0:0:0:
176,220,82967,6,0,P|263:206|345:241,1,180,0|0,0:0|0:0,0:0:0:0:
404,272,84422,2,0,L|389:152,1,120,0|0,0:0|0:0,0:0:0:0:
384,88,85513,1,0,0:0:0:0:
276,96,86967,5,0,0:0:0:0:
332,60,87331,2,0,L|460:44,1,120,4|0,0:2|0:0,0:0:0:0:
440,180,88785,2,0,L|416:276,2,90,2|2|8,0:2|0:2|0:0,0:0:0:0:
456,116,90240,6,0,P|336:116|312:164,1,180,2|8,0:2|0:0,0:0:0:0:
304,220,91694,2,0,B|244:220|244:220|192:192|192:192|124:192,1,180,2|8,0:2|0:0,0:0:0:0:
116,256,93149,6,0,L|16:260,2,90,4|2|8,0:2|0:2|0:0,0:0:0:0:
148,312,94603,2,0,L|236:336,2,90,2|2|8,0:2|0:2|0:0,0:0:0:0:
116,256,96058,5,2,0:2:0:0:
152,40,97149,1,8,0:0:0:0:
204,52,97513,2,0,P|316:96|368:76,1,180,4|8,0:0|0:0,0:0:0:0:
424,44,98967,5,4,0:2:0:0:
408,176,99694,2,0,L|396:300,2,120,8|2|8,0:0|0:2|0:0,0:0:0:0:
284,224,101876,5,2,0:2:0:0:
160,180,102603,1,8,0:0:0:0:
60,268,103331,2,0,P|28:196|56:100,1,180,2|8,0:2|0:0,0:0:0:0:
100,56,104785,5,4,0:2:0:0:
160,88,105149,1,8,0:0:0:0:
220,60,105513,2,0,L|280:56,1,60,0|8,0:0|0:0,0:0:0:0:
344,48,106240,6,0,L|400:68,1,60,4|8,0:2|0:0,0:0:0:0:
456,104,106967,2,0,L|480:168,1,60,0|8,0:2|0:0,0:0:0:0:
472,216,107694,6,2,L|460:344,2,120,4|0|4,0:2|0:0|0:2,0:0:0:0:
344,184,109876,1,0,0:0:0:0:
216,156,110603,1,4,0:0:0:0:
