osu file format v14

[General]
AudioFilename: Slit.mp3
AudioLeadIn: 0
PreviewTime: 85896
Countdown: 0
SampleSet: Normal
StackLeniency: 0.7
Mode: 0
LetterboxInBreaks: 1
EpilepsyWarning: 1
WidescreenStoryboard: 1

[Editor]
DistanceSpacing: 1.2
BeatDivisor: 4
GridSize: 4
TimelineZoom: 3.599998

[Metadata]
Title:Slit
TitleUnicode:Ø
Artist:EBICO & jioyi
ArtistUnicode:EBICO & jioyi
Creator:Foreverends
Version:Insane
Source:Cytus
Tags:Kawaiwkyik Kenterz Kenterz9 wkyik [Seraphin] instrumental dubstep nold_1702 Rizia Arugakente Ulysses electronic
BeatmapID:335322
BeatmapSetID:133558

[Difficulty]
HPDrainRate:7
CircleSize:4
OverallDifficulty:7
ApproachRate:9
SliderMultiplier:2
SliderTickRate:1

[Events]
//Background and Video events
0,0,"slit.jpg",0,0
//Break Periods
2,51187,62023
//Storyboard Layer 0 (Background)
//Storyboard Layer 1 (Fail)
//Storyboard Layer 2 (Pass)
//Storyboard Layer 3 (Foreground)
//Storyboard Layer 4 (Overlay)
//Storyboard Sound Samples

[TimingPoints]
1533,363.636363636364,4,1,0,60,1,0
1533,-133.333333333333,4,1,1,50,0,0
1714,-133.333333333333,4,2,2,40,0,0
1896,-133.333333333333,4,1,1,40,0,0
2351,-133.333333333333,4,2,2,40,0,0
2442,-133.333333333333,4,1,1,40,0,0
2714,-133.333333333333,4,2,2,40,0,0
2805,-133.333333333333,4,1,2,40,0,0
2987,-200,4,1,2,30,0,0
3714,-100,4,1,1,50,0,0
3896,-100,4,2,0,20,0,0
3987,-66.6666666666667,4,1,1,50,0,0
4169,-100,4,2,0,20,0,0
4260,-50,4,1,1,50,0,0
4442,-200,4,2,1,50,0,0
4623,-200,4,2,0,40,0,0
16078,-100,4,1,1,50,0,0
16260,-100,4,2,1,70,0,0
16351,-100,4,1,1,70,0,0
16533,-100,4,2,1,70,0,0
16623,-100,4,1,1,70,0,0
16805,-100,4,2,1,70,0,0
16896,-100,4,1,1,70,0,0
17078,-100,4,2,1,70,0,0
17169,-100,4,1,1,70,0,0
17260,-100,4,2,1,70,0,0
17533,-100,4,1,1,70,0,0
17714,-100,4,2,1,70,0,0
17805,-100,4,1,1,70,0,0
17987,-100,4,2,1,70,0,0
18078,-100,4,1,1,70,0,0
18351,-100,4,2,1,70,0,0
18623,-100,4,1,1,70,0,0
18714,-100,4,2,1,70,0,0
19169,-100,4,1,1,70,0,0
19260,-100,4,2,1,70,0,0
19442,-100,4,1,1,70,0,0
19533,-100,4,2,1,70,0,0
19714,-100,4,1,1,70,0,0
19805,-100,4,2,1,70,0,0
20442,-100,4,1,1,70,0,0
20623,-100,4,2,1,70,0,0
20714,-100,4,1,1,70,0,0
21169,-100,4,2,1,70,0,0
21442,-100,4,1,1,70,0,0
21896,-100,4,2,1,60,0,0
22078,-100,4,1,1,70,0,0
22260,-100,4,1,1,50,0,0
22442,-100,4,1,1,70,0,0
22987,-100,4,1,1,50,0,0
23169,-100,4,1,1,70,0,0
23351,-100,4,2,1,60,0,0
23533,-100,4,1,1,70,0,0
23714,-100,4,1,1,50,0,0
23896,-100,4,1,1,70,0,0
24442,-100,4,1,1,50,0,0
24533,-100,4,1,1,70,0,0
24805,-100,4,2,1,50,0,0
24896,-100,4,1,1,70,0,0
25169,-100,4,1,1,50,0,0
25260,-100,4,1,1,70,0,0
25533,-100,4,2,1,50,0,0
25623,-100,4,1,1,70,0,0
25896,-100,4,1,1,50,0,0
25942,-100,4,1,1,70,0,0
26260,-200,4,1,0,50,0,0
26896,-66.6666666666667,4,2,0,100,0,0
27714,-100,4,2,1,50,0,1
27805,-100,4,1,1,50,0,0
27896,-100,4,1,1,80,0,0
27987,-100,4,1,0,50,0,0
28078,-100,4,1,2,40,0,0
28442,-100,4,2,2,50,0,0
28623,-76.9230769230769,4,1,0,80,0,0
28805,-76.9230769230769,4,2,0,80,0,0
28896,-76.9230769230769,4,1,0,80,0,0
29078,-76.9230769230769,4,2,0,80,0,0
29169,-100,4,1,1,80,0,0
29533,-100,4,3,0,70,0,0
29714,-100,4,1,0,70,0,0
29896,-200,4,1,0,60,0,0
30260,-66.6666666666667,4,1,1,70,0,0
30623,-100,4,3,2,70,0,0
31229,-100,4,2,0,100,0,0
31351,-100,4,1,0,60,0,0
31472,-100,4,2,0,100,0,0
31593,-100,4,2,0,60,0,0
31714,-133.333333333333,4,1,0,60,0,0
31987,-133.333333333333,4,2,1,70,0,0
32078,-133.333333333333,4,3,1,70,0,0
32199,-133.333333333333,4,1,1,70,0,0
32805,-66.6666666666667,4,1,1,50,0,0
32987,-66.6666666666667,4,1,0,70,0,0
33533,-133.333333333333,4,2,1,50,0,0
33714,-133.333333333333,4,2,1,80,0,0
33805,-100,4,1,0,70,0,0
33896,-100,4,1,2,50,0,0
34260,-100,4,2,1,70,0,0
34381,-100,4,1,1,50,0,0
34502,-100,4,2,1,70,0,0
34745,-100,4,1,1,50,0,0
34866,-100,4,2,1,50,0,0
35714,-100,4,1,0,70,0,0
35896,-100,4,2,1,60,0,0
36078,-66.6666666666667,4,1,0,70,0,0
36169,-66.6666666666667,4,2,0,50,0,0
36260,-66.6666666666667,4,1,0,70,0,0
36442,-100,4,1,0,70,0,0
36805,-100,4,1,1,70,0,0
37169,-100,4,1,0,70,0,0
37351,-100,4,2,0,70,0,0
37442,-100,4,1,0,70,0,0
37623,-100,4,2,0,70,0,0
37714,-100,4,1,0,70,0,0
37896,-100,4,1,2,50,0,0
37987,-50,4,1,0,50,0,0
38078,-50,4,3,0,50,0,0
38442,-66.6666666666667,4,2,1,70,0,0
38623,-50,4,1,2,50,0,0
38896,-100,4,1,0,50,0,0
39351,-100,4,1,0,20,0,0
39623,-100,4,1,0,40,0,0
40078,-100,4,1,0,65,0,0
40442,-100,4,1,2,40,0,0
40563,-100,4,1,0,65,0,0
40805,-100,4,1,1,80,0,0
41078,-100,4,3,2,70,0,0
41169,-100,4,1,1,70,0,0
41533,-100,4,2,1,100,0,0
42078,-100,4,1,2,70,0,0
42260,-100,4,1,1,80,0,0
42305,-100,4,2,1,80,0,0
42442,-100,4,1,1,80,0,0
42487,-100,4,2,1,80,0,0
42623,-100,4,1,2,50,0,0
42669,-100,4,2,1,80,0,0
42805,-100,4,1,1,50,0,0
42987,-100,4,1,1,70,0,0
43169,-100,4,1,0,50,0,0
43260,-100,4,2,2,40,0,0
43351,-100,4,1,0,50,0,0
43442,-100,4,2,2,40,0,0
43533,-100,4,1,0,50,0,0
43623,-100,4,2,2,40,0,0
43714,-100,4,1,2,50,0,0
43836,-100,4,2,1,70,0,0
43957,-100,4,3,1,50,0,0
44078,-100,4,1,1,30,0,0
44199,-100,4,2,1,70,0,0
44320,-100,4,3,1,50,0,0
44442,-100,4,2,1,50,0,0
45078,-100,4,1,0,70,0,0
47351,-200,4,1,0,50,0,0
47442,-200,4,1,0,20,0,0
47623,-200,4,1,0,50,0,0
47714,-200,4,1,0,20,0,0
47896,-200,4,1,0,50,0,0
47987,-200,4,1,0,20,0,0
48078,-100,4,1,0,50,0,0
62623,-100,4,1,3,60,0,0
72805,-66.6666666666667,4,1,0,50,0,1
73533,-66.6666666666667,4,3,0,20,0,1
73578,-66.6666666666667,4,3,0,20,0,1
73623,-66.6666666666667,4,3,0,30,0,1
73669,-66.6666666666667,4,3,0,40,0,1
73714,-66.6666666666667,4,3,0,50,0,1
73760,-66.6666666666667,4,3,0,60,0,1
73805,-66.6666666666667,4,3,0,70,0,1
73851,-66.6666666666667,4,3,0,80,0,1
73896,-50,4,2,0,20,0,1
73942,-50,4,2,0,20,0,1
73987,-50,4,2,0,30,0,1
74033,-50,4,2,0,40,0,1
74078,-50,4,2,0,50,0,1
74123,-50,4,2,0,60,0,1
74169,-50,4,2,0,70,0,1
74214,-50,4,2,0,80,0,1
74260,-100,4,2,1,70,0,0
74442,-100,4,1,1,60,0,0
74533,-100,4,2,1,70,0,0
74714,-100,4,1,1,60,0,0
74805,-100,4,2,1,70,0,0
74987,-100,4,1,1,60,0,0
75078,-100,4,2,1,70,0,0
75260,-100,4,1,1,60,0,0
75442,-100,4,3,1,60,0,0
75533,-100,4,1,1,60,0,0
75714,-200,4,1,0,50,0,0
76805,-76.9230769230769,4,1,0,50,0,0
77169,-100,4,1,0,50,0,0
77351,-100,4,1,1,60,0,0
77442,-100,4,2,1,70,0,0
77623,-100,4,1,1,60,0,0
77714,-100,4,2,1,70,0,0
77896,-100,4,1,1,60,0,0
77987,-100,4,2,1,70,0,0
78078,-100,4,1,1,70,0,0
78623,-100,4,1,1,100,0,0
78805,-100,4,1,0,60,0,0
78987,-100,4,1,2,50,0,0
79169,-100,4,1,0,60,0,0
79351,-100,4,1,2,50,0,0
79533,-100,4,1,0,60,0,0
79714,-100,4,1,2,50,0,0
79805,-100,4,1,0,70,0,0
80078,-100,4,2,1,70,0,0
80260,-100,4,1,1,70,0,0
80351,-100,4,2,1,70,0,0
80533,-100,4,1,1,70,0,0
80623,-100,4,2,1,70,0,0
80805,-100,4,1,1,70,0,0
80896,-100,4,2,1,70,0,0
81078,-100,4,1,1,70,0,0
81533,-100,4,1,0,70,0,0
81593,-100,4,1,0,5,0,0
81805,-100,4,1,0,70,0,0
81866,-100,4,1,0,5,0,0
82078,-100,4,1,0,70,0,0
82139,-100,4,1,0,5,0,0
82351,-100,4,1,0,70,0,0
82411,-100,4,1,0,5,0,0
82623,-100,4,1,0,55,0,0
82987,-100,4,2,1,70,0,0
83169,-100,4,1,1,70,0,0
83260,-100,4,2,1,70,0,0
83442,-100,4,1,1,70,0,0
83533,-100,4,2,1,70,0,0
83623,-100,4,1,1,70,0,0
83714,-76.9230769230769,4,2,1,70,0,0
83896,-76.9230769230769,4,1,1,70,0,0
83987,-76.9230769230769,4,2,1,70,0,0
84169,-76.9230769230769,4,1,1,70,0,0
84260,-76.9230769230769,4,2,1,70,0,0
84442,-76.9230769230769,4,1,1,70,0,0
84533,-76.9230769230769,4,2,1,70,0,0
85623,-76.9230769230769,4,2,1,70,0,0
85714,-76.9230769230769,4,2,2,40,0,0
85896,-200,4,2,0,100,0,0
86896,-200,4,2,0,5,0,0
86987,-50,4,1,0,80,0,1
87260,-50,4,2,1,50,0,0
87351,-76.9230769230769,4,1,1,60,0,1
87533,-76.9230769230769,4,2,1,90,0,1
87623,-76.9230769230769,4,3,1,70,0,1
87714,-76.9230769230769,4,1,1,70,0,1
88169,-76.9230769230769,4,2,1,90,0,1
88260,-76.9230769230769,4,1,1,70,0,1
88533,-76.9230769230769,4,1,1,50,0,1
88805,-76.9230769230769,4,1,1,70,0,1
89169,-76.9230769230769,4,1,1,20,0,1
89351,-76.9230769230769,4,1,1,70,0,1
89896,-58.8235294117647,4,3,0,50,0,1
89987,-58.8235294117647,4,2,1,90,0,1
90078,-58.8235294117647,4,2,1,90,0,1
90260,-76.9230769230769,4,1,1,70,0,1
90442,-76.9230769230769,4,2,1,90,0,1
90533,-76.9230769230769,4,1,1,70,0,1
90714,-76.9230769230769,4,2,1,90,0,1
90987,-76.9230769230769,4,1,1,70,0,1
91078,-76.9230769230769,4,2,1,90,0,1
91260,-76.9230769230769,4,1,1,70,0,1
91351,-76.9230769230769,4,1,1,80,0,1
91714,-76.9230769230769,4,1,1,70,0,1
93169,-76.9230769230769,4,1,1,40,0,1
93351,-76.9230769230769,4,2,1,90,0,1
93442,-76.9230769230769,4,1,1,70,0,1
93623,-76.9230769230769,4,2,1,90,0,1
93714,-76.9230769230769,4,1,1,70,0,1
93987,-76.9230769230769,4,2,1,90,0,1
94169,-76.9230769230769,4,1,1,70,0,1
94260,-76.9230769230769,4,2,1,90,0,1
94442,-76.9230769230769,4,1,1,70,0,1
94533,-76.9230769230769,4,2,1,90,0,1
94623,-76.9230769230769,4,1,1,70,0,1
94896,-76.9230769230769,4,2,1,90,0,1
94987,-76.9230769230769,4,1,1,70,0,1
95351,-76.9230769230769,4,1,1,70,0,1
95442,-76.9230769230769,4,2,1,90,0,1
95533,-76.9230769230769,4,1,1,70,0,1
95714,-76.9230769230769,4,2,1,90,0,1
95896,-76.9230769230769,4,1,1,70,0,1
95987,-76.9230769230769,4,1,2,40,0,1
96078,-76.9230769230769,4,2,1,90,0,1
96260,-76.9230769230769,4,1,1,70,0,1
96351,-76.9230769230769,4,2,1,90,0,1
96623,-76.9230769230769,4,1,1,70,0,1
96896,-76.9230769230769,4,2,1,90,0,1
97078,-76.9230769230769,4,1,1,70,0,1
97169,-76.9230769230769,4,2,1,90,0,1
97351,-76.9230769230769,4,1,1,70,0,1
97442,-76.9230769230769,4,2,1,90,0,1
97533,-76.9230769230769,4,1,1,70,0,1
98260,-76.9230769230769,4,2,1,90,0,1
98533,-76.9230769230769,4,1,1,70,0,1
98623,-76.9230769230769,4,2,1,90,0,1
98714,-76.9230769230769,4,1,1,70,0,1
98896,-76.9230769230769,4,1,0,70,0,0
98987,-76.9230769230769,4,1,1,60,0,1
99169,-76.9230769230769,4,2,1,90,0,1
99260,-76.9230769230769,4,1,1,70,0,1
99442,-76.9230769230769,4,2,1,90,0,1
99533,-76.9230769230769,4,1,1,70,0,1
99714,-76.9230769230769,4,2,1,90,0,1
99805,-76.9230769230769,4,1,1,70,0,1
99987,-76.9230769230769,4,2,1,90,0,1
100260,-76.9230769230769,4,1,1,70,0,1
100351,-76.9230769230769,4,2,1,90,0,1
100442,-76.9230769230769,4,1,1,70,0,1
100623,-76.9230769230769,4,2,1,90,0,1
100714,-76.9230769230769,4,1,1,70,0,1
100896,-76.9230769230769,4,2,1,90,0,1
100987,-76.9230769230769,4,1,1,70,0,1
101169,-76.9230769230769,4,2,1,90,0,1
101260,-76.9230769230769,4,1,1,70,0,1
101442,-76.9230769230769,4,2,1,90,0,1
101533,-76.9230769230769,4,1,1,70,0,1
101623,-76.9230769230769,4,2,1,90,0,1
101896,-76.9230769230769,4,1,1,70,0,1
102078,-76.9230769230769,4,2,1,90,0,1
102169,-76.9230769230769,4,1,1,70,0,1
102351,-76.9230769230769,4,2,1,90,0,1
102442,-76.9230769230769,4,1,1,70,0,1
102623,-76.9230769230769,4,2,1,90,0,1
102805,-76.9230769230769,4,1,1,70,0,1
104078,-76.9230769230769,4,2,1,90,0,1
104351,-76.9230769230769,4,1,1,70,0,1
109169,-76.9230769230769,4,1,0,70,0,1
109442,-66.6666666666667,4,1,0,70,0,1
109714,-55.5555555555556,4,1,0,70,0,1
109987,-50,4,1,0,70,0,1
110623,-76.9230769230769,4,1,0,70,0,0

[Colours]
Combo1 : 0,94,187
Combo2 : 103,103,182
Combo3 : 170,0,170
Combo4 : 170,0,0
Combo5 : 102,51,51

[HitObjects]
80,68,1533,5,8,0:0:0:0:
160,104,1714,1,2,0:0:0:0:
88,156,1896,2,0,L|100:272,1,112.500004291535,2|2,0:0|0:0,0:0:0:0:
112,304,2260,2,0,L|96:352,2,37.5000014305115,0|0|2,0:0|0:0|0:0,0:0:0:0:
212,180,2623,5,2,0:0:0:0:
208,192,2714,1,2,0:0:0:0:
208,204,2805,1,0,0:0:0:0:
212,216,2896,1,0,0:0:0:0:
232,248,2987,6,2,B|280:232|280:232|360:264|360:264|408:248,1,175,0|0,0:0|0:0,0:0:0:0:
416,240,3714,6,0,P|468:208|476:152,1,100,8|0,0:0|0:0,0:0:0:0:
388,20,3987,6,0,P|356:76|396:160,1,150.000005722046,8|0,0:0|0:0,0:0:0:0:
308,304,4260,1,0,0:0:0:0:
308,304,4351,1,0,0:0:0:0:
308,304,4442,6,0,P|316:212|300:196,1,100,12|0,0:0|0:0,0:0:0:0:
180,136,4987,2,0,P|176:228|192:244,1,100,0|0,0:0|0:0,0:0:0:0:
224,312,5533,5,2,0:0:0:0:
312,336,5714,1,0,0:0:0:0:
208,328,5896,1,0,0:0:0:0:
368,264,6078,6,0,P|376:200|352:168,2,100,2|0|2,0:0|0:0|0:0,0:0:0:0:
204,124,6987,2,0,P|239:106|264:108,1,50,0|2,0:0|0:0,0:0:0:0:
352,32,7351,2,0,P|408:40|440:80,1,100,0|2,0:0|0:0,0:0:0:0:
432,152,7896,1,0,0:0:0:0:
412,320,8623,6,2,B|348:336|348:336|284:312|284:312|180:344,1,200,2|0,0:0|0:0,0:0:0:0:
152,372,9533,2,2,P|102:319|120:268,1,100,2|0,0:0|0:0,0:0:0:0:
208,196,10078,1,0,0:0:0:0:
88,96,10260,6,0,B|72:144|72:144|104:196,1,100,2|0,0:0|0:0,0:0:0:0:
264,300,10805,2,0,P|336:264|344:244,1,100,2|0,0:0|0:0,0:0:0:0:
276,60,11351,2,0,L|224:48,1,50,2|0,0:0|0:0,0:0:0:0:
68,180,11714,6,2,B|133:216|133:216|205:196,2,150,2|2|2,0:0|0:0|0:0,0:0:0:0:
256,192,13169,12,0,15351,0:0:0:0:
196,284,16078,5,4,0:0:0:0:
220,188,16260,2,0,P|252:196|272:220,1,50,10|2,0:0|0:0,0:0:0:0:
104,332,16533,2,0,P|96:312|104:260,1,50,10|2,0:0|0:0,0:0:0:0:
172,92,16805,1,10,0:0:0:0:
172,92,16896,1,2,0:0:0:0:
344,200,17078,1,2,0:0:0:0:
340,224,17169,5,2,0:0:0:0:
336,248,17260,1,2,0:0:0:0:
332,272,17351,1,2,0:0:0:0:
328,296,17442,1,2,0:0:0:0:
324,320,17533,6,0,P|379:325|417:295,1,100,8|2,0:0|0:0,0:0:0:0:
464,196,17805,2,0,P|483:145|463:99,1,100,8|10,0:0|0:0,0:0:0:0:
368,44,18078,1,8,0:0:0:0:
256,172,18260,1,8,0:0:0:0:
276,160,18351,1,10,0:0:0:0:
136,272,18623,5,8,0:0:0:0:
108,284,18714,1,2,0:0:0:0:
76,284,18805,2,0,L|4:304,1,50,2|2,0:0|0:0,0:0:0:0:
48,196,18987,6,0,L|168:164,1,100,2|10,0:0|0:0,0:0:0:0:
304,72,19260,2,0,L|168:104,1,100,10|10,0:0|0:0,0:0:0:0:
16,96,19533,2,0,P|64:68|140:100,1,100,10|10,0:0|0:0,0:0:0:0:
336,192,19806,2,0,P|294:215|216:192,1,100,10|10,0:0|0:0,0:0:0:0:
76,304,20078,6,0,L|152:336,1,50,2|2,0:0|0:0,0:0:0:0:
220,352,20260,2,0,L|288:336,1,50,8|2,0:0|0:0,0:0:0:0:
356,280,20442,2,8,L|396:148,1,100,10|10,0:0|0:0,0:0:0:0:
340,108,20714,5,2,0:0:0:0:
160,288,20987,1,8,0:0:0:0:
200,80,21169,5,10,0:0:0:0:
200,80,21260,1,10,0:0:0:0:
260,272,21442,1,8,0:0:0:0:
84,16,21714,5,10,0:0:0:0:
96,268,21896,5,4,0:0:0:0:
136,88,22078,1,8,0:0:0:0:
184,328,22260,5,6,0:0:0:0:
188,160,22442,1,8,0:0:0:0:
272,380,22623,5,10,0:0:0:0:
244,232,22805,1,8,0:0:0:0:
380,380,22987,5,4,0:0:0:0:
296,300,23169,1,8,0:0:0:0:
356,288,23260,1,8,0:0:0:0:
412,276,23351,5,4,0:0:0:0:
232,144,23533,1,8,0:0:0:0:
448,184,23714,5,4,0:0:0:0:
244,232,23896,1,8,0:0:0:0:
396,360,24078,5,8,0:0:0:0:
256,316,24260,1,8,0:0:0:0:
124,360,24442,5,4,0:0:0:0:
112,344,24533,1,0,0:0:0:0:
108,324,24623,1,0,0:0:0:0:
112,304,24714,1,0,0:0:0:0:
168,240,24805,5,4,0:0:0:0:
208,248,24896,1,10,0:0:0:0:
244,232,24987,1,2,0:0:0:0:
264,200,25078,1,10,0:0:0:0:
264,160,25169,6,0,L|272:100,1,50,4|0,0:0|0:0,0:0:0:0:
160,28,25351,2,0,L|152:88,1,50,8|8,0:0|0:0,0:0:0:0:
296,36,25533,5,4,0:0:0:0:
328,20,25623,1,10,0:0:0:0:
360,28,25714,1,10,0:0:0:0:
384,52,25805,1,10,0:0:0:0:
392,92,25896,6,0,P|409:90|432:76,1,25,4|0,0:0|0:0,0:0:0:0:
376,124,25987,2,0,P|359:113|344:116,1,25
392,156,26078,2,0,P|412:164|432:164,1,25
384,188,26169,2,0,P|359:196|352:204,1,25
400,220,26260,6,0,P|384:304|328:332,1,150,4|0,0:0|0:0,0:0:0:0:
152,352,26987,5,4,0:0:0:0:
152,352,27078,1,2,0:0:0:0:
312,240,27260,5,4,0:0:0:0:
84,208,27442,5,2,0:0:0:0:
44,176,27533,1,4,0:0:0:0:
40,124,27623,1,2,0:0:0:0:
72,84,27714,5,4,0:0:0:0:
172,184,27896,1,8,0:0:0:0:
164,220,27987,1,0,0:0:0:0:
156,256,28078,1,2,0:0:0:0:
332,288,28260,1,2,0:0:0:0:
152,352,28442,1,2,0:0:0:0:
412,336,28623,6,0,P|420:256|380:208,1,129.999994049073,2|2,0:0|0:0,0:0:0:0:
244,48,28896,2,0,P|236:128|276:176,1,129.999994049073,2|2,0:0|0:0,0:0:0:0:
292,180,29169,5,0,0:0:0:0:
108,328,29351,1,2,0:0:0:0:
88,300,29442,1,8,0:0:0:0:
92,264,29533,6,0,P|116:232|96:184,1,50,2|4,0:0|0:0,0:0:0:0:
128,52,29714,2,8,P|136:80|176:116,1,50,0|0,0:0|0:0,0:0:0:0:
247,169,29896,6,0,B|263:169|263:169|265:182|283:185|307:173,1,50,2|2,0:0|0:0,0:0:0:0:
460,316,30260,6,0,L|256:364,1,150.000005722046,8|2,0:0|0:0,0:0:0:0:
244,304,30533,1,2,0:0:0:0:
244,304,30623,5,4,0:0:0:0:
8,248,30896,1,4,0:0:0:0:
192,364,31078,1,8,0:0:0:0:
16,340,31260,6,0,L|76:316,1,50,2|2,0:0|0:0,0:0:0:0:
120,88,31472,2,0,B|124:96|124:96|120:104|120:104|128:104|128:104|152:176,1,66.6666666666667,2|2,0:0|0:0,0:0:0:0:
244,304,31714,6,0,B|256:312|256:312|268:300|268:300|292:328|332:332|360:316,1,112.500004291535,6|2,0:0|0:0,0:0:0:0:
426,243,32078,5,10,0:0:0:0:
456,164,32199,1,2,0:0:0:0:
376,128,32320,1,2,0:0:0:0:
344,208,32442,1,8,0:0:0:0:
328,200,32805,6,0,L|300:0,1,150.000005722046,4|0,0:0|0:0,0:0:0:0:
316,36,33078,1,0,0:0:0:0:
416,136,33169,6,0,P|432:184|416:248,1,75.0000028610231,2|0,0:0|0:0,0:0:0:0:
336,344,33351,2,0,P|298:342|264:328,1,75.0000028610231,2|0,0:0|0:0,0:0:0:0:
216,220,33533,6,0,L|236:144,1,75.0000028610231,4|10,0:0|0:0,0:0:0:0:
156,52,33805,5,0,0:0:0:0:
156,52,33896,2,0,P|116:48|64:96,1,100,2|2,0:0|0:0,0:0:0:0:
116,280,34260,6,0,P|170:295|210:272,1,66.6666666666667,8|0,0:0|0:0,0:0:0:0:
260,200,34503,1,2,0:0:0:0:
172,152,34623,6,0,P|157:206|180:246,1,66.6666666666667,8|0,0:0|0:0,0:0:0:0:
280,316,34866,1,2,0:0:0:0:
408,296,34987,6,0,P|423:242|400:202,1,66.6666666666667,8|10,0:0|0:0,0:0:0:0:
324,136,35230,1,2,0:0:0:0:
280,316,35351,6,0,P|248:332|172:300,1,66.6666666666667,8|10,0:0|0:0,0:0:0:0:
120,232,35593,1,2,0:0:0:0:
220,124,35714,5,0,0:0:0:0:
220,124,35805,1,0,0:0:0:0:
220,124,35896,1,8,0:0:0:0:
220,124,35987,1,2,0:0:0:0:
220,124,36078,6,2,B|239:160|239:160|228:168|216:228,1,75.0000028610231,0|0,0:0|0:0,0:0:0:0:
352,356,36260,6,2,P|412:304|368:216,1,150.000005722046,0|0,0:0|0:0,0:0:0:0:
332,156,36623,5,2,0:0:0:0:
268,340,36805,1,2,0:0:0:0:
256,356,36896,1,2,0:0:0:0:
100,272,37078,1,2,0:0:0:0:
96,248,37169,6,0,B|104:228|104:228|96:220|96:220|104:212|104:212|116:136,1,100,2|2,0:0|0:0,0:0:0:0:
248,80,37442,2,0,B|232:92|248:104|248:104|240:112|240:112|232:192,1,100,2|2,0:0|0:0,0:0:0:0:
348,288,37714,2,0,B|356:176,1,100,2|2,0:0|0:0,0:0:0:0:
424,136,37987,6,0,P|468:100|452:28,1,100
399,67,38169,2,0,B|363:47|327:87|327:87|395:75|435:119|431:195,1,200
340,272,38442,2,0,B|352:168|352:168|308:176|264:136,2,150.000005722046,10|2|0,0:0|0:0|0:0,0:0:0:0:
328,320,38896,5,0,0:0:0:0:
296,356,38987,1,8,0:0:0:0:
248,364,39078,1,8,0:0:0:0:
208,336,39169,1,8,0:0:0:0:
160,332,39260,1,8,0:0:0:0:
120,360,39351,6,2,B|88:372|88:372|100:348|56:340|56:340|76:336|100:308|100:308|76:296|76:296|92:292|92:292|100:276|100:276|144:240|160:152|104:100,1,400,0|8,0:0|0:0,0:0:0:0:
36,132,40199,6,0,P|32:168|60:208,1,66.6666666666667,8|8,0:0|0:0,0:0:0:0:
196,288,40442,1,2,2:2:0:0:
232,196,40563,2,0,P|236:163|224:132,1,66.6666666666667,8|8,0:0|0:0,0:0:0:0:
124,52,40805,6,0,B|116:64|116:64|136:76|136:76|128:84|128:84|152:232,1,150,0|2,0:0|0:0,0:0:0:0:
136,208,41169,1,2,0:0:0:0:
128,232,41260,1,2,0:0:0:0:
120,256,41351,1,2,0:0:0:0:
112,280,41442,1,2,0:0:0:0:
104,304,41533,2,0,B|156:344|156:344|180:292|236:296,2,150,10|2|0,0:0|0:0|0:0,0:0:0:0:
160,124,42260,6,0,L|180:152,2,33.3333333333333,2|2|2,0:0|0:0|0:0,0:0:0:0:
196,116,42442,2,0,L|240:152,2,33.3333333333333,2|2|2,0:0|0:0|0:0,0:0:0:0:
220,88,42623,2,0,L|260:104,2,33.3333333333333,2|2|2,0:0|0:0|0:0,0:0:0:0:
236,56,42805,2,0,L|280:64,2,33.3333333333333,2|2|2,0:0|0:0|0:0,0:0:0:0:
344,40,42987,6,0,P|345:81|308:112,1,50,2|0,0:0|0:0,0:0:0:0:
440,188,43169,2,0,P|432:164|436:140,1,50,2|2,0:0|0:0,0:0:0:0:
360,288,43351,2,0,L|352:340,2,33.3333333333333,2|2|0,0:0|0:0|0:0,0:0:0:0:
272,224,43533,2,0,L|260:176,1,50,2|2,0:0|0:0,0:0:0:0:
236,56,43714,6,0,P|272:40|336:68,1,66.6666666666667,2|2,0:0|0:0,0:0:0:0:
420,124,43957,1,0,0:0:0:0:
400,216,44078,6,0,P|368:205|345:181,1,66.6666666666667,2|2,0:0|0:0,0:0:0:0:
392,40,44320,1,2,0:0:0:0:
504,112,44442,2,0,B|492:172|492:172|504:200|504:200|480:292,1,150,4|0,0:0|0:0,0:0:0:0:
468,272,44805,1,4,0:0:0:0:
256,316,44987,2,0,L|232:264,1,50,4|0,0:0|0:0,0:0:0:0:
156,216,45169,6,0,P|116:260|60:244,1,100
12,196,45533,1,2,0:0:0:0:
84,40,45714,1,0,0:0:0:0:
100,20,45805,1,0,0:0:0:0:
128,8,45896,2,0,P|180:8|224:56,1,100
208,148,46260,1,2,0:0:0:0:
80,244,46442,1,0,0:0:0:0:
228,320,46623,5,0,0:0:0:0:
168,240,46805,1,0,0:0:0:0:
208,148,46987,2,0,P|248:108|316:128,1,100,2|0,0:0|0:0,0:0:0:0:
464,32,47351,6,0,L|456:72,1,25
280,188,47623,2,0,P|288:212|304:224,1,25
472,312,47896,2,0,P|457:329|440:332,1,25
364,316,48078,5,8,0:0:0:0:
336,296,48169,1,2,0:0:0:0:
304,288,48260,1,2,0:0:0:0:
268,296,48351,1,0,0:0:0:0:
180,340,48442,5,8,0:0:0:0:
132,332,48533,1,2,0:0:0:0:
96,296,48623,1,2,0:0:0:0:
88,248,48714,1,0,0:0:0:0:
124,156,48805,5,2,0:0:0:0:
144,164,48896,1,2,0:0:0:0:
164,164,48987,1,2,0:0:0:0:
180,156,49078,1,2,0:0:0:0:
220,64,49169,5,2,0:0:0:0:
192,28,49260,1,2,0:0:0:0:
148,24,49351,1,2,0:0:0:0:
108,44,49442,1,2,0:0:0:0:
88,80,49533,2,2,P|84:112|104:144,1,50,6|6,0:0|0:0,0:0:0:0:
152,216,49714,5,4,0:0:0:0:
168,240,49805,1,2,0:0:0:0:
172,268,49896,2,2,P|171:295|160:316,1,50,2|0,0:0|0:0,0:0:0:0:
280,352,50078,5,6,0:0:0:0:
308,332,50169,1,2,0:0:0:0:
344,336,50260,6,2,P|376:356|428:344,1,50,6|2,0:0|0:0,0:0:0:0:
468,296,50442,2,2,P|484:264|480:236,1,50,6|2,0:0|0:0,0:0:0:0:
440,100,50623,2,2,P|412:84|384:36,1,50,6|2,0:0|0:0,0:0:0:0:
256,32,50805,2,2,P|224:32|192:64,1,50,6|2,0:0|0:0,0:0:0:0:
124,144,50987,5,6,0:0:0:0:
204,124,62623,5,8,0:0:0:0:
268,328,62805,1,8,0:0:0:0:
212,108,62987,1,2,0:0:0:0:
308,176,63169,1,8,0:0:0:0:
316,204,63260,1,8,0:0:0:0:
312,232,63351,1,8,0:0:0:0:
248,316,63533,1,2,0:0:0:0:
136,292,63714,5,8,0:0:0:0:
360,336,63896,1,8,0:0:0:0:
196,216,64078,6,0,B|128:184|128:184|60:224,1,150,8|8,0:0|0:0,0:0:0:0:
44,236,64442,1,2,0:0:0:0:
176,104,64623,1,8,0:0:0:0:
24,136,64805,1,8,0:0:0:0:
164,308,64987,5,2,0:0:0:0:
280,176,65169,1,8,0:0:0:0:
344,360,65351,2,0,L|400:348,1,50,8|8,0:0|0:0,0:0:0:0:
488,304,65533,6,0,P|436:248|380:260,1,100,8|8,0:0|0:0,0:0:0:0:
340,224,65805,2,0,B|280:264|280:264|176:224,1,150,2|2,0:0|0:0,0:0:0:0:
280,16,66260,1,8,0:0:0:0:
296,32,66351,2,0,L|308:116,1,50,8|8,0:0|0:0,0:0:0:0:
176,204,66533,2,0,L|156:60,1,100,2|2,0:0|0:0,0:0:0:0:
88,40,66805,1,2,0:0:0:0:
184,284,66987,6,0,P|120:348|48:324,2,150,8|2|2,0:0|0:0|0:0,0:0:0:0:
324,320,67714,1,8,0:0:0:0:
348,304,67805,2,0,L|488:336,1,100,2|8,0:0|0:0,0:0:0:0:
472,312,68078,1,2,0:0:0:0:
244,356,68260,1,0,0:0:0:0:
468,292,68442,5,8,0:0:0:0:
288,208,68623,1,8,0:0:0:0:
476,204,68805,5,2,0:0:0:0:
276,116,68987,1,8,0:0:0:0:
480,112,69169,5,8,0:0:0:0:
264,24,69351,5,2,0:0:0:0:
380,152,69533,1,8,0:0:0:0:
484,20,69714,1,2,0:0:0:0:
264,24,69896,6,0,P|204:72|148:44,1,100,8|8,0:0|0:0,0:0:0:0:
76,48,70169,2,0,L|104:176,1,100,2|2,0:0|0:0,0:0:0:0:
192,232,70442,2,0,L|156:324,1,50,8|8,0:0|0:0,0:0:0:0:
120,372,70623,5,8,0:0:0:0:
312,320,70805,1,2,0:0:0:0:
148,336,70987,1,2,0:0:0:0:
368,372,71169,2,0,L|444:380,1,50,8|8,0:0|0:0,0:0:0:0:
444,280,71351,5,8,0:0:0:0:
452,256,71442,1,8,0:0:0:0:
448,232,71533,1,8,0:0:0:0:
432,212,71623,1,8,0:0:0:0:
404,192,71714,5,2,0:0:0:0:
368,192,71805,1,2,0:0:0:0:
344,216,71896,1,8,0:0:0:0:
316,240,71987,1,8,0:0:0:0:
272,244,72078,5,8,0:0:0:0:
228,236,72169,1,8,0:0:0:0:
208,200,72260,1,8,0:0:0:0:
212,156,72351,1,8,0:0:0:0:
228,108,72442,5,2,0:0:0:0:
204,64,72533,1,2,0:0:0:0:
156,56,72623,1,8,0:0:0:0:
112,80,72714,1,8,0:0:0:0:
88,120,72805,6,0,P|80:160|116:204,1,75.0000028610231
184,320,72987,2,0,P|224:348|276:312,1,75.0000028610231
400,272,73169,2,0,B|420:236|420:236|416:196,1,75.0000028610231
348,40,73351,2,0,P|316:24|256:40,1,75.0000028610231
112,80,73533,6,0,L|92:40,7,37.5000014305115
192,192,73896,6,2,L|176:252,7,50
128,296,74260,6,0,P|192:316|224:300,1,100,10|8,0:0|0:0,0:0:0:0:
296,232,74533,2,0,P|332:208|408:232,1,100,10|8,0:0|0:0,0:0:0:0:
460,284,74805,2,0,L|488:148,1,100,10|8,0:0|0:0,0:0:0:0:
368,24,75078,2,0,L|340:160,1,100,10|8,0:0|0:0,0:0:0:0:
356,288,75351,5,2,0:0:0:0:
340,336,75442,1,0,0:0:0:0:
296,360,75533,1,0,0:0:0:0:
248,356,75623,1,0,0:0:0:0:
224,344,75714,6,8,B|180:336|180:336|120:360|120:360|60:352,2,150,0|8|8,0:0|3:0|3:0,3:0:0:0:
236,300,76896,5,0,0:0:0:0:
220,260,76987,1,2,0:0:0:0:
248,224,77078,1,0,0:0:0:0:
236,192,77169,5,2,0:0:0:0:
392,76,77351,5,8,0:0:0:0:
384,104,77442,1,10,0:0:0:0:
440,276,77623,5,8,0:0:0:0:
460,284,77714,1,10,0:0:0:0:
313,346,77896,5,10,0:0:0:0:
295,337,77987,1,10,0:0:0:0:
276,328,78078,5,2,0:0:0:0:
240,356,78169,1,2,0:0:0:0:
200,372,78260,1,0,0:0:0:0:
156,360,78351,1,0,0:0:0:0:
136,320,78442,1,0,0:0:0:0:
156,280,78533,1,0,0:0:0:0:
152,236,78623,5,10,0:0:0:0:
76,84,78805,5,2,0:0:0:0:
72,92,78866,1,0,0:0:0:0:
80,96,78926,1,0,0:0:0:0:
84,88,78987,1,2,0:0:0:0:
232,152,79169,5,2,0:0:0:0:
236,160,79229,1,0,0:0:0:0:
224,156,79290,1,0,0:0:0:0:
228,164,79351,1,2,0:0:0:0:
28,224,79533,6,0,L|40:172,2,33.3333333333333
32,248,79714,5,2,0:0:0:0:
24,284,79805,1,0,0:0:0:0:
48,308,79896,1,0,0:0:0:0:
32,340,79987,1,0,0:0:0:0:
52,368,80078,6,0,P|100:372|148:332,1,100,10|8,0:0|0:0,0:0:0:0:
200,260,80351,2,0,P|180:180|128:160,1,100,10|8,0:0|0:0,0:0:0:0:
80,132,80623,6,0,P|68:180|120:248,1,100,10|8,0:0|0:0,0:0:0:0:
224,340,80896,2,0,B|352:308,1,100,10|8,0:0|0:0,0:0:0:0:
372,232,81169,5,8,0:0:0:0:
392,192,81260,1,2,0:0:0:0:
384,148,81351,1,2,0:0:0:0:
356,112,81442,1,2,0:0:0:0:
312,104,81533,6,2,B|300:108|300:108|296:116|296:116|284:112|284:112|216:132,1,100,8|0,0:0|0:0,0:0:0:0:
80,228,81805,2,2,B|92:224|92:224|96:216|96:216|108:220|108:220|176:200,1,100,8|0,0:0|0:0,0:0:0:0:
212,52,82078,6,2,L|84:84,1,100,8|0,0:0|0:0,0:0:0:0:
3,197,82350,2,2,B|131:165,1,100,8|0,0:0|0:0,0:0:0:0:
292,68,82623,6,2,L|224:84,1,50
224,184,82805,2,2,L|276:236,1,50
452,132,82987,6,0,L|308:148,1,100,10|2,0:0|0:0,0:0:0:0:
312,312,83260,2,0,L|456:296,1,100,10|2,0:0|0:0,0:0:0:0:
484,216,83533,2,0,L|404:224,1,50,10|2,0:0|0:0,0:0:0:0:
300,320,83714,6,0,P|236:280|248:192,1,129.999994049073,10|2,0:0|0:0,0:0:0:0:
316,112,83987,2,0,P|340:192|276:260,1,129.999994049073,10|2,0:0|0:0,0:0:0:0:
220,320,84260,1,2,0:0:0:0:
188,344,84351,1,2,0:0:0:0:
148,344,84442,6,0,P|152:288|192:260,1,64.9999970245363,2|2,0:0|0:0,0:0:0:0:
80,180,84623,2,0,P|47:176|21:158,1,64.9999970245363,2|0,0:0|0:0,0:0:0:0:
204,40,84805,2,0,L|168:116,1,64.9999970245363,2|0,0:0|0:0,0:0:0:0:
240,212,84987,2,0,L|320:224,1,64.9999970245363,2|0,0:0|0:0,0:0:0:0:
380,304,85169,5,10,0:0:0:0:
388,324,85260,1,2,0:0:0:0:
164,248,85442,1,0,0:0:0:0:
260,332,85623,1,10,0:0:0:0:
252,352,85714,1,2,0:0:0:0:
412,196,85896,6,2,B|396:172|396:172|416:164|416:164|400:152|400:152|408:128|408:128|388:96|288:104|304:208|344:224,1,275,0|0,0:0|0:0,0:0:0:0:
412,196,86987,6,0,B|456:164|448:108|432:76|432:76|368:116|304:68|308:12,1,300,6|0,0:0|0:0,0:0:0:0:
384,16,87351,6,0,P|448:0|512:92,1,129.999994049073,14|2,0:0|0:0,0:0:0:0:
508,84,87623,1,2,0:0:0:0:
492,136,87714,1,2,0:0:0:0:
412,316,87896,1,8,0:0:0:0:
264,264,88078,5,8,0:0:0:0:
224,244,88169,1,2,0:0:0:0:
180,248,88260,1,0,0:0:0:0:
144,280,88351,1,0,0:0:0:0:
132,320,88442,5,8,0:0:0:0:
76,340,88533,1,2,0:0:0:0:
32,312,88623,1,2,0:0:0:0:
28,256,88714,1,2,0:0:0:0:
72,220,88805,6,0,P|120:160|68:88,1,129.999994049073,8|2,0:0|0:2,0:0:0:0:
92,12,89078,2,0,P|61:17|36:38,1,64.9999970245363,8|4,0:0|0:0,0:0:0:0:
188,208,89351,1,2,0:2:0:0:
320,64,89533,1,8,0:0:0:0:
360,72,89623,1,2,0:0:0:0:
384,104,89714,1,2,0:0:0:0:
384,144,89805,1,2,0:0:0:0:
368,180,89896,6,0,P|339:209|284:200,1,85.0000016212464,2|2,0:0|0:0,0:0:0:0:
432,364,90078,2,0,B|464:336|464:336|513:344,1,85.0000016212464,10|2,0:0|0:0,0:0:0:0:
312,336,90260,6,0,B|216:352|216:352|152:328,1,129.999994049073,8|10,0:0|0:0,0:0:0:0:
40,168,90533,2,0,P|104:228|172:196,1,129.999994049073,8|10,0:0|0:0,0:0:0:0:
104,20,90805,2,0,P|73:20|32:72,1,64.9999970245363,2|0,0:0|0:0,0:0:0:0:
104,100,90987,5,8,0:0:0:0:
148,96,91078,1,2,0:0:0:0:
176,60,91169,1,2,0:0:0:0:
184,16,91260,1,0,0:0:0:0:
212,76,91351,5,8,0:0:0:0:
272,96,91442,1,2,0:2:0:0:
336,84,91533,2,0,P|376:64|384:36,1,64.9999970245363
324,168,91714,6,0,L|316:312,1,129.999994049073,10|2,0:0|0:2,0:0:0:0:
196,368,91987,2,0,L|176:224,1,129.999994049073,10|0,0:0|0:2,0:0:0:0:
156,148,92260,6,0,L|144:64,1,64.9999970245363,8|0,0:0|0:0,0:0:0:0:
336,188,92442,2,0,L|326:252,1,64.9999970245363,2|2,0:2|0:2,0:0:0:0:
260,320,92623,2,0,P|224:288|132:320,1,129.999994049073,8|0,0:0|0:0,0:0:0:0:
124,340,92896,1,8,0:0:0:0:
84,360,92987,1,2,0:0:0:0:
44,340,93078,1,2,0:0:0:0:
32,296,93169,6,0,P|96:256|156:308,1,129.999994049073,4|10,0:0|0:0,0:0:0:0:
260,352,93442,2,0,B|320:372|320:372|352:348|408:348,1,129.999994049073,8|10,0:0|0:0,0:0:0:0:
476,364,93714,1,8,0:0:0:0:
332,232,93896,1,8,0:0:0:0:
304,204,93987,1,2,0:2:0:0:
304,164,94078,1,2,0:2:0:0:
324,132,94169,1,8,0:0:0:0:
360,120,94260,6,0,P|396:148|428:144,1,64.9999970245363,10|10,0:0|0:0,0:0:0:0:
496,56,94442,2,0,P|460:28|428:32,1,64.9999970245363,0|2,0:0|0:0,0:0:0:0:
320,32,94623,6,0,P|236:80|184:72,1,129.999994049073,8|2,0:0|0:0,0:0:0:0:
176,68,94896,1,2,0:0:0:0:
152,48,94987,1,0,0:0:0:0:
304,168,95169,1,8,0:0:0:0:
136,216,95351,6,0,P|112:238|81:244,1,64.9999970245363,2|2,0:0|0:0,0:0:0:0:
265,295,95533,2,0,P|297:297|324:316,1,64.9999970245363,2|2,0:0|0:0,0:0:0:0:
156,368,95714,1,2,0:0:0:0:
128,332,95805,1,2,0:0:0:0:
140,288,95896,1,8,0:0:0:0:
124,256,95987,1,2,0:0:0:0:
136,216,96078,6,0,P|80:164|116:76,1,129.999994049073,10|10,0:0|0:0,0:0:0:0:
264,28,96351,2,0,P|236:104|148:108,1,129.999994049073,10|10,0:0|0:0,0:0:0:0:
252,224,96623,2,0,L|432:248,1,129.999994049073,2|2,0:0|0:0,0:0:0:0:
420,208,96896,1,10,0:0:0:0:
308,368,97078,5,2,0:0:0:0:
284,336,97169,1,10,0:0:0:0:
248,320,97260,1,10,0:0:0:0:
208,328,97351,2,0,L|120:316,1,64.9999970245363,2|2,0:0|0:0,0:0:0:0:
124,100,97533,6,0,B|76:204|76:204|196:220,2,194.999991073609,8|0|8,0:0|0:0|0:0,0:0:0:0:
72,32,98169,1,0,0:0:0:0:
84,40,98260,2,0,P|112:26|144:30,1,64.9999970245363,8|2,0:0|0:0,0:0:0:0:
252,256,98533,1,10,0:0:0:0:
300,272,98624,5,2,0:0:0:0:
348,256,98715,1,8,0:0:0:0:
376,212,98806,1,8,0:0:0:0:
372,160,98896,1,0,0:0:0:0:
336,120,98987,6,0,P|288:180|196:164,1,129.999994049073,4|10,0:0|0:0,0:0:0:0:
32,72,99260,2,0,P|93:57|147:90,1,129.999994049073,2|10,0:0|0:0,0:0:0:0:
120,212,99533,2,0,P|104:288|152:344,1,129.999994049073,2|10,0:0|0:0,0:0:0:0:
160,348,99805,1,2,0:0:0:0:
352,344,99987,1,10,0:0:0:0:
368,320,100078,6,0,B|376:296|376:296|360:216,1,64.9999970245363,10|10,0:0|0:0,0:0:0:0:
244,81,100260,2,0,B|236:105|236:105|244:144,1,64.9999970245363,2|10,0:0|0:0,0:0:0:0:
332,156,100442,6,0,P|296:216|228:232,1,129.999994049073,8|10,0:0|0:0,0:0:0:0:
161,306,100714,2,0,P|98:306|56:260,1,129.999994049073,8|10,0:0|0:0,0:0:0:0:
176,88,100987,2,0,L|136:236,1,129.999994049073,8|10,0:0|0:0,0:0:0:0:
248,344,101260,2,0,L|404:304,1,129.999994049073,8|10,0:0|0:0,0:0:0:0:
252,116,101533,6,0,P|247:157|228:204,1,64.9999970245363,8|2,0:0|0:0,0:0:0:0:
320,248,101714,2,0,P|352:236|392:232,1,64.9999970245363,2|2,0:0|0:0,0:0:0:0:
408,120,101896,6,0,P|360:88|308:4,1,129.999994049073,2|10,0:0|0:0,0:0:0:0:
184,40,102169,2,0,P|152:88|68:140,1,129.999994049073,2|10,0:0|0:0,0:0:0:0:
104,264,102442,2,0,P|152:296|204:380,1,129.999994049073,2|10,0:0|0:0,0:0:0:0:
232,368,102714,5,2,0:0:0:0:
264,348,102805,1,2,0:0:0:0:
280,312,102896,1,2,2:0:0:0:
276,272,102987,5,2,0:0:0:0:
228,236,103078,1,2,0:0:0:0:
212,180,103169,1,2,0:0:0:0:
240,128,103260,1,2,0:0:0:0:
292,120,103351,6,0,P|360:164|440:120,1,129.999994049073
432,56,103623,2,0,P|372:16|284:60,1,129.999994049073
288,40,103896,1,0,0:0:0:0:
256,52,103987,1,0,0:0:0:0:
224,64,104078,6,0,P|176:71|132:44,1,64.9999970245363,2|2,0:0|0:0,0:0:0:0:
12,220,104351,1,0,0:0:0:0:
224,316,104533,1,0,0:0:0:0:
236,312,104623,1,0,0:0:0:0:
248,308,104714,1,0,0:0:0:0:
260,304,104805,6,0,L|344:312,1,64.9999970245363,4|0,0:3|0:0,0:0:0:0:
456,144,104987,2,0,L|392:176,1,64.9999970245363,4|0,0:3|0:0,0:0:0:0:
280,216,105169,6,0,P|232:200|212:168,1,64.9999970245363,4|0,0:0|0:0,0:0:0:0:
184,60,105351,2,0,P|202:16|236:-4,1,64.9999970245363,4|0,0:3|0:0,0:0:0:0:
376,16,105533,6,0,L|392:104,1,64.9999970245363,4|2,0:3|0:2,0:0:0:0:
292,280,105714,2,0,L|276:180,1,64.9999970245363,4|0,0:3|0:0,0:0:0:0:
168,116,105896,6,0,P|116:168|28:136,1,129.999994049073,4|0,0:1|0:0,0:0:0:0:
32,88,106169,1,0,0:0:0:0:
84,20,106260,6,0,L|224:40,1,129.999994049073
232,256,106533,2,0,L|100:236,1,129.999994049073,0|0,0:0|0:0,0:0:0:0:
68,252,106805,1,0,0:0:0:0:
304,344,106987,5,0,0:0:0:0:
332,372,107078,1,0,0:0:0:0:
372,376,107169,1,0,0:0:0:0:
408,364,107260,1,0,0:0:0:0:
484,280,107351,5,4,0:0:0:0:
480,272,107442,1,0,0:0:0:0:
476,264,107533,1,0,0:0:0:0:
472,256,107623,1,0,0:0:0:0:
468,248,107714,6,4,B|464:208|456:180|456:180|488:60,1,129.999994049073,0|0,0:0|0:0,0:0:0:0:
376,24,107987,2,0,L|352:108,1,64.9999970245363
160,156,108260,1,0,0:0:0:0:
332,316,108442,5,0,0:0:0:0:
344,264,108533,1,0,0:0:0:0:
324,216,108623,1,0,0:0:0:0:
272,208,108714,1,0,0:0:0:0:
224,228,108805,1,0,0:0:0:0:
200,272,108896,6,0,L|208:316,1,32.4999985122681
152,276,108987,2,0,L|144:232,1,32.4999985122681
120,304,109078,2,0,P|124:332|124:360,1,32.4999985122681
84,280,109169,6,0,P|36:252|88:160,1,129.999994049073,2|0,0:0|0:0,0:0:0:0:
232,40,109442,6,0,B|244:96|244:96|232:136|232:136|252:224,1,150.000005722046,2|0,0:0|0:0,0:0:0:0:
404,344,109714,6,2,B|407:326|407:326|420:324|420:324|408:315|408:315|456:296|480:228|420:176,1,179.999994506836
380,84,109987,6,0,P|352:48|288:44,1,100
148,68,110169,2,0,P|112:96|108:160,1,100
132,300,110351,2,0,P|160:336|224:340,1,100
364,316,110533,2,0,P|400:288|404:224,1,100,0|4,0:0|0:0,0:0:0:0:
