osu file format v14

[General]
AudioFilename: Slit.mp3
AudioLeadIn: 0
PreviewTime: 85896
Countdown: 0
SampleSet: Normal
StackLeniency: 0.7
Mode: 0
LetterboxInBreaks: 1
EpilepsyWarning: 1
WidescreenStoryboard: 1

[Editor]
Bookmarks: 16068,23704,27704,50250,62613,70613,80886
DistanceSpacing: 1.2
BeatDivisor: 4
GridSize: 4
TimelineZoom: 2.2

[Metadata]
Title:Slit
TitleUnicode:Ø
Artist:EBICO & jioyi
ArtistUnicode:EBICO & jioyi
Creator:Foreverends
Version:Hard
Source:Cytus
Tags:Kawaiwkyik Kenterz Kenterz9 wkyik [Seraphin] instrumental dubstep nold_1702 Rizia Arugakente Ulysses electronic
BeatmapID:335361
BeatmapSetID:133558

[Difficulty]
HPDrainRate:5
CircleSize:3
OverallDifficulty:5
ApproachRate:7.5
SliderMultiplier:1.7
SliderTickRate:1

[Events]
//Background and Video events
0,0,"slit.jpg",0,0
//Break Periods
2,51187,61798
//Storyboard Layer 0 (Background)
//Storyboard Layer 1 (Fail)
//Storyboard Layer 2 (Pass)
//Storyboard Layer 3 (Foreground)
//Storyboard Layer 4 (Overlay)
//Storyboard Sound Samples

[TimingPoints]
1533,363.636363636364,4,1,0,50,1,0
1533,-133.333333333333,4,1,1,50,0,0
1714,-133.333333333333,4,2,2,40,0,0
1896,-133.333333333333,4,1,1,40,0,0
2987,-200,4,1,1,40,0,0
3987,-100,4,1,1,40,0,0
4260,-76.9230769230769,4,1,1,40,0,0
4442,-153.846153846153,4,2,0,40,0,0
16078,-100,4,1,1,50,0,0
16805,-100,4,2,1,70,0,0
16987,-100,4,1,1,70,0,0
17169,-100,4,1,1,70,0,0
17260,-100,4,2,1,70,0,0
17533,-100,4,1,1,70,0,0
18442,-100,4,2,1,70,0,0
18623,-100,4,1,1,70,0,0
18896,-100,4,2,1,70,0,0
19714,-100,4,1,1,70,0,0
19805,-100,4,2,1,70,0,0
20442,-100,4,1,1,70,0,0
21169,-100,4,2,1,70,0,0
21442,-100,4,1,1,70,0,0
21896,-100,4,2,1,60,0,0
22078,-100,4,1,1,70,0,0
22260,-100,4,1,1,50,0,0
22442,-100,4,1,1,70,0,0
22987,-100,4,1,1,50,0,0
23169,-100,4,1,1,70,0,0
23351,-100,4,2,1,60,0,0
23533,-100,4,1,1,70,0,0
23714,-100,4,1,1,50,0,0
23896,-100,4,1,1,70,0,0
24442,-100,4,1,1,50,0,0
24533,-100,4,1,1,70,0,0
24805,-100,4,2,1,50,0,0
24896,-100,4,1,1,70,0,0
25169,-100,4,1,1,50,0,0
25260,-100,4,1,1,70,0,0
25533,-100,4,2,1,50,0,0
25623,-100,4,1,1,70,0,0
25896,-100,4,1,1,50,0,0
25942,-100,4,1,1,70,0,0
26260,-100,4,1,0,50,0,0
26351,-100,4,2,0,50,0,0
27714,-100,4,2,1,50,0,1
27805,-100,4,1,1,50,0,0
28078,-100,4,1,2,40,0,0
28442,-100,4,2,2,50,0,0
28623,-100,4,1,0,80,0,0
29169,-100,4,1,1,80,0,0
29896,-100,4,1,0,60,0,0
30260,-66.6666666666667,4,1,1,70,0,0
30623,-100,4,3,2,70,0,0
31351,-100,4,1,0,60,0,0
31472,-100,4,2,0,100,0,0
31593,-100,4,2,0,60,0,0
31714,-100,4,1,0,60,0,0
31987,-133.333333333333,4,2,1,70,0,0
32078,-133.333333333333,4,3,1,70,0,0
32805,-133.333333333333,4,1,1,70,0,0
33533,-100,4,2,1,50,0,0
33896,-100,4,1,2,50,0,0
34260,-100,4,2,1,70,0,0
34381,-100,4,1,1,50,0,0
34502,-100,4,2,1,70,0,0
34745,-100,4,1,1,50,0,0
34866,-100,4,2,1,50,0,0
35714,-100,4,1,0,70,0,0
35896,-100,4,2,1,60,0,0
36078,-100,4,1,0,70,0,0
36169,-100,4,2,0,50,0,0
36260,-100,4,1,0,70,0,0
36442,-100,4,1,0,70,0,0
36805,-100,4,1,1,70,0,0
37169,-100,4,1,0,70,0,0
37896,-100,4,1,2,50,0,0
38078,-100,4,3,0,50,0,0
38442,-100,4,2,1,70,0,0
38623,-100,4,1,2,50,0,0
38896,-100,4,1,0,50,0,0
39351,-100,4,1,0,5,0,0
39623,-100,4,1,0,40,0,0
40078,-100,4,1,0,65,0,0
40805,-100,4,1,1,80,0,0
41533,-100,4,2,1,100,0,0
42078,-100,4,1,2,70,0,0
42260,-100,4,1,1,80,0,0
42442,-100,4,2,1,80,0,0
42623,-100,4,1,2,40,0,0
42805,-100,4,1,1,50,0,0
42987,-100,4,1,1,70,0,0
43169,-100,4,1,0,50,0,0
43714,-100,4,1,2,50,0,0
44078,-100,4,1,1,30,0,0
44260,-100,4,2,1,70,0,0
44442,-100,4,2,1,50,0,0
45169,-100,4,1,0,70,0,0
47351,-100,4,1,0,50,0,0
48078,-100,4,1,0,50,0,0
62623,-100,4,1,3,60,0,0
72805,-100,4,1,0,50,0,1
73533,-100,4,3,0,70,0,1
73896,-100,4,3,0,70,0,1
74260,-100,4,2,1,70,0,0
74987,-100,4,1,1,60,0,0
75169,-100,4,2,1,70,0,0
75351,-100,4,1,1,60,0,0
75442,-100,4,3,1,60,0,0
75533,-100,4,1,1,60,0,0
75714,-133.333333333333,4,1,0,50,0,0
76805,-100,4,1,0,50,0,0
77169,-100,4,2,1,70,0,0
77896,-100,4,1,1,60,0,0
77987,-100,4,2,1,70,0,0
78078,-100,4,1,1,70,0,0
78623,-100,4,1,1,100,0,0
78805,-100,4,1,0,60,0,0
78987,-100,4,1,2,50,0,0
79169,-100,4,1,0,60,0,0
79351,-100,4,1,2,50,0,0
79533,-100,4,1,0,60,0,0
79714,-100,4,1,2,50,0,0
79805,-100,4,1,0,70,0,0
80078,-100,4,2,1,70,0,0
80805,-100,4,1,1,70,0,0
80896,-100,4,2,1,70,0,0
81078,-100,4,1,1,70,0,0
81533,-76.9230769230769,4,1,0,70,0,0
82623,-76.9230769230769,4,1,0,55,0,0
82987,-100,4,2,1,70,0,0
83169,-100,4,1,1,70,0,0
83260,-100,4,2,1,70,0,0
83533,-100,4,2,1,70,0,0
83714,-100,4,2,1,70,0,0
83896,-100,4,1,1,70,0,0
83987,-100,4,2,1,70,0,0
84260,-100,4,2,1,70,0,0
84442,-100,4,1,1,70,0,0
84533,-100,4,2,1,70,0,0
84714,-100,4,1,1,70,0,0
84805,-100,4,2,1,70,0,0
85623,-100,4,2,1,70,0,0
85714,-100,4,2,2,40,0,0
85896,-100,4,2,0,100,0,0
86987,-100,4,1,0,80,0,1
87260,-100,4,2,1,50,0,0
87351,-83.3333333333333,4,1,1,60,0,1
87623,-83.3333333333333,4,2,1,90,0,1
87896,-83.3333333333333,4,1,1,60,0,1
88260,-83.3333333333333,4,2,1,90,0,1
88442,-83.3333333333333,4,1,1,60,0,1
89351,-83.3333333333333,4,1,1,60,0,1
89896,-83.3333333333333,4,3,0,50,0,1
89987,-83.3333333333333,4,2,1,90,0,1
90260,-83.3333333333333,4,1,1,70,0,1
90805,-83.3333333333333,4,2,1,90,0,1
90987,-83.3333333333333,4,1,1,70,0,1
91169,-83.3333333333333,4,2,1,90,0,1
91351,-83.3333333333333,4,1,1,80,0,1
91714,-83.3333333333333,4,1,1,70,0,1
92442,-83.3333333333333,4,2,1,90,0,1
92714,-83.3333333333333,4,1,1,70,0,1
93169,-83.3333333333333,4,1,1,40,0,1
93442,-83.3333333333333,4,1,1,70,0,1
94078,-83.3333333333333,4,2,1,90,0,1
94260,-83.3333333333333,4,1,1,70,0,1
94533,-83.3333333333333,4,2,1,90,0,1
94623,-83.3333333333333,4,1,1,70,0,1
94896,-83.3333333333333,4,2,1,90,0,1
95169,-83.3333333333333,4,1,1,70,0,1
95714,-83.3333333333333,4,2,1,90,0,1
95987,-83.3333333333333,4,1,2,40,0,1
96078,-83.3333333333333,4,2,1,90,0,1
96623,-83.3333333333333,4,1,1,70,0,1
96987,-83.3333333333333,4,2,1,90,0,1
97533,-83.3333333333333,4,1,1,70,0,1
98260,-83.3333333333333,4,2,1,90,0,1
98533,-83.3333333333333,4,1,1,70,0,1
98896,-83.3333333333333,4,1,1,70,0,0
98987,-83.3333333333333,4,1,1,60,0,1
99169,-83.3333333333333,4,2,1,90,0,1
99533,-83.3333333333333,4,1,1,70,0,1
99714,-83.3333333333333,4,2,1,90,0,1
99896,-83.3333333333333,4,1,1,70,0,1
100078,-83.3333333333333,4,2,1,90,0,1
100442,-83.3333333333333,4,1,1,70,0,1
101169,-83.3333333333333,4,2,1,90,0,1
101351,-83.3333333333333,4,1,1,70,0,1
101805,-83.3333333333333,4,2,1,90,0,1
101896,-83.3333333333333,4,1,1,70,0,1
102623,-83.3333333333333,4,2,1,90,0,1
102805,-83.3333333333333,4,1,1,70,0,1
102987,-83.3333333333333,4,2,1,90,0,1
103351,-83.3333333333333,4,1,1,70,0,1
104078,-83.3333333333333,4,2,1,90,0,1
104351,-83.3333333333333,4,1,1,70,0,1
105169,-83.3333333333333,4,1,1,50,0,1
105351,-83.3333333333333,4,1,1,70,0,1
105896,-83.3333333333333,4,1,1,50,0,1
106260,-83.3333333333333,4,1,1,70,0,1
106623,-83.3333333333333,4,1,1,50,0,1
106805,-83.3333333333333,4,1,1,70,0,1
107351,-83.3333333333333,4,1,1,50,0,1
107714,-83.3333333333333,4,1,1,70,0,1
109169,-83.3333333333333,4,1,0,70,0,1
109442,-83.3333333333333,4,1,0,70,0,1
109714,-83.3333333333333,4,1,0,70,0,1
109987,-83.3333333333333,4,1,0,70,0,1
110623,-83.3333333333333,4,1,0,70,0,0

[Colours]
Combo1 : 0,94,187
Combo2 : 103,103,182
Combo3 : 170,0,170
Combo4 : 170,0,0
Combo5 : 102,51,51

[HitObjects]
200,56,1533,6,0,L|216:140,1,63.7500024318696,2|2,0:0|0:0,0:0:0:0:
256,180,1896,2,0,P|192:196|140:136,1,127.500004863739,8|2,0:0|0:0,0:0:0:0:
104,96,2442,2,0,P|72:144|96:216,1,127.500004863739,2|0,0:0|0:0,0:0:0:0:
152,276,2987,2,0,B|208:296|208:296|260:280|260:280|328:296,1,170,0|10,0:0|0:0,0:0:0:0:
420,220,3987,1,10,0:0:0:0:
360,108,4260,1,10,0:0:0:0:
256,180,4442,6,0,P|168:160|164:80,2,165.749992412567,2|0|0,0:0|0:0|0:0,0:0:0:0:
412,104,5896,2,0,L|432:276,1,165.749992412567,2|2,0:0|0:0,0:0:0:0:
340,204,6805,2,0,L|356:328,1,110.499994941712,0|2,0:0|0:0,0:0:0:0:
308,344,7351,2,0,P|252:304|204:328,1,110.499994941712,2|0,0:0|0:0,0:0:0:0:
168,344,7896,1,0,0:0:0:0:
168,344,8623,6,0,B|116:368|116:368|60:352|60:352|32:304|32:304|44:248|44:248|84:212,1,276.249987354279,2|2,0:0|0:0,0:0:0:0:
148,128,9896,2,0,P|151:157|180:184,1,55.2499974708558
240,192,10260,6,0,P|308:204|360:116,2,165.749992412568,2|0|2,0:0|0:0|0:0,0:0:0:0:
148,252,11714,2,0,P|108:195|9:220,2,165.749992412568,0|2|2,0:0|0:0|0:0,0:0:0:0:
244,308,13169,5,0,0:0:0:0:
256,192,13260,12,0,15351,0:0:0:0:
192,64,16078,6,0,P|212:116|148:160,2,127.5,12|2|2,0:0|0:0|0:0,0:0:0:0:
72,128,16805,2,0,B|56:168|56:168|88:232,1,85,2|2,0:0|0:0,0:0:0:0:
160,264,17169,1,2,0:0:0:0:
160,264,17260,2,0,P|104:308|68:300,1,85,2|2,0:0|0:0,0:0:0:0:
40,240,17533,6,0,B|12:164|12:164|96:168,2,127.5,8|8|8,0:0|0:0|0:0,0:0:0:0:
155,359,18260,2,0,B|172:276,1,85,8|2,0:0|0:0,0:0:0:0:
272,272,18623,2,0,P|257:211|203:181,1,127.5,2|2,0:0|0:0,0:0:0:0:
168,120,18987,6,0,B|200:104|240:116|240:116|220:44,2,127.5,10|10|10,0:0|0:0|0:0,0:0:0:0:
84,48,19714,1,2,0:0:0:0:
68,68,19805,2,0,P|48:116|56:156,1,85,10|2,0:0|0:0,0:0:0:0:
88,224,20078,2,0,P|105:284|80:342,1,127.5,10|2,0:0|0:0,0:0:0:0:
80,341,20442,6,0,P|136:314|174:327,1,85
188,296,20714,2,0,P|252:328|320:288,1,127.5
376,216,21169,1,10,0:0:0:0:
376,216,21260,1,10,0:0:0:0:
268,116,21442,2,0,L|252:280,1,127.5,8|0,0:0|0:0,0:0:0:0:
224,348,21896,6,0,L|320:332,1,85,4|8,0:0|0:0,0:0:0:0:
476,304,22260,2,0,L|380:288,1,85,4|8,0:0|0:0,0:0:0:0:
312,240,22623,1,0,0:0:0:0:
340,96,22805,1,0,0:0:0:0:
440,200,22987,1,8,0:0:0:0:
432,208,23351,5,4,0:0:0:0:
360,176,23533,1,0,0:0:0:0:
332,300,23714,5,12,0:0:0:0:
260,268,23896,1,0,0:0:0:0:
284,144,24078,6,0,P|232:136|184:160,1,85,8|8,0:0|0:0,0:0:0:0:
120,208,24442,2,0,P|68:216|20:192,1,85,4|8,0:0|0:0,0:0:0:0:
80,84,24805,6,0,L|136:100,3,42.5,4|0|0|0,0:0|0:0|0:0|0:0,0:0:0:0:
172,100,25169,2,0,L|212:88,3,42.5,4|0|0|0,0:0|0:0|0:0|0:0,0:0:0:0:
264,92,25533,2,0,P|271:120|268:144,3,42.5,4|0|0|0,0:0|0:0|0:0|0:0,0:0:0:0:
308,168,25896,2,0,P|306:205|324:228,3,42.5,4|0|0|0,0:0|0:0|0:0|0:0,0:0:0:0:
336,252,26260,6,0,B|276:228|276:228|236:292|156:276,1,170,0|2,0:0|0:0,0:0:0:0:
88,264,26805,1,0,0:0:0:0:
108,164,26987,2,0,P|158:168|200:148,1,85,6|0,0:0|0:0,0:0:0:0:
264,92,27351,2,0,L|248:-4,1,85,6|2,0:0|0:0,0:0:0:0:
352,24,27714,6,0,B|340:76|340:76|352:104|352:104|328:216,1,170,4|2,0:0|0:0,0:0:0:0:
396,268,28260,2,0,P|376:284|304:284,1,85,2|2,0:0|0:0,0:0:0:0:
240,228,28623,6,0,L|80:260,1,127.5,2|2,0:0|0:0,0:0:0:0:
36,120,29169,1,8,0:0:0:0:
164,36,29442,2,0,P|208:72|288:24,1,127.5,8|0,0:0|0:0,0:0:0:0:
352,116,29896,2,0,P|396:112|432:72,2,85,2|2|8,0:0|0:0|0:0,0:0:0:0:
256,152,30442,1,0,0:0:0:0:
292,248,30623,6,0,B|316:352|316:352|256:348,1,127.5,4|4,0:0|0:0,0:0:0:0:
164,356,31078,2,0,P|158:328|196:244,1,85,4|0,0:0|0:0,0:0:0:0:
208,200,31351,6,0,P|220:172|200:116,2,56.6666666666667,2|2|2,0:0|0:0|0:0,0:0:0:0:
132,204,31714,2,0,P|80:212|40:128,1,127.5,2|0,0:0|0:0,0:0:0:0:
36,160,32078,5,8,0:0:0:0:
264,96,32805,1,8,0:0:0:0:
104,108,33169,5,2,0:0:0:0:
188,148,33351,1,2,0:0:0:0:
264,96,33533,6,0,B|280:92|280:92|288:104|288:104|300:96|300:96|448:104,1,170,4|2,0:0|0:0,0:0:0:0:
480,168,34078,1,2,0:0:0:0:
424,232,34260,2,0,L|432:296,2,56.6666666666667,8|0|2,0:0|0:0|0:0,0:0:0:0:
336,172,34623,2,0,L|328:108,2,56.6666666666667,8|0|2,0:0|0:0|0:0,0:0:0:0:
256,240,34987,6,0,L|264:304,2,56.6666666666667,8|8|8,0:0|0:0|0:0,0:0:0:0:
168,180,35350,2,0,L|160:116,2,56.6666666666667,2|2|2,0:0|0:0|0:0,0:0:0:0:
120,272,35714,6,0,L|132:376,1,85,0|2,0:0|0:0,0:0:0:0:
24,316,36078,2,0,L|36:264,2,42.5,2|0|0,0:0|0:0|0:0,0:0:0:0:
24,184,36442,6,0,P|52:160|124:176,1,85,0|2,0:0|0:0,0:0:0:0:
168,216,36805,2,0,P|220:272|280:244,1,127.5
292,232,37169,2,0,B|296:192|296:192|280:140|280:140|284:80,2,127.5,2|2|2,0:0|0:0|0:0,0:0:0:0:
332,324,37896,2,0,P|376:356|424:344,1,85,2|0,0:0|0:0,0:0:0:0:
476,152,38442,1,0,0:0:0:0:
464,236,38623,6,0,P|436:268|364:264,1,85
308,240,38987,2,8,L|296:180,3,42.5,8|8|8|8,0:0|0:0|0:0|0:0,0:0:0:0:
292,160,40078,5,2,0:0:0:0:
144,244,40320,1,2,0:0:0:0:
144,72,40563,1,2,0:0:0:0:
200,152,40805,6,0,P|236:88|336:84,1,170,8|8,0:0|0:0,0:0:0:0:
380,156,41351,1,0,0:0:0:0:
316,284,41533,2,0,L|292:156,2,127.5,10|10|0,0:0|0:0|0:0,0:0:0:0:
384,360,42260,6,0,L|480:372,2,85,2|10|2,0:0|0:0|0:0,0:0:0:0:
252,360,42805,2,0,L|156:348,1,85,8|2,0:0|0:0,0:0:0:0:
84,328,43169,5,2,0:0:0:0:
100,200,43351,1,2,0:0:0:0:
204,276,43533,1,2,0:0:0:0:
260,216,43714,6,0,P|288:158|216:68,1,170,2|4,0:0|0:0,0:0:0:0:
152,84,44260,1,2,0:0:0:0:
204,152,44442,2,0,L|396:168,2,170,6|6|4,0:0|0:0|0:0,0:0:0:0:
136,200,45351,6,0,P|96:224|40:188,1,85,0|2,0:0|0:0,0:0:0:0:
16,144,45714,1,0,0:0:0:0:
56,68,45896,2,0,P|96:44|152:80,1,85
196,136,46260,2,0,P|236:160|292:124,1,85,2|0,0:0|0:0,0:0:0:0:
372,128,46623,6,0,P|396:88|360:32,2,85,0|0|2,0:0|0:0|0:0,0:0:0:0:
308,196,47169,1,0,0:0:0:0:
352,280,47351,2,0,L|208:300,2,127.5,2|2|2,0:0|0:0|0:0,0:0:0:0:
420,344,48078,5,2,0:0:0:0:
328,360,48260,1,2,0:0:0:0:
412,320,48442,1,2,0:0:0:0:
340,380,48623,1,2,0:0:0:0:
296,296,48805,6,2,L|292:180,1,85
188,124,49169,2,2,L|192:240,1,85
192,304,49533,6,0,P|160:332|88:312,1,85,2|2,0:0|0:0,0:0:0:0:
28,244,49896,2,0,P|60:216|132:236,1,85,2|2,0:0|0:0,0:0:0:0:
196,220,50260,6,2,P|228:248|300:228,1,85,2|2,0:0|0:0,0:0:0:0:
308,148,50623,2,0,P|276:120|204:140,1,85,2|2,0:0|0:0,0:0:0:0:
136,168,50987,5,6,0:0:0:0:
80,212,62623,6,0,L|96:320,2,85,8|8|2,0:0|0:0|0:0,0:0:0:0:
124,120,63169,1,8,0:0:0:0:
224,148,63351,2,0,P|240:176|200:244,1,85,8|2,0:0|0:0,0:0:0:0:
184,308,63714,2,0,P|212:324|280:284,1,85,8|8,0:0|0:0,0:0:0:0:
340,364,64078,6,0,L|484:348,2,127.5,8|2|2,0:0|0:0|0:0,0:0:0:0:
356,272,64805,2,0,B|408:256|408:256|444:264,1,85,8|8,0:0|0:0,0:0:0:0:
348,168,65169,2,0,B|296:184|296:184|260:176,1,85,2|8,0:0|0:0,0:0:0:0:
216,252,65533,6,0,P|156:236|140:156,2,127.5,8|2|2,0:0|0:0|0:0,0:0:0:0:
296,204,66260,2,0,B|308:104|308:104|272:140|216:116,1,170,8|2,0:0|0:0,0:0:0:0:
164,80,66805,1,8,0:0:0:0:
252,44,66987,6,0,P|328:20|380:72,2,127.5,8|2|8,0:0|0:0|0:0,0:0:0:0:
220,136,67714,2,0,P|144:156|116:136,1,85,8|8,0:0|0:0,0:0:0:0:
52,138,68078,2,0,P|49:180|72:216,1,85,2|8,0:0|0:0,0:0:0:0:
168,300,68442,5,8,0:0:0:0:
244,340,68623,1,8,0:0:0:0:
320,300,68805,1,2,0:0:0:0:
336,216,68987,1,8,0:0:0:0:
264,168,69169,2,0,P|180:148|188:72,1,170,8|2,0:0|0:0,0:0:0:0:
260,20,69714,1,8,0:0:0:0:
348,52,69896,6,0,L|352:180,2,127.5,8|2|2,0:0|0:0|0:0,0:0:0:0:
436,24,70623,1,8,0:0:0:0:
496,96,70805,1,8,0:0:0:0:
432,164,70987,1,2,0:0:0:0:
492,236,71169,1,8,0:0:0:0:
440,312,71351,6,8,L|384:324,7,42.5,8|8|8|8|10|10|8|8,0:0|0:0|0:0|0:0|0:0|0:0|0:0|0:0,0:0:0:0:
348,320,72078,2,0,L|306:311,7,42.5,8|8|8|8|2|2|8|8,0:0|0:0|0:0|0:0|0:0|0:0|0:0|0:0,0:0:0:0:
260,332,72805,6,0,P|160:316|180:172,1,255
256,140,73533,2,0,P|320:164|376:160,1,85
372,76,73896,1,0,0:0:0:0:
372,76,74260,6,0,P|303:68|260:16,2,127.5,10|10|10,0:0|0:0|0:0,0:0:0:0:
424,144,74987,2,0,P|436:192|408:248,1,85,8|10,0:0|0:0,0:0:0:0:
344,272,75351,2,0,L|360:344,3,42.5,8|2|0|0,0:0|0:0|0:0|0:0,0:0:0:0:
336,344,75714,6,0,B|280:356|280:356|200:348|200:348|128:368,2,191.250007295609,10|10|10,3:0|0:3|3:0,0:0:0:0:
228,168,77169,6,0,B|316:152|316:152|352:104,2,127.5,10|10|10,0:0|0:0|0:0,0:0:0:0:
160,244,77896,2,0,P|128:268|68:248,1,85,2|2,0:0|0:0,0:0:0:0:
28,188,78260,1,0,0:0:0:0:
52,96,78442,1,0,0:0:0:0:
144,96,78623,6,0,P|191:103|240:72,1,85,8|2,0:0|0:0,0:0:0:0:
212,180,78987,2,0,P|240:218|296:230,1,85,8|2,0:0|0:0,0:0:0:0:
188,272,79351,2,0,P|180:319|212:368,1,85,8|2,0:0|0:0,0:0:0:0:
108,320,79714,2,0,P|92:332|80:368,3,42.5,2|0|0|0,0:0|0:0|0:0|0:0,0:0:0:0:
72,376,80078,6,0,P|24:304|40:248,2,127.5,10|10|10,0:0|0:0|0:0,0:0:0:0:
136,308,80805,1,8,0:0:0:0:
224,336,80987,1,2,0:0:0:0:
300,280,81169,2,0,P|348:293|396:268,1,85,8|8,0:0|0:0,0:0:0:0:
452,168,81533,6,0,B|440:176|440:176|424:164|424:164|412:208|412:208|372:192|340:212|340:212|316:192|292:196,4,165.749992412568,2|2|2|2|2,0:0|0:0|0:0|0:0|0:0,0:0:0:0:
484,52,82805,1,2,0:0:0:0:
376,24,82987,6,0,P|332:64|292:56,1,85,2|0,0:0|0:0,0:0:0:0:
284,88,83260,2,0,P|224:85|192:4,1,127.5,2|10,0:0|0:0,0:0:0:0:
104,124,83714,6,0,L|120:236,1,85,10|0,0:0|0:0,0:0:0:0:
140,236,83987,2,0,P|144:300|84:328,1,127.5,10|10,0:0|0:0,0:0:0:0:
200,296,84442,5,8,0:0:0:0:
208,312,84533,2,0,L|308:328,1,85,2|0,0:0|0:0,0:0:0:0:
320,328,84805,2,0,P|368:324|396:268,1,85,10|10,0:0|0:0,0:0:0:0:
312,220,85169,2,0,L|292:168,1,42.5,10|10,0:0|0:0,0:0:0:0:
204,116,85442,1,8,0:0:0:0:
136,204,85623,1,2,0:0:0:0:
136,204,85714,1,2,0:0:0:0:
136,204,85805,1,2,0:0:0:0:
136,204,85896,6,2,L|424:232,1,255,2|2,0:0|0:0,0:0:0:0:
388,216,86987,6,2,P|364:136|320:132,1,127.5,2|0,0:0|0:0,0:0:0:0:
248,104,87351,6,0,P|276:64|392:72,2,152.999995330811,12|10|8,0:0|0:0|0:0,0:0:0:0:
192,200,88078,2,0,B|184:236|184:236|212:312,1,101.999996887207,8|2,0:0|0:0,0:0:0:0:
112,360,88442,2,0,L|52:196,1,152.999995330811,8|8,0:0|0:0,0:0:0:0:
44,172,88805,6,0,P|36:112|108:40,2,152.999995330811,8|8|8,0:0|0:0|0:0,0:0:0:0:
148,132,89533,2,0,P|196:116|260:164,1,101.999996887207,8|0,0:0|0:0,0:0:0:0:
192,248,89896,2,0,P|196:292|296:332,1,152.999995330811,10|2,0:0|0:0,0:0:0:0:
312,332,90260,6,0,B|358:324|392:300|392:300|468:340,2,152.999995330811,8|8|10,0:0|0:0|0:0,0:0:0:0:
312,220,90987,2,0,P|352:188|428:220,1,101.999996887207,8|10,0:0|0:0,0:0:0:0:
448,92,91351,2,0,P|340:68|272:108,1,152.999995330811,8|8,0:0|0:0,0:0:0:0:
272,116,91714,6,8,P|224:156|124:116,2,152.999995330811
372,192,92442,2,0,B|348:364,2,152.999995330811,8|8|0,0:0|0:0|0:0,0:0:0:0:
264,136,93169,6,0,P|236:124|240:4,2,152.999995330811,12|8|8,0:0|0:0|0:0,0:0:0:0:
364,204,93896,2,0,B|384:148|384:148|380:80,1,101.999996887207,8|2,0:0|0:0,0:0:0:0:
488,164,94260,2,0,B|468:224|468:224|472:360,1,152.999995330811,8|8,0:0|0:0,0:0:0:0:
420,344,94623,6,0,P|347:357|288:308,2,152.999995330811,8|10|8,0:0|0:0|0:0,0:0:0:0:
380,228,95351,2,0,P|411:189|409:139,1,101.999996887207,8|8,0:0|0:0,0:0:0:0:
300,84,95714,2,0,P|260:136|304:248,1,152.999995330811,10|2,0:0|0:0,0:0:0:0:
240,272,96078,6,0,B|156:244|156:244|132:168,2,152.999995330811,10|10|8,0:0|0:0|0:0,0:0:0:0:
356,236,96805,2,0,L|328:344,1,101.999996887207,8|10,0:0|0:0,0:0:0:0:
452,356,97169,1,10,0:0:0:0:
448,340,97260,2,0,L|476:232,1,101.999996887207,10|8,0:0|0:0,0:0:0:0:
464,228,97533,6,0,P|455:131|388:132,2,152.999995330811,8|8|8,0:0|0:0|0:0,0:0:0:0:
372,312,98260,2,0,L|184:280,2,152.999995330811,10|8|8,0:0|0:0|0:0,0:0:0:0:
444,212,98987,6,0,B|412:176|428:116|428:116|396:144|364:160,2,152.999995330811,4|10|0,0:0|0:0|0:0,0:0:0:0:
376,316,99714,2,0,P|428:340|492:304,2,101.999996887207,8|2|0,0:0|0:0|0:0,0:0:0:0:
236,116,100442,6,0,P|187:179|88:136,2,152.999995330811,8|8|8,0:0|0:0|0:0,0:0:0:0:
324,200,101169,2,0,B|312:252|312:252|336:312,1,101.999996887207,10|2,0:0|0:0,0:0:0:0:
224,360,101533,2,0,B|196:288|196:288|168:336|120:328,1,152.999995330811,8|10,0:0|0:0,0:0:0:0:
76,312,101896,6,0,P|60:260|148:188,2,152.999995330811,8|8|8,0:0|0:0|0:0,0:0:0:0:
184,372,102623,2,0,L|168:248,1,101.999996887207,10|8,0:0|0:0,0:0:0:0:
256,180,102987,2,0,L|280:344,1,152.999995330811,10|10,0:0|0:0,0:0:0:0:
336,344,103351,6,0,P|392:272|344:208,2,152.999995330811,8|8|8,0:0|0:0|0:0,0:0:0:0:
244,320,104078,2,0,B|180:356|180:356|76:340,1,152.999995330811,2|8,0:0|0:0,0:0:0:0:
80,160,104623,1,8,0:0:0:0:
152,224,104805,5,4,0:3:0:0:
236,196,104987,1,4,0:3:0:0:
256,108,105169,1,4,0:1:0:0:
200,36,105351,1,4,0:3:0:0:
108,36,105533,5,4,0:3:0:0:
56,112,105714,1,4,0:3:0:0:
148,128,105896,1,4,0:0:0:0:
148,128,106260,6,0,L|260:112,1,101.999996887207,4|4,0:3|0:3,0:3:0:0:
372,188,106623,2,0,L|260:204,1,101.999996887207,4|4,0:1|0:3,0:3:0:0:
168,300,106987,2,0,L|280:284,1,101.999996887207,4|4,0:3|0:3,0:3:0:0:
392,360,107351,1,4,0:0:0:0:
392,360,107714,6,0,L|408:252,1,101.999996887207,8|0,0:0|0:0,0:0:0:0:
408,224,107987,2,0,P|344:184|356:88,1,152.999995330811,8|0,0:0|0:0,0:0:0:0:
460,52,108442,2,0,P|446:111|392:152,1,101.999996887207
288,196,108805,2,0,L|216:176,3,50.9999984436036,2|0|0|2,0:0|0:0|0:0|0:0,0:0:0:0:
204,208,109169,6,0,P|236:152|220:112,1,101.999996887207,2|0,0:0|0:0,0:0:0:0:
204,68,109442,2,0,P|148:36|108:52,1,101.999996887207,2|0,0:0|0:0,0:0:0:0:
72,84,109714,1,2,0:0:0:0:
40,192,109896,6,0,L|68:240,3,50.9999984436036
68,276,110260,1,0,0:0:0:0:
88,312,110351,1,0,0:0:0:0:
128,324,110442,1,0,0:0:0:0:
164,308,110533,1,0,0:0:0:0:
184,272,110623,5,4,0:0:0:0:
