osu file format v14

[General]
AudioFilename: audio.mp3
AudioLeadIn: 0
PreviewTime: 49089
Countdown: 0
SampleSet: Drum
StackLeniency: 1
Mode: 3
LetterboxInBreaks: 0
SpecialStyle: 0
WidescreenStoryboard: 1

[Editor]
DistanceSpacing: 1.3
BeatDivisor: 3
GridSize: 32
TimelineZoom: 1.1

[Metadata]
Title:Katsubou no Dilemma
TitleUnicode:渇望のジレンマ
Artist:EARPHONES
ArtistUnicode:イヤホンズ
Creator:Feerum
Version:Normal
Source:神獄塔 メアリスケルターFinale
Tags:Mary Skelter: Finale Skelter compile heart nintendo playstation playstation4 ps4 video game japanese pop jpop j-pop
BeatmapID:2498211
BeatmapSetID:1199649

[Difficulty]
HPDrainRate:7.5
CircleSize:4
OverallDifficulty:7.5
ApproachRate:10
SliderMultiplier:1.4
SliderTickRate:1

[Events]
//Background and Video events
Video,-1378,"video.mp4"
0,0,"BG.jpg",0,0
//Break Periods
//Storyboard Layer 0 (Background)
//Storyboard Layer 1 (Fail)
//Storyboard Layer 2 (Pass)
//Storyboard Layer 3 (Foreground)
//Storyboard Layer 4 (Overlay)
//Storyboard Sound Samples

[TimingPoints]
42,422.535211267606,4,3,1,45,1,0
42,-80,4,3,1,45,0,0
6802,338.983050847458,4,3,1,60,1,0
8496,331.491712707183,4,3,1,60,1,8
8496,-102.040816326531,4,3,1,60,0,8
9490,377.358490566038,4,3,1,60,1,0
9490,-90.0900900900901,4,3,1,60,0,0
9682,342.857142857143,4,3,1,60,1,8
9682,-99.009900990099,4,3,1,60,0,8
10191,338.983050847458,4,3,1,60,1,8
12244,327.868852459016,4,3,1,60,1,8
12244,-103.092783505155,4,3,1,60,0,8
12899,338.983050847458,4,3,1,60,1,8
12899,-100,4,3,1,60,0,8
13600,338.028169014084,4,3,1,60,1,0
13600,-100,4,3,1,60,0,0
16301,338.983050847458,4,3,1,60,1,8
16971,338.983050847458,4,3,1,60,1,0
49513,-100,4,3,1,60,0,1
71208,-100,4,3,1,60,0,0
74593,338.983050847458,4,3,1,60,1,0

[HitObjects]
192,192,42,5,0,0:0:0:0:
320,192,253,1,0,0:0:0:0:
448,192,464,1,0,0:0:0:0:
192,192,887,1,0,0:0:0:0:
64,192,1732,1,0,0:0:0:0:
192,192,1943,1,0,0:0:0:0:
320,192,2154,1,0,0:0:0:0:
64,192,2577,1,0,0:0:0:0:
192,192,3422,1,0,0:0:0:0:
320,192,3633,1,0,0:0:0:0:
448,192,3844,1,0,0:0:0:0:
64,192,4267,1,0,0:0:0:0:
192,192,4478,1,0,0:0:0:0:
320,192,4689,1,0,0:0:0:0:
448,192,4901,1,0,0:0:0:0:
320,192,5112,1,0,0:0:0:0:
64,192,5534,1,0,0:0:0:0:
320,192,5957,1,0,0:0:0:0:
64,192,6802,1,2,0:0:0:0:
448,192,6802,1,4,0:0:0:0:
192,192,7140,1,8,0:0:0:0:
448,192,7310,1,2,0:0:0:0:
64,192,7649,1,8,0:0:0:0:
320,192,7818,1,2,0:0:0:0:
448,192,8157,1,8,0:0:0:0:
192,192,8327,1,2,0:0:0:0:
64,192,8661,1,8,0:0:0:0:
320,192,8827,1,2,0:0:0:0:
448,192,9158,1,2,0:0:0:0:
320,192,9490,1,4,0:0:0:0:
64,192,9490,1,2,0:0:0:0:
320,192,9853,1,8,0:0:0:0:
64,192,10024,1,2,0:0:0:0:
448,192,10360,1,8,0:0:0:0:
192,192,10529,1,2,0:0:0:0:
64,192,10868,1,8,0:0:0:0:
320,192,11038,1,2,0:0:0:0:
192,192,11377,1,8,0:0:0:0:
448,192,11546,1,2,0:0:0:0:
64,192,11885,1,2,0:0:0:0:
320,192,12244,1,2,0:0:0:0:
448,192,12244,1,4,0:0:0:0:
64,192,12462,1,8,0:0:0:0:
192,192,12681,1,8,0:0:0:0:
320,192,12899,1,4,0:0:0:0:
64,192,12899,1,2,0:0:0:0:
448,192,13124,1,8,0:0:0:0:
320,192,13350,1,8,0:0:0:0:
64,192,13600,1,2,0:0:0:0:
192,192,13600,1,4,0:0:0:0:
320,192,13825,1,8,0:0:0:0:
192,192,14050,1,8,0:0:0:0:
64,192,14276,128,4,16301:0:0:0:0:
448,192,14276,1,2,0:0:0:0:
448,192,16301,1,8,0:0:0:0:
320,192,16470,1,8,0:0:0:0:
192,192,16639,1,8,0:0:0:0:
64,192,16809,1,8,0:0:0:0:
448,192,16971,1,4,0:0:0:0:
320,192,16971,1,2,0:0:0:0:
192,192,17309,1,0,0:0:0:0:
64,192,17309,1,8,0:0:0:0:
448,192,17648,1,2,0:0:0:0:
320,192,17818,1,2,0:0:0:0:
192,192,17987,1,8,0:0:0:0:
448,192,18326,1,2,0:0:0:0:
64,192,18665,1,8,0:0:0:0:
320,192,18665,1,0,0:0:0:0:
192,192,19004,1,2,0:0:0:0:
320,192,19174,1,2,0:0:0:0:
448,192,19343,1,8,0:0:0:0:
192,192,19682,1,2,0:0:0:0:
64,192,20021,1,8,0:0:0:0:
448,192,20021,1,0,0:0:0:0:
320,192,20360,1,2,0:0:0:0:
192,192,20530,1,2,0:0:0:0:
448,192,20699,1,8,0:0:0:0:
64,192,21038,1,2,0:0:0:0:
320,192,21377,1,0,0:0:0:0:
448,192,21377,1,8,0:0:0:0:
192,192,21716,1,2,0:0:0:0:
64,192,21886,1,2,0:0:0:0:
448,192,22055,1,8,0:0:0:0:
320,192,22394,1,2,0:0:0:0:
192,192,22733,1,0,0:0:0:0:
64,192,22733,1,8,0:0:0:0:
448,192,23072,1,2,0:0:0:0:
64,192,23242,1,2,0:0:0:0:
320,192,23411,1,8,0:0:0:0:
192,192,23750,1,2,0:0:0:0:
320,192,24089,1,8,0:0:0:0:
448,192,24089,1,0,0:0:0:0:
64,192,24428,1,2,0:0:0:0:
320,192,24598,1,2,0:0:0:0:
192,192,24767,1,8,0:0:0:0:
448,192,25106,1,2,0:0:0:0:
320,192,25445,1,0,0:0:0:0:
64,192,25445,1,8,0:0:0:0:
192,192,25784,1,2,0:0:0:0:
320,192,25954,1,2,0:0:0:0:
448,192,26123,1,8,0:0:0:0:
64,192,26462,1,2,0:0:0:0:
192,192,26632,1,2,0:0:0:0:
320,192,26801,1,8,0:0:0:0:
64,192,26971,1,2,0:0:0:0:
448,192,27140,1,2,0:0:0:0:
320,192,27309,1,2,0:0:0:0:
192,192,27479,1,8,0:0:0:0:
320,192,27648,1,8,0:0:0:0:
448,192,27818,1,4,0:0:0:0:
64,192,27818,1,2,0:0:0:0:
192,192,28157,1,0,0:0:0:0:
320,192,28157,1,8,0:0:0:0:
448,192,28496,1,2,0:0:0:0:
320,192,28665,1,2,0:0:0:0:
64,192,28835,1,8,0:0:0:0:
192,192,29174,1,2,0:0:0:0:
320,192,29513,1,0,0:0:0:0:
448,192,29513,1,8,0:0:0:0:
64,192,29852,1,2,0:0:0:0:
192,192,30021,1,2,0:0:0:0:
448,192,30191,1,8,0:0:0:0:
320,192,30530,1,2,0:0:0:0:
64,192,30869,1,8,0:0:0:0:
448,192,30869,1,0,0:0:0:0:
192,192,31208,1,2,0:0:0:0:
64,192,31377,1,2,0:0:0:0:
320,192,31547,1,8,0:0:0:0:
192,192,31886,1,2,0:0:0:0:
448,192,32225,1,0,0:0:0:0:
320,192,32225,1,8,0:0:0:0:
64,192,32564,1,2,0:0:0:0:
448,192,32733,1,2,0:0:0:0:
192,192,32903,1,8,0:0:0:0:
320,192,33242,1,4,0:0:0:0:
64,192,33242,1,2,0:0:0:0:
448,192,33581,1,8,0:0:0:0:
192,192,33920,1,2,0:0:0:0:
320,192,34089,1,2,0:0:0:0:
64,192,34259,1,8,0:0:0:0:
192,192,34598,1,2,0:0:0:0:
320,192,34937,1,8,0:0:0:0:
64,192,34937,1,0,0:0:0:0:
448,192,35276,1,2,0:0:0:0:
64,192,35445,1,2,0:0:0:0:
320,192,35615,1,8,0:0:0:0:
192,192,35954,1,2,0:0:0:0:
64,192,36293,1,8,0:0:0:0:
448,192,36632,1,2,0:0:0:0:
320,192,36801,1,2,0:0:0:0:
192,192,36971,1,8,0:0:0:0:
64,192,37309,1,8,0:0:0:0:
192,192,37479,1,8,0:0:0:0:
320,192,37648,1,8,0:0:0:0:
64,192,37818,1,8,0:0:0:0:
448,192,37987,128,4,38326:0:0:0:0:
192,192,37987,1,2,0:0:0:0:
192,192,38326,128,4,38665:0:0:0:0:
64,192,38326,1,2,0:0:0:0:
320,192,38665,1,2,0:0:0:0:
448,192,38665,128,4,39004:0:0:0:0:
64,192,39004,1,8,0:0:0:0:
192,192,39004,1,0,0:0:0:0:
448,192,39343,1,2,0:0:0:0:
320,192,39513,1,2,0:0:0:0:
192,192,39682,1,8,0:0:0:0:
448,192,39852,1,0,0:0:0:0:
64,192,40021,128,2,40360:0:0:0:0:
320,192,40360,1,8,0:0:0:0:
192,192,40360,1,0,0:0:0:0:
192,192,40699,1,2,0:0:0:0:
64,192,40869,1,2,0:0:0:0:
448,192,41038,1,8,0:0:0:0:
320,192,41208,1,0,0:0:0:0:
192,192,41377,128,2,41716:0:0:0:0:
448,192,41716,1,8,0:0:0:0:
64,192,41716,1,0,0:0:0:0:
64,192,42055,1,2,0:0:0:0:
192,192,42225,1,2,0:0:0:0:
320,192,42394,1,8,0:0:0:0:
64,192,42564,1,0,0:0:0:0:
448,192,42733,128,2,43072:0:0:0:0:
64,192,43072,128,4,43411:0:0:0:0:
320,192,43072,1,8,0:0:0:0:
192,192,43411,128,4,43750:0:0:0:0:
448,192,43411,1,2,0:0:0:0:
320,192,43750,128,8,44089:0:0:0:0:
64,192,43750,1,4,0:0:0:0:
192,192,44089,1,2,0:0:0:0:
448,192,44089,128,4,44428:0:0:0:0:
64,192,44428,1,8,0:0:0:0:
320,192,44428,1,0,0:0:0:0:
320,192,44767,1,2,0:0:0:0:
192,192,44937,1,2,0:0:0:0:
64,192,45106,1,8,0:0:0:0:
448,192,45276,1,0,0:0:0:0:
192,192,45445,128,2,45784:0:0:0:0:
320,192,45784,1,8,0:0:0:0:
448,192,45784,1,0,0:0:0:0:
64,192,46123,1,2,0:0:0:0:
192,192,46293,1,8,0:0:0:0:
448,192,46462,1,8,0:0:0:0:
320,192,46632,1,2,0:0:0:0:
64,192,46801,1,4,0:0:0:0:
192,192,46801,128,8,47140:0:0:0:0:
448,192,47140,1,8,0:0:0:0:
320,192,47140,128,0,47479:0:0:0:0:
64,192,47479,1,8,0:0:0:0:
192,192,47479,128,0,47818:0:0:0:0:
448,192,47818,1,8,0:0:0:0:
320,192,47818,128,0,48157:0:0:0:0:
64,192,48157,1,8,0:0:0:0:
192,192,48326,1,2,0:0:0:0:
448,192,48496,1,2,0:0:0:0:
320,192,48665,1,8,0:0:0:0:
64,192,49174,1,8,0:0:0:0:
192,192,49343,1,8,0:0:0:0:
448,192,49513,128,4,49852:0:0:0:0:
320,192,49513,1,2,0:0:0:0:
192,192,49852,1,8,0:0:0:0:
64,192,49852,1,0,0:0:0:0:
320,192,50191,1,2,0:0:0:0:
448,192,50360,1,2,0:0:0:0:
64,192,50530,1,8,0:0:0:0:
192,192,50699,1,0,0:0:0:0:
320,192,50869,128,2,51208:0:0:0:0:
64,192,51208,1,8,0:0:0:0:
448,192,51208,1,0,0:0:0:0:
192,192,51547,1,2,0:0:0:0:
448,192,51716,1,2,0:0:0:0:
320,192,51886,1,8,0:0:0:0:
192,192,52055,1,0,0:0:0:0:
64,192,52225,128,2,52564:0:0:0:0:
448,192,52564,1,0,0:0:0:0:
320,192,52564,1,8,0:0:0:0:
192,192,52733,128,0,52903:0:0:0:0:
448,192,52903,128,2,53072:0:0:0:0:
64,192,53072,128,2,53242:0:0:0:0:
320,192,53242,128,8,53411:0:0:0:0:
448,192,53411,128,0,53581:0:0:0:0:
192,192,53581,128,2,53920:0:0:0:0:
320,192,53920,1,8,0:0:0:0:
448,192,54089,1,8,0:0:0:0:
64,192,54259,1,2,0:0:0:0:
192,192,54428,1,2,0:0:0:0:
320,192,54598,1,8,0:0:0:0:
192,192,54767,1,0,0:0:0:0:
64,192,54937,1,2,0:0:0:0:
448,192,54937,128,4,55276:0:0:0:0:
320,192,55276,1,0,0:0:0:0:
192,192,55276,1,8,0:0:0:0:
64,192,55615,1,2,0:0:0:0:
320,192,55784,1,2,0:0:0:0:
448,192,55954,1,8,0:0:0:0:
192,192,56123,1,0,0:0:0:0:
320,192,56293,128,2,56632:0:0:0:0:
64,192,56632,1,8,0:0:0:0:
192,192,56632,1,0,0:0:0:0:
448,192,56971,1,2,0:0:0:0:
64,192,57140,1,2,0:0:0:0:
320,192,57309,1,8,0:0:0:0:
192,192,57479,1,0,0:0:0:0:
64,192,57648,1,2,0:0:0:0:
448,192,57648,128,4,57818:0:0:0:0:
320,192,57818,128,2,57987:0:0:0:0:
192,192,57987,128,8,58157:0:0:0:0:
64,192,58157,128,0,58326:0:0:0:0:
448,192,58326,1,4,0:0:0:0:
320,192,58326,1,2,0:0:0:0:
192,192,58665,128,8,58835:0:0:0:0:
448,192,58835,128,0,59004:0:0:0:0:
64,192,59004,128,6,59174:0:0:0:0:
320,192,59174,128,2,59343:0:0:0:0:
192,192,59343,128,8,59513:0:0:0:0:
448,192,59513,128,2,59682:0:0:0:0:
320,192,59852,1,2,0:0:0:0:
64,192,60021,1,8,0:0:0:0:
192,192,60191,1,8,0:0:0:0:
320,192,60360,1,2,0:0:0:0:
448,192,60360,128,4,60699:0:0:0:0:
64,192,60699,1,8,0:0:0:0:
192,192,60699,1,0,0:0:0:0:
320,192,61038,1,2,0:0:0:0:
448,192,61208,1,2,0:0:0:0:
64,192,61377,1,8,0:0:0:0:
192,192,61547,1,0,0:0:0:0:
320,192,61716,128,2,62055:0:0:0:0:
64,192,62055,1,8,0:0:0:0:
448,192,62055,1,0,0:0:0:0:
192,192,62394,1,2,0:0:0:0:
64,192,62564,1,2,0:0:0:0:
448,192,62733,1,8,0:0:0:0:
320,192,62903,1,0,0:0:0:0:
192,192,63072,128,2,63411:0:0:0:0:
64,192,63411,1,0,0:0:0:0:
448,192,63411,1,8,0:0:0:0:
320,192,63581,128,0,63750:0:0:0:0:
192,192,63750,128,2,63920:0:0:0:0:
64,192,63920,128,2,64089:0:0:0:0:
448,192,64089,128,8,64259:0:0:0:0:
192,192,64259,128,0,64428:0:0:0:0:
320,192,64428,128,2,64767:0:0:0:0:
448,192,64767,1,8,0:0:0:0:
320,192,64937,1,8,0:0:0:0:
64,192,65106,1,2,0:0:0:0:
192,192,65276,1,2,0:0:0:0:
320,192,65445,1,8,0:0:0:0:
448,192,65615,1,0,0:0:0:0:
64,192,65784,128,2,66123:0:0:0:0:
192,192,65784,1,4,0:0:0:0:
320,192,66123,1,8,0:0:0:0:
448,192,66123,1,0,0:0:0:0:
192,192,66462,1,2,0:0:0:0:
64,192,66632,1,2,0:0:0:0:
448,192,66801,1,8,0:0:0:0:
320,192,66971,1,0,0:0:0:0:
192,192,67140,128,2,67479:0:0:0:0:
448,192,67479,1,8,0:0:0:0:
320,192,67479,1,0,0:0:0:0:
64,192,67818,1,2,0:0:0:0:
448,192,67987,1,2,0:0:0:0:
192,192,68157,1,8,0:0:0:0:
320,192,68326,1,0,0:0:0:0:
448,192,68496,1,4,0:0:0:0:
64,192,68496,128,2,68665:0:0:0:0:
192,192,68665,128,2,68835:0:0:0:0:
320,192,68835,128,8,69004:0:0:0:0:
64,192,69004,128,0,69174:0:0:0:0:
448,192,69174,128,2,69343:0:0:0:0:
192,192,69343,1,2,0:0:0:0:
320,192,69513,128,8,69852:0:0:0:0:
448,192,69852,1,4,0:0:0:0:
64,192,69852,1,2,0:0:0:0:
320,192,70021,1,2,0:0:0:0:
192,192,70191,128,8,70360:0:0:0:0:
448,192,70360,128,2,70699:0:0:0:0:
64,192,70699,1,8,0:0:0:0:
320,192,70869,1,8,0:0:0:0:
192,192,71038,1,8,0:0:0:0:
64,192,71208,1,2,0:0:0:0:
448,192,71208,1,4,0:0:0:0:
192,192,71434,1,8,0:0:0:0:
320,192,71660,1,8,0:0:0:0:
64,192,71886,1,2,0:0:0:0:
448,192,71886,1,4,0:0:0:0:
192,192,72112,1,8,0:0:0:0:
320,192,72338,1,8,0:0:0:0:
64,192,72564,1,2,0:0:0:0:
192,192,72564,1,4,0:0:0:0:
448,192,72790,1,8,0:0:0:0:
64,192,73016,1,8,0:0:0:0:
320,192,73242,1,2,0:0:0:0:
448,192,73242,128,4,73920:0:0:0:0:
64,192,73920,1,8,0:0:0:0:
192,192,74089,1,8,0:0:0:0:
320,192,74259,1,8,0:0:0:0:
448,192,74428,1,8,0:0:0:0:
192,192,74593,1,0,0:0:0:0:
64,192,74593,1,2,0:0:0:0:
320,192,74931,1,0,0:0:0:0:
448,192,74931,1,8,0:0:0:0:
64,192,75270,1,2,0:0:0:0:
320,192,75440,1,2,0:0:0:0:
448,192,75609,128,8,75948:0:0:0:0:
192,192,75609,1,0,0:0:0:0:
320,192,75948,128,2,76287:0:0:0:0:
192,192,76287,128,8,76626:0:0:0:0:
448,192,76287,1,0,0:0:0:0:
64,192,76626,128,2,76965:0:0:0:0:
448,192,76965,128,8,77304:0:0:0:0:
192,192,76965,1,0,0:0:0:0:
320,192,77304,1,2,0:0:0:0:
192,192,77304,128,4,77643:0:0:0:0:
64,192,77643,128,8,77982:0:0:0:0:
448,192,77643,1,0,0:0:0:0:
320,192,77982,128,2,78321:0:0:0:0:
192,192,78321,128,8,78660:0:0:0:0:
64,192,78321,1,0,0:0:0:0:
448,192,78660,128,2,78999:0:0:0:0:
64,192,78999,128,8,79338:0:0:0:0:
320,192,78999,1,0,0:0:0:0:
192,192,79338,128,2,79677:0:0:0:0:
320,192,79677,128,8,80016:0:0:0:0:
448,192,79677,1,0,0:0:0:0:
192,192,80016,1,2,0:0:0:0:
64,192,80016,128,4,80186:0:0:0:0:
448,192,80186,128,2,80355:0:0:0:0:
320,192,80355,128,8,80525:0:0:0:0:
192,192,80525,1,2,0:0:0:0:
448,192,80694,1,8,0:0:0:0:
64,192,80864,1,2,0:0:0:0:
192,192,81033,128,8,81203:0:0:0:0:
320,192,81203,128,2,81372:0:0:0:0:
448,192,81372,128,12,81542:0:0:0:0:
192,192,81542,1,2,0:0:0:0:
64,192,81711,1,8,0:0:0:0:
320,192,81881,1,2,0:0:0:0:
192,192,82050,1,8,0:0:0:0:
448,192,82220,1,2,0:0:0:0:
320,192,82389,128,8,82728:0:0:0:0:
64,192,82728,1,8,0:0:0:0:
192,192,82728,128,4,82898:0:0:0:0:
448,192,82898,128,2,83067:0:0:0:0:
64,192,83067,128,8,83237:0:0:0:0:
192,192,83237,1,2,0:0:0:0:
320,192,83406,1,8,0:0:0:0:
64,192,83576,1,2,0:0:0:0:
448,192,83745,128,12,83915:0:0:0:0:
320,192,83915,128,2,84084:0:0:0:0:
192,192,84084,128,8,84254:0:0:0:0:
448,192,84254,1,0,0:0:0:0:
64,192,84423,1,2,0:0:0:0:
192,192,84593,1,8,0:0:0:0:
320,192,84762,1,2,0:0:0:0:
448,192,84931,1,2,0:0:0:0:
64,192,85101,128,8,85440:0:0:0:0:
320,192,85440,1,4,0:0:0:0:
448,192,85440,1,8,0:0:0:0:
