osu file format v14

[General]
AudioFilename: audio.mp3
AudioLeadIn: 0
PreviewTime: 44044
Countdown: 1
SampleSet: Soft
StackLeniency: 0.7
Mode: 0
LetterboxInBreaks: 0
WidescreenStoryboard: 1

[Editor]
Bookmarks: 78110
DistanceSpacing: 1
BeatDivisor: 4
GridSize: 32
TimelineZoom: 1.1

[Metadata]
Title:Ikken Rakuchaku Goyoujin
TitleUnicode:一件落着ゴ用心
Artist:EARPHONES
ArtistUnicode:イヤホンズ
Creator:Rizia
Version:Insane
Source:AKIBA'S TRIP -THE ANIMATION-
Tags:kawaiwkyik chaoslitz karen Kagamine Ren anime opening op tv size akihabara アキバズトリップ 高橋李依 高野麻里佳 長久友紀 RIE TAKAHASHI YUKI NAGAKU MARIKA KOUNO
BeatmapID:1173612
BeatmapSetID:553570

[Difficulty]
HPDrainRate:6
CircleSize:4
OverallDifficulty:8
ApproachRate:9
SliderMultiplier:1.8
SliderTickRate:1

[Events]
//Background and Video events
0,0,"bg (1).jpg",0,0
Video,0,"optc.flv"
//Break Periods
//Storyboard Layer 0 (Background)
//Storyboard Layer 1 (Fail)
//Storyboard Layer 2 (Pass)
//Storyboard Layer 3 (Foreground)
//Storyboard Sound Samples

[TimingPoints]
804,361.44578313253,4,2,1,50,1,0
2069,-100,4,2,2,50,0,0
2249,-100,4,2,1,50,0,0
3695,-100,4,2,1,50,0,0
5322,-100,4,2,2,50,0,0
6587,-100,4,2,1,50,0,0
12370,-100,4,2,1,40,0,0
12731,-100,4,2,3,40,0,0
12912,-100,4,2,1,40,0,0
13093,-100,4,2,3,40,0,0
13273,-100,4,2,1,40,0,0
13454,-100,4,2,3,40,0,0
13635,-100,4,2,1,40,0,0
13816,-100,4,2,3,40,0,0
13996,-100,4,2,1,40,0,0
14177,-100,4,2,3,40,0,0
14358,-100,4,2,1,40,0,0
14538,-100,4,2,3,40,0,0
14719,-100,4,2,1,40,0,0
14900,-100,4,2,3,40,0,0
15081,-100,4,2,1,40,0,0
15261,-100,4,2,3,40,0,0
15442,-100,4,2,1,40,0,0
15623,-100,4,2,3,40,0,0
15803,-100,4,2,1,40,0,0
15984,-100,4,2,3,40,0,0
16165,-100,4,2,1,40,0,0
16346,-100,4,2,3,40,0,0
16526,-100,4,2,1,40,0,0
16707,-100,4,2,3,40,0,0
16888,-100,4,2,1,40,0,0
17069,-100,4,2,3,40,0,0
17249,-100,4,2,1,40,0,0
17430,-100,4,2,3,40,0,0
17611,-100,4,2,1,40,0,0
17791,-100,4,2,3,40,0,0
17972,-100,4,2,1,40,0,0
18153,-100,4,2,3,40,0,0
18334,-100,4,2,1,40,0,0
18514,-100,4,2,3,40,0,0
18695,-100,4,2,1,40,0,0
18876,-100,4,2,3,40,0,0
19057,-100,4,2,1,40,0,0
19237,-100,4,2,3,40,0,0
19418,-100,4,2,1,40,0,0
19599,-100,4,2,3,40,0,0
19779,-100,4,2,1,40,0,0
19960,-100,4,2,3,40,0,0
20141,-100,4,2,1,40,0,0
20322,-100,4,2,3,40,0,0
20502,-100,4,2,1,40,0,0
20683,-100,4,2,3,40,0,0
20864,-100,4,2,1,40,0,0
21044,-100,4,2,3,40,0,0
21406,-100,4,2,1,40,0,0
21767,-100,4,2,3,40,0,0
21948,-100,4,2,1,40,0,0
22310,-100,4,2,3,40,0,0
22852,-100,4,2,1,40,0,0
23032,-100,4,2,3,40,0,0
23213,-100,4,2,1,40,0,0
23394,-100,4,2,3,40,0,0
23575,-100,4,2,1,40,0,0
23755,-100,4,2,3,40,0,0
24297,-100,4,2,1,40,0,0
24659,-100,4,2,3,40,0,0
26105,-100,4,2,1,40,0,0
26828,-100,4,2,4,40,0,0
35502,-100,4,2,1,40,0,0
41285,-100,4,2,4,40,0,0
45442,-100,4,2,1,50,0,0
45803,-100,4,2,1,60,0,0
47069,-83.3333333333333,4,2,1,70,0,1
77972,-83.3333333333333,4,2,1,50,0,0
78695,-83.3333333333333,4,2,1,70,0,1
86828,-55.5555555555556,4,2,1,70,0,1
87189,-83.3333333333333,4,2,99,30,0,0

[Colours]
Combo1 : 0,128,255
Combo2 : 255,0,0
Combo3 : 255,238,23
Combo4 : 255,128,128

[HitObjects]
116,124,804,6,0,L|154:132,1,22.5,0|0,1:0|0:0,0:0:0:0:
396,192,1346,2,0,L|358:200,1,22.5,0|0,1:0|0:0,0:0:0:0:
152,340,1707,5,2,0:0:0:0:
152,340,1797,1,2,0:0:0:0:
152,340,1888,2,0,L|144:284,1,45,2|0,0:0|0:0,0:0:0:0:
224,156,2069,2,0,L|220:208,1,45
260,312,2249,6,0,L|299:304,1,22.5,0|0,1:0|0:0,0:0:0:0:
22,167,2791,2,0,L|-17:159,1,22.5,0|0,1:0|0:0,0:0:0:0:
412,60,3153,5,2,0:0:0:0:
412,60,3243,1,2,0:0:0:0:
412,60,3334,2,0,L|348:68,1,45,2|0,0:0|0:0,0:0:0:0:
288,132,3514,2,0,L|243:126,1,45
144,92,3695,5,0,0:0:0:0:
144,92,3876,2,0,P|132:44|136:0,2,90,2|0|2,0:0|0:0|0:0,0:0:0:0:
248,224,4418,2,0,P|250:268|239:312,1,90,2|0,0:0|0:0,0:0:0:0:
96,376,4779,1,0,0:0:0:0:
36,264,4960,6,0,L|144:256,1,90,2|0,0:0|0:0,0:0:0:0:
384,240,5322,1,0,0:0:0:0:
136,148,5502,1,0,0:0:0:0:
384,112,5683,1,0,0:0:0:0:
264,240,5864,6,0,L|272:292,1,45
388,340,6044,2,0,P|412:337|449:306,1,45,0|0,1:0|1:0,0:0:0:0:
488,224,6225,1,0,1:0:0:0:
496,172,6316,1,0,0:0:0:0:
476,124,6406,1,0,0:0:0:0:
428,104,6496,1,0,0:0:0:0:
376,124,6587,6,0,L|272:120,1,90,4|0,0:0|0:0,0:0:0:0:
92,88,6948,2,0,L|196:76,2,90,8|0|0,0:0|0:0|0:0,0:0:0:0:
32,176,7490,1,0,0:0:0:0:
104,260,7671,2,0,P|116:308|112:364,1,90,8|2,0:0|0:0,0:0:0:0:
196,204,8032,6,0,P|244:184|344:248,1,180,0|8,0:0|0:0,0:0:0:0:
256,268,8575,1,0,0:0:0:0:
436,192,8755,1,0,0:0:0:0:
448,328,8936,1,0,0:0:0:0:
304,124,9117,1,8,0:0:0:0:
256,268,9297,1,2,0:0:0:0:
96,308,9478,6,0,L|84:212,1,90
188,188,9840,2,0,L|192:91,1,90,8|0,0:0|0:0,0:0:0:0:
320,152,10201,1,0,0:0:0:0:
436,180,10382,1,0,0:0:0:0:
456,296,10563,1,8,0:0:0:0:
372,376,10743,1,2,0:0:0:0:
164,296,10924,6,0,P|196:260|324:276,2,180,4|8|4,0:0|0:0|0:3,0:0:0:0:
48,240,11828,1,4,0:3:0:0:
48,240,11918,2,0,B|25:196|25:196|53:113,1,135,8|4,0:3|0:3,0:0:0:0:
168,48,12370,6,0,P|176:100|184:168,1,90,4|2,0:0|0:0,0:0:0:0:
272,208,12731,1,2,0:0:0:0:
80,160,12912,1,2,0:0:0:0:
288,108,13093,2,0,P|328:112|388:116,2,90,2|2|2,0:0|0:0|0:0,0:0:0:0:
192,240,13635,6,0,P|232:236|292:232,1,90,2|2,0:0|0:0,0:0:0:0:
416,248,13996,2,0,P|420:288|424:348,1,90,2|2,0:0|0:0,0:0:0:0:
288,264,14358,2,0,P|248:260|188:256,2,90,2|2|2,0:0|0:0|0:0,0:0:0:0:
328,360,14900,1,2,0:0:0:0:
328,360,15081,1,2,0:0:0:0:
116,308,15261,6,0,P|104:264|116:212,1,90,2|2,0:0|0:0,0:0:0:0:
16,220,15623,2,0,P|27:175|64:136,1,90,2|2,0:0|0:0,0:0:0:0:
192,36,15984,1,2,0:0:0:0:
192,36,16165,2,0,P|132:48|92:52,1,90,2|2,0:0|0:0,0:0:0:0:
216,216,16526,6,0,P|276:204|316:200,1,90,2|2,0:0|0:0,0:0:0:0:
440,104,16888,2,0,P|420:161|403:198,1,90,2|2,0:0|0:0,0:0:0:0:
448,344,17249,2,0,L|440:384,3,30,2|2|2|2,0:0|0:0|0:0|0:0,0:0:0:0:
340,272,17611,1,2,0:0:0:0:
208,328,17791,1,2,0:0:0:0:
104,228,17972,1,2,0:0:0:0:
32,352,18153,5,2,0:0:0:0:
192,240,18334,1,2,0:0:0:0:
192,240,18424,1,0,0:0:0:0:
192,240,18514,2,0,L|200:140,1,90,2|2,0:0|0:0,0:0:0:0:
52,64,18876,1,2,0:0:0:0:
80,208,19057,1,2,0:0:0:0:
220,136,19237,1,2,0:0:0:0:
456,236,19418,5,2,0:0:0:0:
412,248,19508,1,0,0:0:0:0:
368,260,19599,1,2,0:0:0:0:
492,112,19779,1,2,0:0:0:0:
456,108,19870,1,0,0:0:0:0:
420,104,19960,1,2,0:0:0:0:
292,40,20141,1,2,0:0:0:0:
192,164,20322,1,2,0:0:0:0:
276,216,20502,2,0,P|288:168|272:104,1,90,2|2,0:0|0:0,0:0:0:0:
204,60,20864,1,2,0:0:0:0:
192,296,21044,6,0,B|249:330|249:330|361:314,2,180,2|2|2,0:0|0:0|0:0,0:0:0:0:
112,188,21948,1,2,0:0:0:0:
276,216,22129,1,0,0:0:0:0:
88,364,22310,1,2,0:0:0:0:
88,364,22671,5,2,0:0:0:0:
248,192,22852,1,2,0:0:0:0:
292,316,23032,1,2,0:0:0:0:
156,232,23213,1,2,0:0:0:0:
344,152,23394,1,2,0:0:0:0:
144,56,23575,2,0,P|148:116|156:172,1,90,2|2,0:0|0:0,0:0:0:0:
312,240,23936,6,0,P|360:248|436:132,2,180,0|2|2,0:0|0:0|0:0,0:0:0:0:
244,128,24840,1,2,0:0:0:0:
344,52,25020,1,0,0:0:0:0:
420,272,25201,1,2,0:0:0:0:
420,272,25563,5,2,0:0:0:0:
256,128,25743,1,0,0:0:0:0:
168,312,25924,1,2,0:0:0:0:
152,40,26105,1,2,0:0:0:0:
256,128,26285,1,2,0:3:0:0:
256,128,26376,1,0,0:0:0:0:
256,128,26466,1,2,0:0:0:0:
140,192,26647,1,0,0:0:0:0:
336,228,26828,6,0,P|328:280|320:360,1,90,8|2,0:0|0:0,0:0:0:0:
232,372,27189,2,0,P|188:328|72:344,1,180,8|8,0:0|0:0,0:0:0:0:
20,232,27731,1,2,0:0:0:0:
20,232,27912,2,0,P|68:224|136:216,1,90,8|2,0:0|0:0,0:0:0:0:
384,160,28273,6,0,P|339:152|295:146,1,90,10|0,0:0|0:0,0:0:0:0:
432,68,28635,2,0,P|387:60|343:54,1,90,10|0,0:0|0:0,0:0:0:0:
196,112,28996,2,0,P|201:156|209:200,1,90,10|0,0:0|0:0,0:0:0:0:
96,72,29358,2,0,P|101:116|109:160,1,90,10|0,0:0|0:0,0:0:0:0:
148,312,29719,6,0,P|108:264|-4:280,2,180,10|10|10,0:0|0:0|0:0,0:0:0:0:
248,368,30623,1,10,0:0:0:0:
200,200,30803,1,0,0:0:0:0:
320,288,30984,2,0,P|384:304|512:312,1,180,10|8,0:0|0:0,0:0:0:0:
348,180,31526,1,2,0:0:0:0:
496,204,31707,1,8,0:0:0:0:
344,88,31888,5,0,0:0:0:0:
408,272,32069,1,10,0:0:0:0:
224,192,32249,1,0,0:0:0:0:
148,352,32430,1,10,0:0:0:0:
44,184,32611,5,10,0:0:0:0:
44,184,32791,1,8,0:0:0:0:
116,256,32972,6,0,P|140:212|136:156,1,90,2|0,0:0|0:0,0:0:0:0:
404,228,33334,2,0,P|380:184|384:128,1,90,2|0,0:0|0:0,0:0:0:0:
96,164,33695,2,0,P|127:124|133:68,1,90,2|0,0:0|0:0,0:0:0:0:
399,52,34057,6,0,P|338:62|307:90,1,90,2|0,0:0|0:0,0:0:0:0:
164,264,34418,2,0,P|166:308|169:353,1,90,2|0,0:0|0:0,0:0:0:0:
348,264,34779,2,0,P|350:219|353:174,1,90,2|0,0:0|0:0,0:0:0:0:
84,176,35141,2,0,P|64:241|49:295,1,90,2|0,0:0|0:0,0:0:0:0:
288,336,35502,6,0,P|348:356|448:272,1,180,8|0,0:0|0:0,0:0:0:0:
420,112,36044,2,0,B|364:88|364:88|236:108,1,180,8|0,0:0|0:0,0:0:0:0:
116,160,36587,2,0,L|124:56,1,90,8|0,0:0|0:0,0:0:0:0:
180,252,36948,5,0,0:0:0:0:
180,252,37129,2,0,P|132:272|72:264,1,90,8|0,0:0|0:0,0:0:0:0:
252,140,37490,1,0,0:0:0:0:
94,271,37671,1,8,0:0:0:0:
316,252,37852,1,0,0:0:0:0:
128,168,38032,1,8,0:0:0:0:
244,340,38213,1,0,0:0:0:0:
232,104,38394,5,8,0:0:0:0:
168,276,38575,2,0,L|72:268,1,90
332,364,38936,2,0,P|364:324|348:192,1,180,8|0,0:0|0:0,0:0:0:0:
224,88,39478,2,0,P|264:112|320:108,1,90,8|0,0:0|0:0,0:0:0:0:
480,28,39840,2,0,P|435:29|397:52,1,90,0|8,0:0|0:0,0:0:0:0:
308,216,40201,2,0,P|270:239|225:240,1,90
88,200,40563,5,8,0:0:0:0:
68,56,40743,1,8,0:0:0:0:
212,40,40924,1,8,0:0:0:0:
232,184,41104,1,8,0:0:0:0:
104,312,41285,5,10,0:0:0:0:
104,312,41466,1,0,0:0:0:0:
236,368,41647,1,10,0:0:0:0:
236,368,41828,1,0,0:0:0:0:
352,284,42008,1,10,0:0:0:0:
352,284,42189,1,0,0:0:0:0:
492,252,42370,1,10,0:0:0:0:
492,252,42550,1,0,0:0:0:0:
412,88,42731,5,10,0:0:0:0:
412,88,42912,1,0,0:0:0:0:
236,40,43093,1,10,0:0:0:0:
236,40,43273,1,0,0:0:0:0:
152,200,43454,5,10,0:0:0:0:
48,168,43635,1,0,0:0:0:0:
48,168,43725,1,0,0:0:0:0:
48,168,43816,1,10,0:0:0:0:
24,64,43996,1,0,0:0:0:0:
236,40,44177,6,0,P|284:48|340:60,1,90,10|0,0:0|0:0,0:0:0:0:
456,144,44538,2,0,P|408:152|352:164,1,90,10|0,0:0|0:0,0:0:0:0:
232,344,44900,1,10,0:0:0:0:
176,128,45081,2,0,P|164:180|180:244,1,90,10|0,0:0|0:0,0:0:0:0:
328,12,45442,1,8,0:0:0:0:
328,12,45803,5,8,0:0:0:0:
276,212,45984,1,8,0:0:0:0:
80,152,46165,1,8,0:0:0:0:
360,120,46346,1,8,0:0:0:0:
252,344,46526,5,0,0:0:0:0:
252,344,46617,1,8,0:0:0:0:
252,344,46707,2,0,L|196:336,1,45,8|0,0:0|0:0,0:0:0:0:
108,304,46888,2,0,B|102:281|102:281|107:256,1,45
156,156,47069,6,0,L|276:143,1,107.999996704102,4|0,1:0|0:0,0:0:0:0:
337,166,47340,1,0,0:0:0:0:
401,126,47430,2,0,B|417:74|417:74|398:11,1,107.999996704102,8|2,0:0|0:0,0:0:0:0:
156,12,47791,6,0,L|145:81,1,53.9999983520508
156,156,47972,2,0,L|100:166,1,53.9999983520508,2|0,0:0|0:0,0:0:0:0:
42,248,48153,2,0,L|124:260,1,53.9999983520508,8|0,0:0|0:0,0:0:0:0:
178,325,48334,1,2,0:0:0:0:
322,254,48514,6,0,P|367:249|447:293,1,107.999996704102,0|2,0:0|0:0,0:0:0:0:
358,350,48876,1,8,0:0:0:0:
161,233,49057,2,0,L|38:222,2,107.999996704102,2|0|2,0:0|0:0|0:0,0:0:0:0:
336,126,49599,1,8,0:0:0:0:
218,137,49779,1,2,0:0:0:0:
422,223,49960,5,0,0:0:0:0:
199,111,50141,1,2,0:0:0:0:
364,59,50322,1,8,0:0:0:0:
256,275,50502,1,2,0:0:0:0:
360,306,50683,5,0,0:0:0:0:
233,28,50864,1,2,0:0:0:0:
435,103,51044,1,8,0:0:0:0:
158,231,51225,1,2,0:0:0:0:
422,355,51406,5,4,0:0:0:0:
334,120,51587,2,0,B|316:170|316:170|333:263,1,107.999996704102
235,361,51948,2,0,B|135:318|135:318|23:347,1,215.999993408203,8|8,0:0|0:0,0:0:0:0:
22,89,52490,2,0,L|38:174,1,53.9999983520508,12|0,0:0|0:0,0:0:0:0:
123,20,52671,2,0,L|132:73,1,53.9999983520508,8|0,0:0|0:0,0:0:0:0:
212,145,52852,6,0,L|324:157,1,107.999996704102,4|0,1:0|0:0,0:0:0:0:
391,131,53123,1,0,0:0:0:0:
456,168,53213,2,0,P|471:220|446:301,1,107.999996704102,8|2,0:0|0:0,0:0:0:0:
414,331,53484,1,0,0:0:0:0:
339,314,53575,6,0,L|250:297,1,53.9999983520508
135,367,53755,2,0,L|224:350,1,53.9999983520508,2|0,0:0|0:0,0:0:0:0:
332,216,53936,1,8,0:0:0:0:
356,144,54026,1,0,0:0:0:0:
328,72,54117,1,2,0:0:0:0:
257,45,54207,1,0,0:0:0:0:
190,80,54297,6,0,P|140:103|50:73,2,107.999996704102,0|2|8,0:0|0:0|0:0,0:0:0:0:
355,310,54840,2,0,P|306:256|178:264,1,161.999995056153,2|0,0:0|0:0,0:0:0:0:
148,292,55201,1,2,0:0:0:0:
242,150,55382,1,8,0:0:0:0:
245,357,55563,1,2,0:0:0:0:
67,252,55743,5,8,0:0:0:0:
414,338,56105,1,8,0:0:0:0:
175,58,56466,1,8,0:0:0:0:
383,120,56828,1,8,0:0:0:0:
383,120,57008,6,0,P|339:173|196:150,1,215.999993408203,12|8,0:0|0:0,0:0:0:0:
169,39,57550,1,8,0:0:0:0:
480,204,57731,5,8,0:0:0:0:
436,216,57822,1,8,0:0:0:0:
396,228,57912,1,8,0:0:0:0:
480,352,58093,5,8,0:0:0:0:
404,340,58183,1,8,0:0:0:0:
328,328,58273,1,8,0:0:0:0:
252,344,58364,1,8,0:0:0:0:
176,356,58454,1,8,0:0:0:0:
100,368,58544,1,8,0:0:0:0:
28,344,58635,6,0,P|16:308|44:240,1,107.999996704102,4|0,1:0|0:0,0:0:0:0:
104,204,58906,1,0,0:0:0:0:
172,236,58996,2,0,P|216:244|263:223,1,53.9999983520508,8|0,0:0|0:0,0:0:0:0:
300,180,59177,2,0,L|308:96,1,53.9999983520508,2|0,0:0|0:0,0:0:0:0:
160,20,59358,6,0,P|136:76|156:156,1,107.999996704102,0|2,0:0|0:0,0:0:0:0:
384,252,59719,2,0,P|408:196|388:116,1,107.999996704102,8|2,0:0|0:0,0:0:0:0:
204,228,60081,6,0,L|60:240,1,107.999996704102,0|2,0:0|0:0,0:0:0:0:
304,356,60442,1,8,0:0:0:0:
24,280,60623,2,0,B|104:256|104:256|160:268|160:268|248:240,1,215.999993408203,2|2,0:0|0:0,0:0:0:0:
160,164,61165,1,8,0:0:0:0:
104,356,61346,1,2,0:0:0:0:
68,132,61526,5,0,0:0:0:0:
208,284,61707,1,2,0:0:0:0:
8,240,61888,1,8,0:0:0:0:
192,160,62069,1,2,0:0:0:0:
396,268,62249,5,0,0:0:0:0:
284,93,62430,1,2,0:0:0:0:
278,218,62611,1,8,0:0:0:0:
416,48,62792,1,2,0:0:0:0:
488,176,62972,5,8,0:0:0:0:
295,277,63153,2,0,B|343:253|343:253|396:268,1,107.999996704102
136,376,63514,2,0,L|116:140,1,215.999993408203,8|8,0:0|0:0,0:0:0:0:
304,32,64057,1,8,0:0:0:0:
296,76,64147,1,0,0:0:0:0:
288,120,64237,1,0,0:0:0:0:
284,164,64328,1,0,0:0:0:0:
196,132,64418,6,0,L|84:144,1,107.999996704102,4|0,1:0|0:0,0:0:0:0:
376,184,64779,2,0,L|488:196,1,107.999996704102,8|0,0:0|0:0,0:0:0:0:
160,376,65141,2,0,B|148:320|148:320|156:240,1,107.999996704102,2|0,0:0|0:0,0:0:0:0:
376,184,65502,2,0,B|388:240|388:240|380:320,1,107.999996704102,8|0,0:0|0:0,0:0:0:0:
60,288,65864,6,0,P|64:232|128:184,1,107.999996704102,2|0,0:0|0:0,0:0:0:0:
156,64,66225,2,0,L|284:80,1,107.999996704102,8|0,0:0|0:0,0:0:0:0:
444,168,66587,1,2,0:0:0:0:
240,200,66767,1,0,0:0:0:0:
428,312,66948,1,10,0:0:0:0:
224,344,67129,1,0,0:0:0:0:
372,52,67310,5,8,0:0:0:0:
332,364,67671,1,8,0:0:0:0:
60,200,68032,1,8,0:0:0:0:
392,232,68394,1,8,0:0:0:0:
392,232,68575,6,0,P|336:268|216:192,1,215.999993408203,12|8,0:0|0:0,0:0:0:0:
268,20,69117,1,8,0:0:0:0:
312,180,69297,1,8,0:0:0:0:
328,140,69388,1,8,0:0:0:0:
336,96,69478,1,8,0:0:0:0:
60,80,69659,2,0,B|68:112|68:112|100:148,1,53.9999983520508,8|0,0:0|0:0,0:0:0:0:
168,184,69840,2,0,L|244:160,1,53.9999983520508,8|0,0:0|0:0,0:0:0:0:
68,244,70020,6,0,P|40:300|28:356,2,107.999996704102,4|0|0,0:0|0:0|0:0,0:0:0:0:
368,360,70563,2,0,P|360:300|352:236,1,107.999996704102,10|0,0:0|0:0,0:0:0:0:
154,291,70924,2,0,P|162:231|170:167,1,107.999996704102,2|0,0:0|0:0,0:0:0:0:
432,232,71285,2,0,P|424:172|416:108,1,107.999996704102,10|0,0:0|0:0,0:0:0:0:
88,152,71647,6,0,P|96:92|104:28,2,107.999996704102,2|0|8,0:0|0:0|0:0,0:0:0:0:
154,291,72189,1,0,0:0:0:0:
380,152,72370,1,0,0:0:0:0:
160,208,72550,1,8,0:0:0:0:
308,320,72731,1,0,0:0:0:0:
360,36,72912,1,8,0:0:0:0:
360,36,73273,6,0,P|338:84|353:168,1,107.999996704102,8|0,0:0|0:0,0:0:0:0:
460,108,73635,1,8,0:0:0:0:
377,251,73816,2,0,P|329:227|251:236,1,107.999996704102,8|0,0:0|0:0,0:0:0:0:
144,206,74177,1,0,0:0:0:0:
192,328,74358,6,0,B|260:360|260:360|404:324,1,215.999993408203,10|8,0:0|0:0,0:0:0:0:
476,252,74900,1,8,0:0:0:0:
176,140,75081,1,8,0:0:0:0:
180,184,75171,1,8,0:0:0:0:
184,228,75261,1,8,0:0:0:0:
320,316,75442,6,0,L|332:256,1,53.9999983520508
408,148,75623,2,0,L|332:168,1,53.9999983520508,8|0,0:0|0:0,0:0:0:0:
236,241,75803,2,0,L|183:227,1,53.9999983520508
76,100,75984,1,4,0:3:0:0:
76,100,76346,6,0,P|128:104|200:112,1,107.999996704102,12|0,0:0|0:0,0:0:0:0:
92,216,76707,2,0,P|144:220|216:228,1,107.999996704102,12|0,0:0|0:0,0:0:0:0:
108,336,77069,2,0,P|160:340|232:348,1,107.999996704102,12|0,0:0|0:0,0:0:0:0:
428,192,77430,5,8,0:0:0:0:
224,80,77611,1,8,0:0:0:0:
224,308,77792,1,8,0:0:0:0:
224,308,78153,5,0,0:0:0:0:
224,308,78334,1,0,0:0:0:0:
368,348,78514,1,0,0:0:0:0:
368,348,78695,6,0,P|404:300|376:152,1,215.999993408203,4|2,0:0|0:0,0:0:0:0:
296,76,79237,2,0,L|172:88,1,107.999996704102,8|0,0:0|0:0,0:0:0:0:
16,196,79599,1,0,0:0:0:0:
128,252,79779,1,2,0:0:0:0:
280,168,79960,1,8,0:0:0:0:
280,168,80050,1,0,0:0:0:0:
280,168,80141,6,0,B|248:240|248:240|280:384,1,215.999993408203,2|0,0:0|0:0,0:0:0:0:
464,256,80683,2,0,L|332:244,1,107.999996704102,8|0,0:0|0:0,0:0:0:0:
140,152,81044,1,2,0:0:0:0:
364,92,81225,1,0,0:0:0:0:
184,36,81406,1,8,0:0:0:0:
276,256,81587,6,0,B|132:236|132:236|56:284,1,215.999993408203,4|0,0:0|0:0,0:0:0:0:
100,16,82129,1,8,0:0:0:0:
168,204,82310,1,0,0:0:0:0:
320,120,82490,1,0,0:0:0:0:
136,116,82671,2,0,P|101:143|80:176,1,53.9999983520508,2|0,0:0|0:0,0:0:0:0:
20,256,82852,2,0,P|46:263|72:273,1,53.9999983520508,8|0,0:0|0:0,0:0:0:0:
164,376,83032,5,4,0:0:0:0:
164,376,83394,1,2,0:0:0:0:
268,144,83575,1,8,0:0:0:0:
168,276,83755,1,0,0:0:0:0:
144,64,83936,5,0,0:0:0:0:
296,220,84117,1,2,0:0:0:0:
56,272,84297,1,8,0:0:0:0:
128,28,84478,1,4,0:0:0:0:
436,192,84840,5,2,0:0:0:0:
204,268,85020,1,8,0:0:0:0:
344,76,85201,1,0,0:0:0:0:
344,336,85382,6,0,L|272:328,1,53.9999983520508
164,188,85563,2,0,L|156:116,1,53.9999983520508,2|0,0:0|0:0,0:0:0:0:
300,192,85743,2,0,L|294:245,1,53.9999983520508,8|0,0:0|0:0,0:0:0:0:
108,348,85924,1,4,0:0:0:0:
204,64,86285,5,12,0:0:0:0:
308,320,86466,1,12,0:0:0:0:
196,201,86828,6,0,P|254:83|315:199,1,323.999990112305,8|4,0:0|1:2,0:0:0:0:
