osu file format v14

[General]
AudioFilename: audio.mp3
AudioLeadIn: 0
PreviewTime: 44044
Countdown: 1
SampleSet: Soft
StackLeniency: 0.7
Mode: 0
LetterboxInBreaks: 0
WidescreenStoryboard: 1

[Editor]
DistanceSpacing: 0.5
BeatDivisor: 4
GridSize: 4
TimelineZoom: 1.4

[Metadata]
Title:Ikken Rakuchaku Goyoujin
TitleUnicode:一件落着ゴ用心
Artist:EARPHONES
ArtistUnicode:イヤホンズ
Creator:Rizia
Version:Chaoz's AKIBA
Source:AKIBA'S TRIP -THE ANIMATION-
Tags:kawaiwkyik chaoslitz karen Kagamine Ren anime opening op tv size akihabara アキバズトリップ 高橋李依 高野麻里佳 長久友紀 RIE TAKAHASHI YUKI NAGAKU MARIKA KOUNO
BeatmapID:1174262
BeatmapSetID:553570

[Difficulty]
HPDrainRate:7
CircleSize:3
OverallDifficulty:8
ApproachRate:9
SliderMultiplier:1.7
SliderTickRate:1

[Events]
//Background and Video events
0,0,"bg (1).jpg",0,0
Video,0,"optc.flv"
//Break Periods
//Storyboard Layer 0 (Background)
//Storyboard Layer 1 (Fail)
//Storyboard Layer 2 (Pass)
//Storyboard Layer 3 (Foreground)
//Storyboard Sound Samples

[TimingPoints]
804,361.44578313253,4,2,1,50,1,0
2069,-100,4,2,2,50,0,0
2249,-100,4,2,1,50,0,0
3695,-100,4,2,1,50,0,0
4960,-100,4,2,2,50,0,0
6587,-100,4,2,1,50,0,0
12370,-125,4,2,1,40,0,0
12731,-125,4,2,3,40,0,0
12912,-125,4,2,1,40,0,0
13093,-125,4,2,3,40,0,0
13273,-125,4,2,1,40,0,0
13454,-125,4,2,3,40,0,0
13635,-125,4,2,1,40,0,0
13816,-125,4,2,3,40,0,0
13996,-125,4,2,1,40,0,0
14177,-125,4,2,3,40,0,0
14358,-125,4,2,1,40,0,0
14538,-125,4,2,3,40,0,0
14719,-125,4,2,1,40,0,0
14900,-125,4,2,3,40,0,0
15081,-125,4,2,1,40,0,0
15261,-125,4,2,3,40,0,0
15442,-125,4,2,1,40,0,0
15623,-125,4,2,3,40,0,0
15803,-125,4,2,1,40,0,0
15984,-125,4,2,3,40,0,0
16165,-125,4,2,1,40,0,0
16346,-125,4,2,3,40,0,0
16526,-125,4,2,1,40,0,0
16707,-125,4,2,3,40,0,0
16888,-125,4,2,1,40,0,0
17069,-125,4,2,3,40,0,0
17249,-125,4,2,1,40,0,0
17430,-125,4,2,3,40,0,0
17611,-125,4,2,1,40,0,0
17791,-125,4,2,3,40,0,0
17972,-125,4,2,1,40,0,0
18153,-125,4,2,3,40,0,0
18334,-125,4,2,1,40,0,0
18514,-125,4,2,3,40,0,0
18695,-125,4,2,1,40,0,0
18876,-125,4,2,3,40,0,0
19057,-125,4,2,1,40,0,0
19237,-125,4,2,3,40,0,0
19418,-125,4,2,1,40,0,0
19599,-125,4,2,3,40,0,0
19779,-125,4,2,1,40,0,0
19960,-125,4,2,3,40,0,0
20141,-125,4,2,1,40,0,0
20322,-125,4,2,3,40,0,0
20502,-125,4,2,1,40,0,0
20683,-125,4,2,3,40,0,0
20864,-125,4,2,1,40,0,0
21044,-100,4,2,3,40,0,0
21406,-100,4,2,1,40,0,0
21767,-100,4,2,3,40,0,0
21948,-100,4,2,1,40,0,0
22310,-100,4,2,3,40,0,0
22852,-100,4,2,1,40,0,0
23032,-100,4,2,3,40,0,0
23213,-100,4,2,1,40,0,0
23394,-100,4,2,3,40,0,0
23575,-100,4,2,1,40,0,0
23755,-100,4,2,3,40,0,0
24297,-100,4,2,1,40,0,0
24659,-100,4,2,3,40,0,0
25743,-125,4,2,3,40,0,0
25924,-100,4,2,3,40,0,0
26105,-83.3333333333333,4,2,1,40,0,0
26466,-66.6666666666667,4,2,1,40,0,0
26647,-125,4,2,1,40,0,0
26828,-100,4,2,4,40,0,0
34779,-83.3333333333333,4,2,4,40,0,0
35502,-100,4,2,1,40,0,0
40924,-125,4,2,1,40,0,0
41285,-100,4,2,4,40,0,0
44538,-83.3333333333333,4,2,4,40,0,0
45442,-66.6666666666667,4,2,1,50,0,0
45803,-66.6666666666667,4,2,1,60,0,0
47069,-66.6666666666667,4,2,1,70,0,1
49960,-83.3333333333333,4,2,1,70,0,1
52852,-66.6666666666667,4,2,1,70,0,1
55743,-83.3333333333333,4,2,1,70,0,1
58635,-66.6666666666667,4,2,1,70,0,1
59719,-83.3333333333333,4,2,1,70,0,1
60081,-66.6666666666667,4,2,1,70,0,1
61526,-83.3333333333333,4,2,1,70,0,1
64418,-76.9230769230769,4,2,1,70,0,1
67400,-76.9230769230769,4,2,1,10,0,1
67671,-76.9230769230769,4,2,1,70,0,1
67761,-76.9230769230769,4,2,1,10,0,1
68032,-76.9230769230769,4,2,1,70,0,1
68123,-76.9230769230769,4,2,1,10,0,1
68394,-76.9230769230769,4,2,1,70,0,1
72912,-83.3333333333333,4,2,1,70,0,1
75984,-100,4,2,1,70,0,1
77972,-100,4,2,1,50,0,1
78153,-133.333333333333,4,2,1,50,0,0
78695,-100,4,2,1,70,0,1
86828,-83.3333333333333,4,2,1,70,0,1
87189,-83.3333333333333,4,2,99,30,0,0

[Colours]
Combo1 : 0,128,255
Combo2 : 255,0,0
Combo3 : 255,238,23
Combo4 : 255,128,128

[HitObjects]
45,190,442,6,0,L|59:318,1,127.5,0|0,0:0|0:0,0:0:0:0:
133,367,804,5,0,1:0:0:0:
129,87,1346,1,0,1:0:0:0:
152,249,1707,1,2,0:0:0:0:
154,265,1797,1,2,0:0:0:0:
157,281,1888,2,0,L|216:272,1,42.5,2|0,0:0|0:0,0:0:0:0:
312,274,2069,1,0,0:0:0:0:
355,281,2159,1,0,0:0:0:0:
453,316,2249,6,0,B|467:191|467:191|447:137,1,170,0|0,1:0|0:0,0:0:0:0:
240,63,2791,2,0,P|225:119|268:183,1,127.5,0|0,1:0|0:0,0:0:0:0:
280,185,3153,1,2,0:0:0:0:
310,182,3243,1,2,0:0:0:0:
340,179,3334,2,0,L|347:119,1,42.5,2|0,0:0|0:0,0:0:0:0:
409,58,3514,2,0,L|416:-2,1,42.5,0|0,0:0|0:0,0:0:0:0:
451,149,3695,5,0,0:0:0:0:
256,280,3876,1,2,0:0:0:0:
331,363,4057,1,0,0:0:0:0:
436,334,4237,2,0,L|429:242,1,85,2|2,0:0|0:0,0:0:0:0:
256,280,4599,1,0,0:0:0:0:
181,363,4780,1,0,0:0:0:0:
76,334,4960,6,0,P|42:294|43:222,1,127.5,2|0,0:0|0:0,0:0:0:0:
54,198,5322,2,0,L|106:189,1,42.5
75,96,5502,2,0,L|127:87,1,42.5,0|0,0:0|0:0,0:0:0:0:
178,249,5683,2,0,L|230:240,1,42.5,0|0,0:0|0:0,0:0:0:0:
199,147,5863,2,0,L|251:138,1,42.5,0|0,0:0|0:0,0:0:0:0:
302,300,6045,1,0,1:0:0:0:
323,335,6135,1,0,1:0:0:0:
362,348,6225,1,0,1:0:0:0:
400,331,6316,1,0,0:0:0:0:
417,293,6406,1,0,0:0:0:0:
404,254,6496,1,0,0:0:0:0:
369,232,6587,5,4,0:0:0:0:
482,187,6767,1,0,0:0:0:0:
303,82,6948,2,0,L|261:89,2,42.5,8|0|0,0:0|0:0|0:0,0:0:0:0:
369,232,7310,1,0,0:0:0:0:
369,232,7490,2,0,L|380:147,1,85,0|8,0:0|0:0,0:0:0:0:
394,42,7852,1,2,0:0:0:0:
272,189,8032,6,0,P|230:179|188:173,1,85,0|0,0:0|0:0,0:0:0:0:
48,297,8394,2,0,P|90:291|131:281,1,85,8|0,0:0|0:0,0:0:0:0:
188,173,8755,1,0,0:0:0:0:
132,282,8936,1,0,0:0:0:0:
188,173,9117,1,8,0:0:0:0:
211,372,9297,1,2,0:0:0:0:
70,186,9478,6,0,L|80:97,1,85
201,56,9840,1,8,0:0:0:0:
201,56,10020,1,0,0:0:0:0:
188,173,10201,1,0,0:0:0:0:
302,127,10382,1,0,0:0:0:0:
188,173,10563,1,8,0:0:0:0:
398,213,10743,1,2,0:0:0:0:
188,173,10924,5,4,0:0:0:0:
212,353,11105,1,0,0:0:0:0:
302,127,11285,1,8,0:0:0:0:
212,380,11466,1,0,0:0:0:0:
399,322,11647,2,0,L|450:313,1,42.5,4|0,0:3|0:0,0:0:0:0:
317,277,11828,1,4,0:3:0:0:
317,277,11918,2,0,P|263:270|222:265,1,85,8|0,0:3|0:0,0:0:0:0:
203,263,12189,1,4,0:3:0:0:
63,300,12370,5,4,0:0:0:0:
147,177,12550,2,0,P|159:117|121:39,1,136,2|2,0:0|0:0,0:0:0:0:
131,49,13093,1,2,0:0:0:0:
66,124,13273,2,0,P|19:134|-18:138,1,68,2|2,0:0|0:0,0:0:0:0:
50,233,13635,2,0,P|60:280|64:317,1,68,2|2,0:0|0:0,0:0:0:0:
175,233,13996,6,0,P|167:300|161:368,1,136,2|2,0:0|0:0,0:0:0:0:
259,302,14538,2,0,P|290:289|323:289,1,68,2|2,0:0|0:0,0:0:0:0:
419,310,14900,1,2,0:0:0:0:
419,310,15081,1,2,0:0:0:0:
268,192,15261,6,0,P|262:158|257:124,1,68,2|2,0:0|0:0,0:0:0:0:
358,120,15623,2,0,P|360:86|365:52,1,68,2|2,0:0|0:0,0:0:0:0:
458,203,15984,1,2,0:0:0:0:
458,203,16165,2,0,P|425:203|390:214,1,68,2|2,0:0|0:0,0:0:0:0:
234,342,16526,6,0,P|291:375|357:363,1,136,2|2,0:0|0:0,0:0:0:0:
434,304,17069,1,2,0:0:0:0:
304,176,17249,2,0,L|308:142,2,22.6666666666667,2|2|2,0:0|0:0|0:0,0:0:0:0:
298,201,17430,2,0,P|304:234|307:268,1,68,2|2,0:0|0:0,0:0:0:0:
202,354,17791,1,2,0:0:0:0:
73,308,17972,1,2,0:0:0:0:
40,175,18153,1,2,0:0:0:0:
132,74,18334,6,0,L|145:157,2,68,2|2|2,0:0|0:0|0:0,0:0:0:0:
243,125,18876,2,0,P|237:158|233:192,1,68,2|2,0:0|0:0,0:0:0:0:
223,26,19237,1,2,0:0:0:0:
334,170,19418,1,2,0:0:0:0:
350,168,19508,1,0,0:0:0:0:
367,165,19598,5,2,0:0:0:0:
228,211,19779,1,2,0:0:0:0:
212,213,19869,1,0,0:0:0:0:
195,216,19959,1,2,0:0:0:0:
307,284,20141,1,2,0:0:0:0:
206,342,20322,1,2,0:0:0:0:
206,342,20502,2,0,P|172:345|138:350,1,68,2|2,0:0|0:0,0:0:0:0:
42,317,20864,1,2,0:0:0:0:
313,371,21044,6,0,L|331:192,2,170,2|2|2,0:0|0:0|0:0,0:0:0:0:
232,238,21948,2,0,P|188:235|151:253,1,85,2|0,0:0|0:0,0:0:0:0:
0,173,22310,6,0,P|58:183|135:97,1,170,2|2,0:0|0:0,0:0:0:0:
104,15,22852,1,2,0:0:0:0:
104,15,23032,1,2,0:0:0:0:
257,55,23213,1,2,0:0:0:0:
45,91,23394,1,2,0:0:0:0:
176,268,23575,2,0,P|224:256|274:252,1,85,2|2,0:0|0:0,0:0:0:0:
376,308,23936,6,0,P|316:364|236:347,2,170,0|2|2,0:0|0:0|0:0,0:0:0:0:
281,119,24840,1,2,0:0:0:0:
457,183,25020,1,0,0:0:0:0:
293,272,25201,2,0,P|289:208|283:144,1,127.5,2|0,0:0|0:0,0:0:0:0:
281,119,25563,6,0,P|315:129|342:130,1,42.5,2|0,0:0|0:0,0:0:0:0:
193,191,25743,2,0,P|176:195|159:196,1,34,0|0,0:0|0:0,0:0:0:0:
273,99,25924,2,0,P|277:63|286:37,1,42.5,2|0,0:0|0:0,0:0:0:0:
145,213,26105,6,0,P|140:162|133:111,1,101.999996887207,2|2,0:0|0:3,0:0:0:0:
60,47,26376,1,0,0:0:0:0:
60,47,26466,6,0,P|29:47|-1:59,1,63.7500024318696,2|0,0:0|0:0,0:0:0:0:
53,175,26647,2,0,L|48:137,1,34,0|0,0:0|0:0,0:0:0:0:
1,261,26828,6,0,P|84:268|145:213,1,170,8|8,0:0|0:0,0:0:0:0:
171,111,27370,1,0,0:0:0:0:
220,276,27550,2,0,P|268:268|334:263,1,85,8|2,0:0|0:0,0:0:0:0:
397,368,27912,2,0,P|355:360|313:355,1,85,8|2,0:0|0:0,0:0:0:0:
275,169,28273,6,0,P|317:166|355:182,1,85,10|0,0:0|0:0,0:0:0:0:
421,258,28635,1,10,0:0:0:0:
460,65,28816,1,0,0:0:0:0:
460,65,28906,1,0,0:0:0:0:
460,65,28996,2,0,P|417:72|376:77,1,85,10|0,0:0|0:0,0:0:0:0:
288,59,29267,1,0,0:0:0:0:
288,59,29358,1,10,0:0:0:0:
163,34,29538,1,0,0:0:0:0:
54,108,29719,6,0,P|42:171|73:227,1,127.5,10|0,0:0|0:0,0:0:0:0:
96,247,30081,2,0,P|133:239|184:231,1,85,10|0,0:0|0:0,0:0:0:0:
394,292,30442,2,0,P|364:285|337:281,1,42.5,10|0,0:0|0:0,0:0:0:0:
245,382,30623,2,0,P|250:339|257:297,1,85,10|0,0:0|0:0,0:0:0:0:
329,122,30984,6,0,P|341:185|350:267,1,127.5,10|0,0:0|0:0,0:0:0:0:
352,283,31346,1,8,0:0:0:0:
477,223,31526,2,0,P|485:185|490:166,1,42.5,2|0,0:0|0:0,0:0:0:0:
432,96,31707,2,0,P|440:58|445:39,1,42.5,8|0,0:0|0:0,0:0:0:0:
340,136,31888,5,0,0:0:0:0:
209,172,32069,1,10,0:0:0:0:
173,40,32249,1,0,0:0:0:0:
305,5,32430,1,10,0:0:0:0:
209,172,32611,5,10,0:0:0:0:
209,172,32791,1,8,0:0:0:0:
298,247,32972,2,0,L|466:226,2,170,2|2|2,0:0|0:0|0:0,0:0:0:0:
201,267,33876,1,0,0:0:0:0:
114,361,34057,6,0,P|186:319|266:340,1,170,2|2,0:0|0:0,0:0:0:0:
266,340,34599,1,0,0:0:0:0:
411,203,34779,6,0,P|340:233|229:145,1,203.999993774414,2|2,0:0|0:0,0:0:0:0:
238,172,35322,1,0,0:0:0:0:
323,49,35502,6,0,L|338:148,2,85,8|0|0,0:0|0:0|0:0,0:0:0:0:
323,49,36044,1,8,0:0:0:0:
116,233,36406,1,0,0:0:0:0:
159,113,36587,1,8,0:0:0:0:
241,210,36767,1,0,0:0:0:0:
37,138,36948,6,0,P|48:85|52:52,2,85,0|8|0,0:0|0:0|0:0,0:0:0:0:
37,138,37490,1,0,0:0:0:0:
241,210,37671,1,8,0:0:0:0:
66,253,37852,1,0,0:0:0:0:
66,253,37942,1,0,0:0:0:0:
66,253,38032,2,0,P|59:272|57:294,1,42.5,8|0,0:0|0:0,0:0:0:0:
149,311,38213,2,0,P|154:290|155:268,1,42.5,0|0,0:0|0:0,0:0:0:0:
37,138,38394,6,0,P|79:134|121:128,1,85,8|0,0:0|0:0,0:0:0:0:
207,88,38755,1,0,0:0:0:0:
324,153,38936,2,0,P|338:235|287:300,1,170,8|0,0:0|0:0,0:0:0:0:
156,220,39478,2,0,P|198:216|240:209,1,85,8|0,0:0|0:0,0:0:0:0:
370,252,39840,6,0,P|412:246|454:241,1,85,0|8,0:0|0:0,0:0:0:0:
325,154,40201,2,0,P|334:112|339:70,1,85,0|0,0:0|0:0,0:0:0:0:
240,209,40563,2,0,P|245:235|248:268,1,42.5,8|0,0:0|0:0,0:0:0:0:
236,108,40743,2,0,P|241:82|244:49,1,42.5,8|0,0:0|0:0,0:0:0:0:
154,164,40924,6,0,P|121:172|87:178,1,68,8|0,0:0|0:0,0:0:0:0:
0,264,41285,6,0,P|71:272|119:374,2,170,10|10|10,0:0|0:0|0:0,0:0:0:0:
26,357,42189,1,0,0:0:0:0:
205,282,42370,1,10,0:0:0:0:
99,241,42550,6,0,P|50:165|91:64,1,170
248,140,43093,1,10,0:0:0:0:
153,150,43273,1,0,0:0:0:0:
316,57,43454,2,0,P|358:52|400:47,1,85,10|0,0:0|0:0,0:0:0:0:
399,46,43725,1,0,0:0:0:0:
399,46,43816,1,10,0:0:0:0:
458,132,43996,1,0,0:0:0:0:
330,180,44177,6,0,P|315:220|315:262,1,85,10|0,0:0|0:0,0:0:0:0:
409,374,44538,6,0,P|434:303|408:232,1,152.999995330811,10|0,0:0|0:0,0:0:0:0:
330,181,44900,6,0,L|270:190,1,50.9999984436036,10|0,0:0|0:0,0:0:0:0:
155,275,45081,2,0,L|215:284,1,50.9999984436036,10|0,0:0|0:0,0:0:0:0:
320,302,45261,1,0,0:0:0:0:
68,349,45442,6,0,B|56:284|56:284|66:217|66:217|51:140,1,191.250007295609,8|0,0:0|0:0,0:0:0:0:
28,67,45803,2,0,P|56:68|93:59,1,63.7500024318696,8|0,0:0|0:0,0:0:0:0:
150,134,45984,2,0,P|165:117|176:73,1,63.7500024318696,8|0,0:0|0:0,0:0:0:0:
265,75,46165,2,0,P|260:44|243:18,1,63.7500024318696,8|0,0:0|0:0,0:0:0:0:
234,182,46346,6,0,P|296:172|360:164,1,127.500004863739,8|0,0:0|0:0,0:0:0:0:
396,166,46617,1,8,0:0:0:0:
479,250,46707,5,8,0:0:0:0:
477,310,46797,1,0,0:0:0:0:
438,358,46887,1,0,0:0:0:0:
375,366,46978,1,0,0:0:0:0:
323,333,47069,5,4,1:0:0:0:
261,271,47159,1,0,0:0:0:0:
174,257,47249,1,0,0:0:0:0:
95,294,47340,1,0,0:0:0:0:
52,371,47430,2,0,P|42:308|24:239,1,127.500004863739,8|2,0:0|0:0,0:0:0:0:
91,182,47701,1,0,0:0:0:0:
26,246,47791,5,0,0:0:0:0:
0,189,47881,1,0,0:0:0:0:
15,129,47971,1,2,0:0:0:0:
66,92,48062,1,0,0:0:0:0:
128,97,48153,5,8,0:0:0:0:
208,134,48243,1,0,0:0:0:0:
282,83,48334,2,0,P|288:39|291:-1,1,63.7500024318696,2|0,0:0|0:0,0:0:0:0:
179,228,48514,6,0,B|242:241|242:241|299:216,1,127.500004863739,0|2,0:0|0:0,0:0:0:0:
478,130,48876,2,0,L|470:63,1,63.7500024318696,8|0,0:0|0:0,0:0:0:0:
381,44,49057,2,0,L|393:170,1,127.500004863739,2|0,0:0|0:0,0:0:0:0:
397,202,49328,1,0,0:0:0:0:
400,233,49418,1,2,0:0:0:0:
243,330,49599,1,8,0:0:0:0:
498,260,49779,1,2,0:0:0:0:
253,228,49960,6,0,P|249:279|243:329,1,101.999996887207,0|2,0:0|0:0,0:0:0:0:
147,369,50231,1,0,0:0:0:0:
147,370,50322,2,0,P|140:339|139:310,1,50.9999984436036,8|0,0:0|0:0,0:0:0:0:
152,211,50502,1,2,0:0:0:0:
334,361,50683,2,0,P|385:368|431:350,1,101.999996887207,0|2,0:0|0:0,0:0:0:0:
470,263,50954,1,0,0:0:0:0:
470,263,51044,2,0,P|419:256|373:274,1,101.999996887207,8|2,0:0|0:0,0:0:0:0:
241,329,51406,6,0,L|233:258,1,50.9999984436036,4|0,0:0|0:0,0:0:0:0:
135,268,51587,2,0,L|147:370,1,101.999996887207,0|0,0:0|0:0,0:0:0:0:
281,138,51948,2,0,L|292:36,1,101.999996887207,8|0,0:0|0:0,0:0:0:0:
117,36,52309,6,0,P|96:43|65:47,1,50.9999984436036,8|0,0:0|0:0,0:0:0:0:
168,164,52490,2,0,P|171:142|184:113,1,50.9999984436036,12|0,0:0|0:0,0:0:0:0:
34,148,52671,2,0,P|51:162|69:187,1,50.9999984436036,8|0,0:0|0:0,0:0:0:0:
5,315,52852,6,0,P|62:283|123:294,1,127.500004863739,4|0,1:0|0:0,0:0:0:0:
178,370,53123,1,0,0:0:0:0:
273,360,53213,2,0,P|341:352|417:345,1,127.500004863739,8|2,0:0|0:0,0:0:0:0:
485,288,53484,1,0,0:0:0:0:
468,241,53574,1,0,0:0:0:0:
422,198,53664,1,0,0:0:0:0:
360,186,53755,1,2,0:0:0:0:
301,208,53845,1,0,0:0:0:0:
235,265,53936,5,8,0:0:0:0:
148,269,54027,1,0,0:0:0:0:
77,217,54117,1,2,0:0:0:0:
56,133,54207,1,0,0:0:0:0:
93,52,54297,6,0,P|173:14|309:102,1,255.000009727478,0|8,0:0|0:0,0:0:0:0:
369,303,54840,1,2,0:0:0:0:
186,142,55020,1,0,0:0:0:0:
186,142,55111,1,0,0:0:0:0:
186,142,55201,1,2,0:0:0:0:
411,70,55382,2,0,L|421:197,1,127.500004863739,8|2,0:0|0:0,0:0:0:0:
299,381,55743,6,0,P|269:340|321:207,2,203.999993774414,8|8|8,0:0|0:0|0:0,0:0:0:0:
369,303,56647,1,0,0:0:0:0:
177,367,56828,2,0,P|152:361|126:357,1,50.9999984436036,8|0,0:0|0:0,0:0:0:0:
34,359,57008,6,0,P|98:342|140:220,1,203.999993774414,12|8,0:0|0:0,0:0:0:0:
11,185,57550,1,8,0:0:0:0:
100,87,57731,1,8,0:0:0:0:
100,87,57821,1,8,0:0:0:0:
100,87,57912,1,8,0:0:0:0:
227,126,58093,1,8,0:0:0:0:
227,126,58184,1,8,0:0:0:0:
227,126,58273,2,0,L|294:133,1,50.9999984436036,8|8,0:0|0:0,0:0:0:0:
270,36,58454,2,0,L|337:43,1,50.9999984436036,8|8,0:0|0:0,0:0:0:0:
444,76,58635,6,0,P|406:143|417:207,1,127.500004863739,4|0,1:0|0:0,0:0:0:0:
435,287,58906,1,0,0:0:0:0:
383,357,58996,1,8,0:0:0:0:
298,377,59086,1,0,0:0:0:0:
221,336,59177,1,2,0:0:0:0:
190,254,59267,1,0,0:0:0:0:
220,171,59358,6,0,P|173:213|50:180,1,191.250007295609,0|0,0:0|0:0,0:0:0:0:
56,188,59719,6,0,B|42:152|42:152|53:68,1,101.999996887207,8|2,0:0|0:0,0:0:0:0:
230,64,60081,6,0,P|324:134|286:259,1,255.000009727478,0|8,0:0|0:0,0:0:0:0:
120,336,60623,1,2,0:0:0:0:
309,375,60803,1,0,0:0:0:0:
309,375,60894,1,0,0:0:0:0:
309,375,60984,1,2,0:0:0:0:
100,351,61165,2,0,P|94:284|85:221,1,127.500004863739,8|2,0:0|0:0,0:0:0:0:
304,151,61526,6,0,L|293:252,1,101.999996887207,0|2,0:0|0:0,0:0:0:0:
200,304,61797,1,0,0:0:0:0:
200,304,61888,2,0,P|197:268|192:243,1,50.9999984436036,8|0,0:0|0:0,0:0:0:0:
181,160,62069,1,2,0:0:0:0:
309,375,62249,2,0,P|364:367|410:362,1,101.999996887207,0|2,0:0|0:0,0:0:0:0:
435,358,62520,1,0,0:0:0:0:
460,355,62611,1,8,0:0:0:0:
399,201,62791,1,2,0:0:0:0:
448,67,62972,6,0,L|506:58,1,50.9999984436036,8|0,0:0|0:0,0:0:0:0:
359,31,63153,2,0,L|246:18,1,101.999996887207
399,201,63514,2,0,L|501:187,1,101.999996887207,8|0,0:0|0:0,0:0:0:0:
304,222,63876,6,0,P|303:187|315:155,1,50.9999984436036,8|0,0:0|0:0,0:0:0:0:
399,201,64057,2,0,L|383:356,1,152.999995330811,8|0,0:0|0:0,0:0:0:0:
293,372,64418,6,0,P|229:322|148:326,1,165.749992412568,4|0,1:0|0:0,0:0:0:0:
107,343,64779,2,0,P|53:351|5:326,1,110.499994941712,8|0,0:0|0:0,0:0:0:0:
154,114,65141,2,0,P|161:168|167:223,1,110.499994941712,2|0,0:0|0:0,0:0:0:0:
348,82,65502,2,0,P|340:136|334:191,1,110.499994941712,8|0,0:0|0:0,0:0:0:0:
107,25,65864,6,0,P|159:12|210:32,1,110.499994941712,2|0,0:0|0:0,0:0:0:0:
436,183,66225,2,0,P|385:203|333:191,1,110.499994941712,8|0,0:0|0:0,0:0:0:0:
154,114,66587,5,2,0:0:0:0:
348,82,66767,1,0,0:0:0:0:
165,225,66948,1,10,0:0:0:0:
333,191,67129,1,0,0:0:0:0:
131,219,67310,6,0,L|75:212,1,55.2499974708558,8|0,0:0|0:0,0:0:0:0:
341,286,67671,2,0,L|363:337,1,55.2499974708558,8|0,0:0|0:0,0:0:0:0:
295,70,68032,2,0,L|328:25,1,55.2499974708558,8|0,0:0|0:0,0:0:0:0:
256,192,68394,1,8,0:0:0:0:
482,206,68575,6,0,P|440:162|327:158,1,165.749992412568,12|0,0:0|0:0,0:0:0:0:
256,192,68936,2,0,P|263:226|269:252,1,55.2499974708558,8|0,0:0|0:0,0:0:0:0:
337,317,69117,2,0,P|329:349|324:377,1,55.2499974708558,8|0,0:0|0:0,0:0:0:0:
206,366,69297,1,8,0:0:0:0:
154,346,69387,1,8,0:0:0:0:
100,351,69478,5,8,0:0:0:0:
26,306,69568,1,0,0:0:0:0:
2,223,69658,1,8,0:0:0:0:
41,146,69749,1,0,0:0:0:0:
122,116,69840,2,0,P|133:155|135:183,1,55.2499974708558,8|0,0:0|0:0,0:0:0:0:
206,366,70020,6,0,P|295:311|252:180,1,220.999989883423,4|0,0:0|0:0,0:0:0:0:
190,39,70563,1,10,0:0:0:0:
190,39,70743,1,0,0:0:0:0:
134,204,70924,1,2,0:0:0:0:
190,39,71105,1,0,0:0:0:0:
215,270,71285,1,10,0:0:0:0:
190,39,71466,1,0,0:0:0:0:
359,143,71647,6,0,P|407:137|483:129,1,110.499994941712,2|0,0:0|0:0,0:0:0:0:
315,336,72008,2,0,P|264:273|277:194,1,165.749992412568,8|0,0:0|0:0,0:0:0:0:
359,143,72370,2,0,P|375:195|359:247,1,110.499994941712,0|8,0:0|0:0,0:0:0:0:
215,270,72731,1,0,0:0:0:0:
447,368,72912,6,0,P|456:305|463:244,1,101.999996887207,8|0,0:0|0:0,0:0:0:0:
354,118,73273,1,8,0:0:0:0:
214,269,73454,2,0,P|264:265|312:282,1,101.999996887207,0|8,0:0|0:0,0:0:0:0:
447,368,73816,1,8,0:0:0:0:
474,169,73996,1,0,0:0:0:0:
313,283,74177,2,0,L|373:275,1,50.9999984436036,0|0,0:0|0:0,0:0:0:0:
250,370,74358,6,0,P|199:361|149:355,1,101.999996887207,10|0,0:0|0:0,0:0:0:0:
274,182,74719,1,8,0:0:0:0:
214,270,74900,1,8,0:0:0:0:
73,227,75081,1,8,0:0:0:0:
53,191,75171,1,8,0:0:0:0:
55,151,75261,1,8,0:0:0:0:
187,74,75442,1,0,0:0:0:0:
187,74,75532,1,0,0:0:0:0:
187,74,75623,2,0,P|183:116|171:181,1,101.999996887207,8|0,0:0|0:0,0:0:0:0:
221,354,75984,6,0,P|219:311|213:269,1,85,4|0,0:3|0:0,0:0:0:0:
274,182,76346,2,0,P|328:224|449:190,2,170,12|12|12,0:0|0:0|0:0,0:0:0:0:
363,122,77249,1,0,0:0:0:0:
374,347,77430,5,8,0:0:0:0:
124,292,77611,1,8,0:0:0:0:
267,81,77791,1,8,0:0:0:0:
267,81,78153,6,0,P|272:116|275:156,1,63.7500024318696,0|0,0:0|0:0,0:0:0:0:
335,215,78514,1,0,0:0:0:0:
177,369,78695,6,0,P|126:309|146:208,1,170,4|2,0:0|0:0,0:0:0:0:
274,144,79237,2,0,P|231:138|190:128,1,85,8|0,0:0|0:0,0:0:0:0:
31,203,79599,1,0,0:0:0:0:
135,222,79779,1,2,0:0:0:0:
225,278,79960,1,8,0:0:0:0:
225,278,80050,1,0,0:0:0:0:
225,278,80141,6,0,P|280:269|340:263,1,85,2|0,0:0|0:0,0:0:0:0:
388,363,80502,1,0,0:0:0:0:
491,302,80683,2,0,P|510:262|507:212,1,85,8|0,0:0|0:0,0:0:0:0:
418,150,81044,2,0,L|405:238,1,85,2|0,0:0|0:0,0:0:0:0:
405,234,81406,1,8,0:0:0:0:
467,59,81587,6,0,B|388:25|379:84|291:45,1,170,4|0,0:0|0:0,0:0:0:0:
300,49,82038,1,0,0:0:0:0:
300,49,82129,1,8,0:0:0:0:
174,30,82310,1,0,0:0:0:0:
86,121,82490,1,0,0:0:0:0:
105,247,82671,1,2,0:0:0:0:
219,304,82852,2,0,L|267:298,1,42.5,8|0,0:0|0:0,0:0:0:0:
321,374,83032,6,0,P|385:322|467:335,1,170,4|2,0:0|0:0,0:0:0:0:
467,335,83575,1,8,0:0:0:0:
369,279,83755,1,0,0:0:0:0:
337,171,83936,2,0,P|344:120|347:74,1,85,0|2,0:0|0:0,0:0:0:0:
346,86,84297,1,8,0:0:0:0:
369,279,84478,6,0,P|284:266|200:256,1,170,4|2,0:0|0:0,0:0:0:0:
200,256,84930,1,0,0:0:0:0:
200,256,85020,1,8,0:0:0:0:
139,362,85201,1,0,0:0:0:0:
42,293,85382,6,0,P|53:275|62:255,1,42.5
159,98,85563,2,0,P|147:115|138:135,1,42.5,2|0,0:0|0:0,0:0:0:0:
3,136,85743,2,0,P|20:147|40:156,1,42.5,8|0,0:0|0:0,0:0:0:0:
200,256,85924,2,0,P|182:244|162:235,1,42.5,4|0,0:0|0:0,0:0:0:0:
163,235,86285,6,0,L|221:223,1,42.5,12|0,0:0|0:0,0:0:0:0:
304,198,86466,2,0,P|297:262|288:325,1,127.5,12|0,0:0|0:0,0:0:0:0:
370,363,86828,6,0,P|433:366|474:280,1,152.999995330811,8|0,0:0|0:0,0:0:0:0:
427,215,87189,5,4,1:2:0:0:
