osu file format v14

[General]
AudioFilename: audio.mp3
AudioLeadIn: 0
PreviewTime: 44044
Countdown: 1
SampleSet: Soft
StackLeniency: 0.7
Mode: 0
LetterboxInBreaks: 0
WidescreenStoryboard: 1

[Editor]
Bookmarks: 78110
DistanceSpacing: 1
BeatDivisor: 4
GridSize: 32
TimelineZoom: 1.1

[Metadata]
Title:Ikken Rakuchaku Goyoujin
TitleUnicode:一件落着ゴ用心
Artist:EARPHONES
ArtistUnicode:イヤホンズ
Creator:Rizia
Version:Hard
Source:AKIBA'S TRIP -THE ANIMATION-
Tags:kawaiwkyik chaoslitz karen Kagamine Ren anime opening op tv size akihabara アキバズトリップ 高橋李依 高野麻里佳 長久友紀 RIE TAKAHASHI YUKI NAGAKU MARIKA KOUNO
BeatmapID:1174658
BeatmapSetID:553570

[Difficulty]
HPDrainRate:6
CircleSize:4
OverallDifficulty:6
ApproachRate:7.5
SliderMultiplier:1.6
SliderTickRate:1

[Events]
//Background and Video events
0,0,"bg (1).jpg",0,0
Video,0,"optc.flv"
//Break Periods
//Storyboard Layer 0 (Background)
//Storyboard Layer 1 (Fail)
//Storyboard Layer 2 (Pass)
//Storyboard Layer 3 (Foreground)
//Storyboard Sound Samples

[TimingPoints]
804,361.44578313253,4,2,1,50,1,0
2069,-100,4,2,2,50,0,0
2249,-100,4,2,1,50,0,0
3695,-100,4,2,1,50,0,0
5322,-100,4,2,2,50,0,0
6587,-100,4,2,1,50,0,0
12370,-100,4,2,1,40,0,0
12731,-100,4,2,3,40,0,0
12912,-100,4,2,1,40,0,0
13093,-100,4,2,3,40,0,0
13273,-100,4,2,1,40,0,0
13454,-100,4,2,3,40,0,0
13635,-100,4,2,1,40,0,0
13816,-100,4,2,3,40,0,0
13996,-100,4,2,1,40,0,0
14177,-100,4,2,3,40,0,0
14358,-100,4,2,1,40,0,0
14538,-100,4,2,3,40,0,0
14719,-100,4,2,1,40,0,0
14900,-100,4,2,3,40,0,0
15081,-100,4,2,1,40,0,0
15261,-100,4,2,3,40,0,0
15442,-100,4,2,1,40,0,0
15623,-100,4,2,3,40,0,0
15803,-100,4,2,1,40,0,0
15984,-100,4,2,3,40,0,0
16165,-100,4,2,1,40,0,0
16346,-100,4,2,3,40,0,0
16526,-100,4,2,1,40,0,0
16707,-100,4,2,3,40,0,0
16888,-100,4,2,1,40,0,0
17069,-100,4,2,3,40,0,0
17249,-100,4,2,1,40,0,0
17430,-100,4,2,3,40,0,0
17611,-100,4,2,1,40,0,0
17791,-100,4,2,3,40,0,0
17972,-100,4,2,1,40,0,0
18153,-100,4,2,3,40,0,0
18334,-100,4,2,1,40,0,0
18514,-100,4,2,3,40,0,0
18695,-100,4,2,1,40,0,0
18876,-100,4,2,3,40,0,0
19057,-100,4,2,1,40,0,0
19237,-100,4,2,3,40,0,0
19418,-100,4,2,1,40,0,0
19599,-100,4,2,3,40,0,0
19779,-100,4,2,1,40,0,0
19960,-100,4,2,3,40,0,0
20141,-100,4,2,1,40,0,0
20322,-100,4,2,3,40,0,0
20502,-100,4,2,1,40,0,0
20683,-100,4,2,3,40,0,0
20864,-100,4,2,1,40,0,0
21044,-100,4,2,3,40,0,0
21406,-100,4,2,1,40,0,0
21767,-100,4,2,3,40,0,0
21948,-100,4,2,1,40,0,0
22310,-100,4,2,3,40,0,0
22852,-100,4,2,1,40,0,0
23032,-100,4,2,3,40,0,0
23213,-100,4,2,1,40,0,0
23394,-100,4,2,3,40,0,0
23575,-100,4,2,1,40,0,0
23755,-100,4,2,3,40,0,0
24297,-100,4,2,1,40,0,0
24659,-100,4,2,3,40,0,0
26105,-100,4,2,1,40,0,0
26828,-100,4,2,4,40,0,0
35502,-100,4,2,1,40,0,0
41285,-100,4,2,4,40,0,0
45442,-100,4,2,1,50,0,0
45803,-100,4,2,1,60,0,0
47069,-83.3333333333333,4,2,1,70,0,1
77972,-83.3333333333333,4,2,1,50,0,0
78695,-83.3333333333333,4,2,1,70,0,1
87189,-83.3333333333333,4,2,99,30,0,0

[Colours]
Combo1 : 0,128,255
Combo2 : 255,0,0
Combo3 : 255,238,23
Combo4 : 255,128,128

[HitObjects]
141,102,804,5,0,1:0:0:0:
371,168,1346,1,0,1:0:0:0:
217,213,1707,2,0,P|192:263|230:358,1,160,2|0,0:0|0:0,0:0:0:0:
306,346,2249,5,0,1:0:0:0:
276,107,2791,1,0,1:0:0:0:
144,198,3153,2,0,P|93:207|5:143,1,160,2|0,0:0|0:0,0:0:0:0:
11,69,3695,5,0,0:0:0:0:
11,69,3876,2,0,P|54:64|106:54,1,80,2|0,0:0|0:0,0:0:0:0:
166,32,4237,2,0,P|200:63|184:183,1,160,2|0,0:0|0:0,0:0:0:0:
148,233,4779,1,0,0:0:0:0:
148,233,4960,2,0,P|134:272|153:337,1,80,2|0,0:0|0:0,0:0:0:0:
213,280,5322,5,0,0:0:0:0:
290,296,5502,1,0,0:0:0:0:
369,287,5683,1,0,0:0:0:0:
440,251,5864,1,0,0:0:0:0:
474,178,6044,2,0,L|467:116,5,40,0|0|0|0|0|0,1:0|1:0|1:0|0:0|0:0|0:0,0:0:0:0:
462,98,6587,6,0,L|366:88,1,80,4|0,0:0|0:0,0:0:0:0:
327,31,6948,2,0,P|274:13|186:68,1,160,8|0,0:0|0:0,0:0:0:0:
123,107,7490,1,0,0:0:0:0:
156,179,7671,2,0,P|206:170|271:164,1,80,8|2,0:0|0:0,0:0:0:0:
313,152,8032,6,0,P|304:231|290:310,1,160,0|8,0:0|0:0,0:0:0:0:
290,310,8575,1,0,0:0:0:0:
223,354,8755,2,0,P|184:368|129:359,1,80,0|0,0:0|0:0,0:0:0:0:
73,330,9117,2,0,P|59:291|68:236,1,80,8|2,0:0|0:0,0:0:0:0:
109,188,9478,6,0,P|116:138|19:78,2,160,0|8|0,0:0|0:0|0:0,0:0:0:0:
141,261,10382,1,0,0:0:0:0:
217,284,10563,2,0,L|313:275,1,80,8|2,0:0|0:0,0:0:0:0:
376,269,10924,5,4,0:0:0:0:
440,122,11285,1,8,0:0:0:0:
294,54,11647,2,0,B|257:36|257:36|173:48,2,120,4|8|4,0:3|0:3|0:3,0:0:0:0:
356,104,12370,6,0,L|346:201,1,80,4|2,0:0|0:0,0:0:0:0:
302,249,12731,2,0,L|310:328,1,80,2|2,0:0|0:0,0:0:0:0:
385,358,13093,1,2,0:0:0:0:
385,358,13273,2,0,P|438:370|498:270,1,160,2|2,0:0|0:0,0:0:0:0:
471,223,13816,6,0,L|387:212,1,80,2|2,0:0|0:0,0:0:0:0:
328,261,14177,2,0,L|244:250,1,80,2|2,0:0|0:0,0:0:0:0:
181,207,14538,1,2,0:0:0:0:
181,207,14719,2,0,P|148:246|164:358,1,160,2|2,0:0|0:0,0:0:0:0:
230,379,15261,6,0,P|290:371|400:360,2,160,2|2|2,0:0|0:0|0:0,0:0:0:0:
156,348,16165,2,0,P|111:343|52:339,1,80,2|2,0:0|0:0,0:0:0:0:
18,284,16526,6,0,P|63:299|149:218,1,160,2|2,0:0|0:0,0:0:0:0:
153,156,17069,1,2,0:0:0:0:
101,95,17249,2,0,L|74:90,3,26.6666666666667,2|2|2|2,0:0|0:0|0:0|0:0,0:0:0:0:
179,77,17611,2,0,P|189:35|182:-7,2,80,2|2|2,0:0|0:0|0:0,0:0:0:0:
233,177,18153,6,0,L|331:168,1,80,2|2,0:0|0:0,0:0:0:0:
379,125,18514,1,2,0:0:0:0:
379,125,18695,1,2,0:0:0:0:
449,163,18876,1,2,0:0:0:0:
449,163,19057,6,0,P|481:207|456:318,1,160,2|2,0:0|0:0,0:0:0:0:
436,332,19508,1,0,0:0:0:0:
436,332,19599,2,0,L|341:325,1,80,2|2,0:0|0:0,0:0:0:0:
316,317,19870,1,0,0:0:0:0:
316,317,19960,2,0,P|276:321|234:362,1,80,2|2,0:0|0:0,0:0:0:0:
173,381,20322,1,2,0:0:0:0:
94,365,20502,2,0,P|61:324|80:206,1,160,2|2,0:0|0:0,0:0:0:0:
103,149,21044,5,2,0:0:0:0:
244,73,21406,1,2,0:0:0:0:
388,141,21767,1,2,0:0:0:0:
369,218,21948,1,2,0:0:0:0:
311,162,22129,1,0,0:0:0:0:
448,199,22310,6,0,P|441:254|342:296,1,160,2|2,0:0|0:0,0:0:0:0:
267,343,22852,2,0,P|273:304|282:265,1,80,2|2,0:0|0:0,0:0:0:0:
207,236,23213,2,0,P|200:196|192:157,2,80,2|2|2,0:0|0:0|0:0,0:0:0:0:
79,332,23936,6,0,P|39:294|55:182,1,160,0|2,0:0|0:0,0:0:0:0:
138,66,24659,1,2,0:0:0:0:
212,36,24840,1,2,0:0:0:0:
268,92,25020,1,0,0:0:0:0:
340,58,25201,6,0,L|505:44,1,160,2|2,0:0|0:0,0:0:0:0:
471,135,25743,2,0,P|427:138|391:141,1,80,0|2,0:0|0:0,0:0:0:0:
308,254,26105,2,0,P|343:273|443:199,2,160,2|2|8,0:0|0:0|0:0,0:0:0:0:
243,206,27008,5,2,0:0:0:0:
165,227,27189,2,0,P|149:289|152:399,2,160,8|8|8,0:0|0:0|0:0,0:0:0:0:
217,165,28093,1,2,0:0:0:0:
271,106,28273,6,0,P|233:89|164:96,1,80,10|0,0:0|0:0,0:0:0:0:
135,32,28635,2,0,P|118:70|125:139,1,80,10|0,0:0|0:0,0:0:0:0:
63,168,28996,2,0,P|101:185|170:178,1,80,10|0,0:0|0:0,0:0:0:0:
199,242,29358,2,0,P|216:204|209:135,1,80,10|0,0:0|0:0,0:0:0:0:
195,87,29719,6,0,P|151:72|68:158,2,160,10|10|10,0:0|0:0|0:0,0:0:0:0:
271,113,30623,2,0,B|310:121|310:121|361:104,1,80,10|0,0:0|0:0,0:0:0:0:
458,71,30984,6,0,L|442:237,1,160,10|8,0:0|0:0,0:0:0:0:
398,297,31526,1,2,0:0:0:0:
398,297,31707,1,8,0:0:0:0:
317,300,31888,1,0,0:0:0:0:
317,300,32069,1,10,0:0:0:0:
255,350,32249,1,0,0:0:0:0:
255,350,32430,1,10,0:0:0:0:
176,332,32611,6,0,L|73:321,1,80,10|8,0:0|0:0,0:0:0:0:
19,299,32972,2,0,P|-1:252|26:145,1,160,2|2,0:0|0:0,0:0:0:0:
77,91,33514,1,0,0:0:0:0:
144,134,33695,2,0,L|236:123,1,80,2|0,0:0|0:0,0:0:0:0:
319,89,34057,6,0,L|308:181,1,80,2|0,0:0|0:0,0:0:0:0:
380,242,34418,2,0,L|300:251,1,80,2|0,0:0|0:0,0:0:0:0:
211,326,34779,2,0,P|257:332|297:340,1,80,2|0,0:0|0:0,0:0:0:0:
366,364,35141,1,2,0:0:0:0:
445,354,35322,1,0,0:0:0:0:
507,305,35502,5,8,0:0:0:0:
456,153,35864,1,0,0:0:0:0:
456,153,36044,1,8,0:0:0:0:
310,221,36406,1,0,0:0:0:0:
310,221,36587,1,8,0:0:0:0:
254,71,36948,5,0,0:0:0:0:
254,71,37129,2,0,P|194:97|98:36,1,160,8|0,0:0|0:0,0:0:0:0:
33,42,37671,2,0,P|23:84|19:144,1,80,8|0,0:0|0:0,0:0:0:0:
49,194,38032,2,0,P|59:236|63:296,1,80,8|0,0:0|0:0,0:0:0:0:
33,347,38394,5,8,0:0:0:0:
33,347,38575,1,0,0:0:0:0:
188,310,38936,1,8,0:0:0:0:
188,310,39117,1,0,0:0:0:0:
338,364,39478,1,8,0:0:0:0:
338,364,39659,1,0,0:0:0:0:
493,327,40020,5,8,0:0:0:0:
493,327,40201,2,0,L|503:242,1,80,0|0,0:0|0:0,0:0:0:0:
429,213,40563,2,0,L|416:128,1,80,8|8,0:0|0:0,0:0:0:0:
341,106,40924,2,0,L|307:27,1,80,8|8,0:0|0:0,0:0:0:0:
234,60,41285,6,0,P|176:40|56:52,1,160,10|10,0:0|0:0,0:0:0:0:
60,203,42008,2,0,P|118:223|238:211,1,160,10|10,0:0|0:0,0:0:0:0:
289,189,42550,1,0,0:0:0:0:
345,246,42731,6,0,P|308:299|201:287,1,160,10|10,0:0|0:0,0:0:0:0:
161,244,43273,1,0,0:0:0:0:
102,299,43454,2,0,P|86:341|90:383,1,80,10|0,0:0|0:0,0:0:0:0:
81,218,43816,2,0,P|82:178|66:141,1,80,10|0,0:0|0:0,0:0:0:0:
18,77,44177,6,0,P|60:45|175:65,1,160,10|10,0:0|0:0,0:0:0:0:
284,158,44900,1,10,0:0:0:0:
284,158,45081,1,10,0:0:0:0:
418,71,45442,6,0,L|433:248,1,160,8|8,0:0|0:0,0:0:0:0:
390,317,45984,1,8,0:0:0:0:
301,354,46165,1,8,0:0:0:0:
210,322,46346,1,8,0:0:0:0:
125,366,46526,1,0,0:0:0:0:
125,366,46617,1,8,0:0:0:0:
125,366,46707,2,0,L|65:355,3,40,8|0|0|0,0:0|0:0|0:0|0:0,0:0:0:0:
38,369,47069,6,0,P|24:325|43:248,1,95.9999970703126,4|0,1:0|0:0,0:0:0:0:
75,192,47430,2,0,L|202:203,1,95.9999970703126,8|2,0:0|0:0,0:0:0:0:
250,253,47791,1,0,0:0:0:0:
282,162,47972,1,2,0:0:0:0:
214,94,48153,1,8,0:0:0:0:
281,25,48334,1,2,0:0:0:0:
374,42,48514,6,0,P|436:72|430:198,1,191.999994140625,0|8,0:0|0:0,0:0:0:0:
421,278,49057,2,0,P|323:266|224:256,1,191.999994140625,2|2,0:0|0:0,0:0:0:0:
136,276,49599,1,8,0:0:0:0:
136,276,49779,1,2,0:0:0:0:
54,225,49960,6,0,P|44:168|40:114,1,95.9999970703126,0|2,0:0|0:0,0:0:0:0:
124,82,50322,2,0,P|134:139|138:193,1,95.9999970703126,8|2,0:0|0:0,0:0:0:0:
136,276,50683,2,0,P|193:266|247:262,1,95.9999970703126,0|2,0:0|0:0,0:0:0:0:
372,361,51044,2,0,P|324:352|277:347,1,95.9999970703126,8|2,0:0|0:0,0:0:0:0:
230,262,51406,5,4,0:0:0:0:
260,170,51587,2,0,P|308:147|373:163,1,95.9999970703126,0|0,0:0|0:0,0:0:0:0:
468,209,51948,2,0,P|403:272|320:237,1,191.999994140625,8|8,0:0|0:0,0:0:0:0:
281,99,52490,1,12,0:0:0:0:
281,99,52671,1,8,0:0:0:0:
360,44,52852,6,0,L|468:58,1,95.9999970703126,4|0,1:0|0:0,0:0:0:0:
281,99,53213,2,0,L|185:86,1,95.9999970703126,8|2,0:0|0:0,0:0:0:0:
105,32,53575,1,0,0:0:0:0:
27,87,53755,1,2,0:0:0:0:
73,171,53936,1,8,0:0:0:0:
18,249,54116,1,2,0:0:0:0:
52,338,54297,6,0,P|96:363|226:299,1,191.999994140625,0|8,0:0|0:0,0:0:0:0:
296,371,54840,2,0,L|492:347,1,191.999994140625,2|2,0:0|0:0,0:0:0:0:
511,254,55382,1,8,0:0:0:0:
445,73,55743,5,8,0:0:0:0:
256,37,56105,1,8,0:0:0:0:
326,215,56466,1,8,0:0:0:0:
137,179,56828,1,8,0:0:0:0:
137,179,57008,6,0,B|67:167|67:167|91:296,1,191.999994140625,12|8,0:0|0:0,0:0:0:0:
110,379,57550,1,8,0:0:0:0:
180,313,57731,1,8,0:0:0:0:
180,313,57822,1,8,0:0:0:0:
180,313,57912,2,0,P|227:297|305:315,1,95.9999970703126,8|8,0:0|0:0,0:0:0:0:
399,326,58273,2,0,L|453:319,3,47.9999985351563,8|8|8|8,0:0|0:0|0:0|0:0,0:0:0:0:
480,290,58635,6,0,P|489:236|469:191,1,95.9999970703126,4|0,1:0|0:0,0:0:0:0:
428,114,58996,1,8,0:0:0:0:
339,151,59177,1,2,0:0:0:0:
339,151,59267,1,0,0:0:0:0:
339,151,59358,2,0,L|225:140,1,95.9999970703126,0|2,0:0|0:0,0:0:0:0:
155,102,59719,2,0,B|148:53|148:53|168:9,1,95.9999970703126,8|2,0:0|0:0,0:0:0:0:
168,200,60081,6,0,P|111:223|15:144,1,191.999994140625,0|8,0:0|0:0,0:0:0:0:
108,124,60623,2,0,L|46:319,1,191.999994140625,2|2,0:0|0:0,0:0:0:0:
111,381,61165,1,8,0:0:0:0:
194,333,61346,1,2,0:0:0:0:
284,363,61526,6,0,L|387:375,1,95.9999970703126,0|2,0:0|0:0,0:0:0:0:
464,288,61888,2,0,L|369:277,1,95.9999970703126,8|2,0:0|0:0,0:0:0:0:
311,174,62249,2,0,L|414:186,1,95.9999970703126,0|2,0:0|0:0,0:0:0:0:
491,100,62611,2,0,L|395:88,1,95.9999970703126,8|2,0:0|0:0,0:0:0:0:
313,38,62972,5,8,0:0:0:0:
224,75,63153,2,0,P|208:128|226:196,1,95.9999970703126,0|0,0:0|0:0,0:0:0:0:
247,257,63514,2,0,P|215:304|60:287,1,191.999994140625,8|8,0:0|0:0,0:0:0:0:
45,198,64057,2,0,L|99:190,3,47.9999985351563,8|8|8|8,0:0|0:0|0:0|0:0,0:0:0:0:
137,174,64418,6,0,L|158:62,1,95.9999970703126,4|0,1:0|0:0,0:0:0:0:
236,29,64779,2,0,P|288:11|379:109,2,191.999994140625,8|2|8,0:0|0:0|0:0,0:0:0:0:
154,79,65683,1,0,0:0:0:0:
229,169,65864,5,2,0:0:0:0:
35,207,66225,1,8,0:0:0:0:
205,281,66587,5,2,0:0:0:0:
91,299,66767,1,0,0:0:0:0:
133,191,66948,1,10,0:0:0:0:
57,103,67129,1,0,0:0:0:0:
170,81,67310,5,8,0:0:0:0:
397,118,67671,1,8,0:0:0:0:
353,343,68032,1,8,0:0:0:0:
126,306,68393,1,8,0:0:0:0:
126,306,68575,6,0,P|159:265|301:285,1,191.999994140625,12|8,0:0|0:0,0:0:0:0:
368,321,69117,1,8,0:0:0:0:
445,264,69297,1,8,0:0:0:0:
445,264,69388,1,8,0:0:0:0:
445,264,69478,2,0,L|460:160,2,95.9999970703126,8|8|8,0:0|0:0|0:0,0:0:0:0:
430,359,70020,1,4,0:0:0:0:
142,375,70563,6,0,P|121:328|137:258,1,95.9999970703126,10|0,0:0|0:0,0:0:0:0:
28,275,70924,2,0,P|46:226|107:188,1,95.9999970703126,2|0,0:0|0:0,0:0:0:0:
20,122,71285,2,0,P|67:100|137:117,1,95.9999970703126,10|0,0:0|0:0,0:0:0:0:
197,147,71647,6,0,P|253:164|346:75,2,191.999994140625,2|8|0,0:0|0:0|0:0,0:0:0:0:
108,109,72550,1,8,0:0:0:0:
37,173,72731,1,0,0:0:0:0:
65,264,72912,1,8,0:0:0:0:
65,264,73273,6,0,P|112:273|160:287,1,95.9999970703126,8|0,0:0|0:0,0:0:0:0:
187,378,73635,2,0,L|311:359,1,95.9999970703126,8|8,0:0|0:0,0:0:0:0:
376,345,73996,1,0,0:0:0:0:
376,345,74177,1,0,0:0:0:0:
469,366,74358,6,0,P|496:293|442:186,1,191.999994140625,10|8,0:0|0:0,0:0:0:0:
414,104,74900,2,0,P|378:127|355:188,1,95.9999970703126,8|8,0:0|0:0,0:0:0:0:
353,222,75171,1,8,0:0:0:0:
353,222,75261,2,0,L|250:203,1,95.9999970703126,8|0,0:0|0:0,0:0:0:0:
181,146,75623,1,8,0:0:0:0:
95,189,75803,1,0,0:0:0:0:
30,118,75984,1,4,0:3:0:0:
30,118,76346,6,0,P|36:63|50:7,1,95.9999970703126,12|0,0:0|0:0,0:0:0:0:
124,77,76707,2,0,P|156:32|196:-9,1,95.9999970703126,12|0,0:0|0:0,0:0:0:0:
224,90,77069,2,0,P|274:67|330:51,1,95.9999970703126,12|0,0:0|0:0,0:0:0:0:
363,138,77430,5,8,0:0:0:0:
416,240,77611,1,8,0:0:0:0:
352,335,77791,1,8,0:0:0:0:
352,335,78153,6,0,L|238:347,2,95.9999970703126,0|0|0,0:0|0:0|0:0,0:0:0:0:
442,302,78695,6,0,P|404:253|280:269,1,191.999994140625,4|2,0:0|0:0,0:0:0:0:
190,282,79237,2,0,P|182:233|188:177,1,95.9999970703126,8|0,0:0|0:0,0:0:0:0:
208,93,79599,1,0,0:0:0:0:
117,124,79779,2,0,L|9:143,1,95.9999970703126,2|8,0:0|0:0,0:0:0:0:
15,237,80141,6,0,B|-4:303|-4:303|23:370|120:362,1,191.999994140625,2|0,0:0|0:0,0:0:0:0:
185,329,80683,2,0,P|220:296|353:319,1,191.999994140625,8|2,0:0|0:0,0:0:0:0:
437,359,81225,1,0,0:0:0:0:
437,262,81406,1,8,0:0:0:0:
491,182,81587,1,4,0:0:0:0:
491,182,81948,6,0,L|476:78,2,95.9999970703126,0|8|0,0:0|0:0|0:0,0:0:0:0:
380,287,82490,2,0,L|393:191,1,95.9999970703126,0|2,0:0|0:0,0:0:0:0:
320,128,82852,1,8,0:0:0:0:
320,128,83032,1,4,0:0:0:0:
140,58,83394,6,0,P|78:53|20:162,1,191.999994140625,2|0,0:0|0:0,0:0:0:0:
24,249,83936,2,0,P|71:236|146:226,1,95.9999970703126,0|2,0:0|0:0,0:0:0:0:
207,193,84297,2,0,P|254:200|300:213,1,95.9999970703126,8|4,0:0|0:0,0:0:0:0:
451,333,84840,5,2,0:0:0:0:
359,359,85020,1,8,0:0:0:0:
382,265,85201,1,0,0:0:0:0:
298,217,85382,2,0,P|337:178|410:179,1,95.9999970703126,0|2,0:0|0:0,0:0:0:0:
462,211,85743,1,8,0:0:0:0:
472,306,85924,6,0,P|431:349|305:328,1,191.999994140625,4|12,0:0|0:0,0:0:0:0:
265,247,86466,2,0,L|286:47,1,191.999994140625,12|8,0:0|0:0,0:0:0:0:
106,217,87189,1,4,1:2:0:0:
