osu file format v14

[General]
AudioFilename: audio.mp3
AudioLeadIn: 0
PreviewTime: 53231
Countdown: 0
SampleSet: Soft
StackLeniency: 0.7
Mode: 0
LetterboxInBreaks: 0
WidescreenStoryboard: 0

[Editor]
DistanceSpacing: 0.7
BeatDivisor: 4
GridSize: 16
TimelineZoom: 2.5

[Metadata]
Title:Arakajime Ushinawareta Bokura no Ballad
TitleUnicode:予め失われた僕らのバラッド
Artist:EARPHONES
ArtistUnicode:イヤホンズ
Creator:egg and cheese
Version:Blood and Despair
Source:神獄塔 メアリスケルター
Tags:video game japanese female vocal vocalist deep fried ice lasse rolniczy icekalt asaiga yukiyo compile heart idea factory International Mary Skelter Nightmares
BeatmapID:1700561
BeatmapSetID:810537

[Difficulty]
HPDrainRate:6
CircleSize:4
OverallDifficulty:8.7
ApproachRate:9.5
SliderMultiplier:2
SliderTickRate:1

[Events]
//Background and Video events
0,0,"balladbg.jpg",0,0
//Break Periods
//Storyboard Layer 0 (Background)
//Storyboard Layer 1 (Fail)
//Storyboard Layer 2 (Pass)
//Storyboard Layer 3 (Foreground)
//Storyboard Sound Samples

[TimingPoints]
1716,303.030303030303,4,2,1,70,1,0
1716,-200,4,2,1,70,0,0
10806,-100,4,2,1,70,0,0
21109,-100,4,2,1,70,0,0
29594,-150.15015015015,4,2,1,70,0,0
29897,-100,4,2,1,70,0,0
30200,-75.187969924812,4,2,1,70,0,0
30503,-66.6666666666667,4,2,1,70,0,0
30806,-100,4,2,1,70,0,0
40503,-133.333333333333,4,2,1,70,0,0
48079,-100,4,2,1,70,0,0
48382,-80,4,2,1,70,0,0
48685,-66.6666666666667,4,2,1,70,0,0
48988,-100,4,2,1,70,0,0
53837,-100,4,2,1,70,0,1
73231,-100,4,2,1,70,0,0
84746,-66.6666666666667,4,2,1,70,0,0

[Colours]
Combo1 : 58,50,163
Combo2 : 140,194,198

[HitObjects]
436,65,1716,5,0,3:0:0:0:
430,97,2928,1,2,0:3:0:0:
424,130,3382,1,4,0:3:0:0:
418,163,3837,1,8,0:3:0:0:
339,20,4140,5,0,3:0:0:0:
226,85,4897,1,8,0:0:0:0:
222,103,4973,1,8,0:0:0:0:
218,121,5049,1,8,0:0:0:0:
214,139,5125,1,8,0:0:0:0:
210,157,5200,1,8,0:0:0:0:
206,175,5276,1,8,0:0:0:0:
202,193,5352,5,8,0:0:0:0:
131,87,5503,1,0,3:0:0:0:
286,225,5655,1,0,3:0:0:0:
286,225,5806,1,8,0:0:0:0:
88,290,5958,5,0,3:0:0:0:
272,137,6109,1,0,3:0:0:0:
272,137,6261,1,8,0:0:0:0:
216,374,6564,5,4,3:2:0:0:
54,269,7322,1,0,3:0:0:0:
58,251,7397,1,0,3:0:0:0:
62,233,7474,1,8,0:0:0:0:
66,215,7550,1,8,0:0:0:0:
70,197,7625,1,8,0:3:0:0:
289,111,7776,5,8,3:2:0:0:
283,86,7851,1,8,0:2:0:0:
271,65,7927,1,8,0:2:0:0:
252,48,8003,1,8,0:2:0:0:
229,39,8079,1,8,3:2:0:0:
204,37,8154,1,8,0:2:0:0:
180,43,8230,1,8,0:2:0:0:
159,56,8306,1,8,0:2:0:0:
143,75,8383,5,8,3:2:0:0:
171,107,8458,1,8,0:2:0:0:
184,149,8534,1,8,0:2:0:0:
179,192,8610,1,8,0:2:0:0:
157,229,8686,1,8,3:2:0:0:
122,255,8761,1,8,0:2:0:0:
80,264,8837,1,8,0:2:0:0:
37,255,8913,1,8,0:2:0:0:
2,230,8989,5,8,3:2:0:0:
142,374,9140,1,8,0:0:0:0:
142,374,9291,1,8,0:0:0:0:
82,152,9443,1,8,0:0:0:0:
12,370,9594,5,8,0:0:0:0:
202,186,9746,1,8,0:2:0:0:
198,204,9822,1,8,0:2:0:0:
194,222,9897,5,8,0:2:0:0:
235,195,9972,1,8,0:2:0:0:
284,189,10048,1,8,0:2:0:0:
331,206,10124,1,8,0:2:0:0:
366,241,10200,5,8,3:2:0:0:
144,365,10655,1,4,0:3:0:0:
144,365,10731,1,8,0:3:0:0:
144,365,10806,6,0,P|164:296|124:202,1,150,8|0,0:0|0:0,0:0:0:0:
67,168,11109,5,8,0:0:0:0:
114,183,11184,1,8,0:0:0:0:
164,185,11260,1,8,0:0:0:0:
212,173,11336,1,8,0:0:0:0:
255,148,11412,6,0,P|268:78|231:1,1,150,4|0,3:2|0:0,0:0:0:0:
61,93,11715,2,0,L|161:84,1,100,8|0,0:0|0:0,0:0:0:0:
349,67,12019,1,0,3:0:0:0:
349,67,12170,1,0,3:0:0:0:
298,251,12322,1,8,0:0:0:0:
439,154,12473,1,0,0:0:0:0:
223,195,12625,6,0,P|205:269|239:319,1,100,0|0,3:0|0:0,0:0:0:0:
373,307,12928,2,0,P|391:233|357:183,1,100,8|0,0:0|3:0,0:0:0:0:
280,374,13231,1,0,0:0:0:0:
280,374,13382,1,0,3:0:0:0:
313,152,13534,1,8,0:0:0:0:
298,251,13685,1,8,0:0:0:0:
449,92,13837,6,0,B|394:64|354:92|354:92|313:119|259:92,1,200,0|8,3:0|0:0,0:0:0:0:
151,36,14291,1,0,0:0:0:0:
156,156,14443,1,0,3:0:0:0:
156,156,14594,1,0,3:0:0:0:
31,41,14746,1,8,0:0:0:0:
100,261,14897,1,0,0:0:0:0:
258,91,15049,6,0,L|373:73,1,100,0|0,3:0|0:0,0:0:0:0:
156,156,15352,2,0,L|41:138,1,100,8|0,0:0|3:0,0:0:0:0:
290,176,15655,1,0,0:0:0:0:
290,176,15806,1,0,3:0:0:0:
13,78,15958,2,0,P|35:156|25:243,1,150,8|0,0:0|0:0,0:0:0:0:
0,301,16261,6,0,P|72:265|178:284,1,150,4|0,3:2|0:0,0:0:0:0:
240,333,16564,2,0,L|355:315,1,100,8|0,0:0|0:0,0:0:0:0:
472,296,16867,1,0,3:0:0:0:
472,296,17019,1,0,3:0:0:0:
301,186,17170,1,8,0:0:0:0:
420,370,17322,1,0,0:0:0:0:
495,184,17473,6,0,P|509:141|484:76,1,100,0|0,3:0|3:0,0:0:0:0:
301,186,17776,2,0,P|331:219|400:230,1,100,8|0,0:0|3:0,0:0:0:0:
396,16,18079,2,0,P|351:25|307:79,1,100,0|0,0:0|3:0,0:0:0:0:
410,131,18382,1,8,0:0:0:0:
410,131,18458,1,8,0:0:0:0:
410,131,18534,1,8,0:3:0:0:
384,319,18685,5,8,0:0:0:0:
313,62,18837,1,0,3:0:0:0:
453,243,18988,1,0,3:0:0:0:
196,314,19140,5,8,0:0:0:0:
391,344,19291,1,0,3:0:0:0:
305,36,19443,1,0,3:0:0:0:
480,272,19594,2,0,L|496:158,1,100,8|0,0:0|0:0,0:0:0:0:
391,23,19897,5,8,0:0:0:0:
305,357,20049,1,0,3:0:0:0:
222,9,20200,5,8,0:0:0:0:
480,363,20352,1,8,0:0:0:0:
407,121,20655,1,0,3:0:0:0:
452,187,20806,6,0,P|400:162|290:166,1,150,8|0,0:0|0:0,0:0:0:0:
221,245,21109,6,0,P|150:255|109:241,1,100,0|0,3:0|0:0,0:0:0:0:
223,159,21412,1,8,0:0:0:0:
307,247,21564,1,0,0:0:0:0:
223,335,21716,2,0,P|152:345|111:331,1,100,0|0,3:0|3:0,0:0:0:0:
309,160,22019,2,0,P|380:150|421:164,1,100,8|0,0:0|0:0,0:0:0:0:
459,380,22322,6,0,P|456:305|475:208,1,150,0|0,3:0|0:0,0:0:0:0:
500,157,22625,1,8,0:0:0:0:
263,261,22776,2,0,P|266:186|247:89,1,150,0|0,3:0|0:0,0:0:0:0:
222,38,23079,1,0,3:0:0:0:
374,233,23231,2,0,L|364:341,1,100,8|0,0:0|0:0,0:0:0:0:
148,293,23534,5,0,3:0:0:0:
87,142,23685,1,0,0:0:0:0:
193,187,23837,1,8,0:0:0:0:
42,248,23988,1,0,0:0:0:0:
111,375,24140,2,0,P|179:376|210:361,1,100,0|0,3:0|3:0,0:0:0:0:
73,144,24443,2,0,P|38:202|35:236,1,100,8|0,0:0|0:0,0:0:0:0:
221,269,24746,6,0,P|283:262|385:272,1,150,0|0,3:0|0:0,0:0:0:0:
470,311,25049,1,8,0:0:0:0:
422,209,25200,2,0,B|394:154|422:114|422:114|449:73|422:19,1,200,0|0,3:0|3:0,0:0:0:0:
502,164,25655,1,8,0:0:0:0:
335,74,25806,1,8,0:0:0:0:
335,74,25882,1,8,0:0:0:0:
335,74,25958,5,0,3:0:0:0:
373,297,26109,1,0,0:0:0:0:
507,91,26261,1,8,0:0:0:0:
410,368,26412,1,0,0:0:0:0:
336,194,26564,2,0,P|265:184|224:198,1,100,0|0,3:0|3:0,0:0:0:0:
0,227,26867,2,0,P|71:237|112:223,1,100,8|0,0:0|0:0,0:0:0:0:
52,129,27170,5,0,3:0:0:0:
79,353,27322,1,0,0:0:0:0:
276,102,27473,1,8,0:0:0:0:
303,326,27625,1,0,0:0:0:0:
174,165,27776,6,0,L|164:65,1,100,0|0,3:0|3:0,0:0:0:0:
191,339,28079,1,8,0:0:0:0:
283,199,28231,1,8,0:0:0:0:
304,196,28306,1,8,0:0:0:0:
325,193,28382,5,0,3:0:0:0:
132,262,28534,1,0,0:0:0:0:
405,178,28685,1,8,0:2:0:0:
73,185,28837,1,0,0:0:0:0:
379,260,28988,2,0,P|439:257|482:218,1,100,0|0,3:0|3:0,0:0:0:0:
230,142,29291,2,0,P|202:195|214:252,1,100,8|0,0:0|0:0,0:0:0:0:
354,351,29594,6,0,P|382:298|370:241,1,100,0|0,3:0|0:0,0:0:0:0:
269,352,29897,6,0,P|223:293|225:221,1,150,8|0,0:0|0:0,0:0:0:0:
367,359,30200,6,0,P|440:292|454:196,1,199.499991780854,0|0,3:0|0:0,0:0:0:0:
254,361,30503,6,0,P|159:301|125:198,1,225.000008583069,8|0,0:0|0:0,0:0:0:0:
67,143,30806,6,0,P|151:152|254:135,1,150,0|0,3:0|0:0,0:0:0:0:
339,111,31109,2,0,L|352:-4,1,100,8|0,0:0|0:0,0:0:0:0:
512,247,31412,2,0,P|428:256|325:239,1,150,0|0,3:0|0:0,0:0:0:0:
240,215,31715,2,0,L|227:100,1,100,8|0,0:0|0:0,0:0:0:0:
190,384,32019,5,0,3:0:0:0:
83,355,32170,1,0,0:0:0:0:
239,199,32322,1,8,0:0:0:0:
267,306,32473,1,0,0:0:0:0:
55,249,32625,1,0,3:0:0:0:
133,171,32776,1,0,3:0:0:0:
267,306,32928,2,0,L|382:293,1,100,8|0,0:0|0:0,0:0:0:0:
468,351,33231,6,0,P|447:257|461:157,1,150,0|0,3:0|0:0,0:0:0:0:
496,119,33534,1,8,0:0:0:0:
267,306,33685,2,0,P|288:212|274:112,1,150,0|0,3:0|0:0,0:0:0:0:
239,74,33988,1,0,0:0:0:0:
410,36,34140,2,0,P|463:27|516:53,1,100,8|0,0:0|0:0,0:0:0:0:
285,158,34443,6,0,P|214:157|133:171,1,150,0|0,3:0|0:0,0:0:0:0:
40,207,34746,1,8,0:0:0:0:
175,258,34897,2,0,B|230:230|270:258|270:258|311:285|365:258,1,200,0|0,3:0|3:0,0:0:0:0:
483,219,35352,1,8,0:0:0:0:
219,339,35503,1,0,0:0:0:0:
451,327,35655,6,0,B|464:225|464:225|424:108,1,200,0|8,3:0|0:0,0:0:0:0:
165,192,36109,2,0,P|266:181|336:198,1,150,0|0,3:0|0:0,0:0:0:0:
391,235,36412,1,0,3:0:0:0:
207,286,36564,2,0,P|151:294|101:274,1,100,8|0,0:0|0:0,0:0:0:0:
66,26,36867,6,0,P|73:110|51:202,1,150,0|0,3:0|0:0,0:0:0:0:
5,257,37170,1,8,0:0:0:0:
149,132,37322,2,0,B|240:100|240:100|342:113,1,200,0|0,3:0|3:0,0:0:0:0:
449,46,37776,2,0,L|464:164,1,100,8|0,0:0|0:0,0:0:0:0:
360,335,38079,5,0,3:0:0:0:
372,235,38231,1,0,0:0:0:0:
481,56,38382,1,8,0:0:0:0:
493,156,38534,1,0,0:0:0:0:
345,249,38685,2,0,P|289:236|222:255,1,100,0|0,3:0|0:0,0:0:0:0:
0,345,38988,2,0,P|56:358|123:339,1,100,8|0,0:0|0:0,0:0:0:0:
54,250,39291,5,0,3:0:0:0:
298,359,39443,1,8,0:0:0:0:
171,145,39594,1,8,0:0:0:0:
176,304,39746,1,0,3:0:0:0:
309,92,39897,5,8,0:0:0:0:
59,83,40049,1,8,0:0:0:0:
171,145,40200,1,4,0:3:0:0:
169,18,40352,1,8,0:3:0:0:
296,231,40503,5,0,3:0:0:0:
296,231,40655,1,0,3:0:0:0:
400,347,40958,1,0,3:0:0:0:
400,347,41034,1,0,3:0:0:0:
400,347,41109,2,0,P|400:232|408:194,1,150.000005722046,8|0,0:0|3:0,0:0:0:0:
504,153,41564,6,0,P|389:153|351:145,1,150.000005722046,0|0,3:0|3:0,0:0:0:0:
264,13,42019,2,0,P|289:63|285:98,1,75.0000028610231,0|0,0:0|3:0,0:0:0:0:
145,138,42322,2,0,P|161:105|191:83,1,75.0000028610231,8|0,0:0|0:0,0:0:0:0:
314,180,42625,2,0,P|258:176|229:155,1,75.0000028610231,8|0,0:0|0:0,0:0:0:0:
166,231,42928,5,0,3:0:0:0:
288,80,43079,1,0,3:0:0:0:
357,261,43231,1,0,0:0:0:0:
166,231,43382,1,0,3:0:0:0:
166,231,43458,1,8,0:0:0:0:
166,231,43534,2,0,P|116:222|67:236,1,75.0000028610231,8|0,0:0|0:0,0:0:0:0:
0,311,43837,2,0,P|50:320|99:306,1,75.0000028610231,0|8,3:0|0:0,0:0:0:0:
226,281,44140,6,0,P|212:191|223:137,1,112.500004291535,0|0,3:0|0:0,0:0:0:0:
265,99,44443,1,0,3:0:0:0:
370,185,44594,1,0,3:0:0:0:
493,120,44746,1,8,0:0:0:0:
360,99,44897,1,0,3:0:0:0:
380,271,45049,1,8,0:0:0:0:
509,218,45200,1,0,0:0:0:0:
336,347,45352,5,0,3:0:0:0:
336,347,45503,1,0,3:0:0:0:
158,204,45806,1,0,3:0:0:0:
158,204,45882,1,0,3:0:0:0:
158,204,45958,2,0,P|173:291|151:354,1,150.000005722046,8|0,0:0|3:0,0:0:0:0:
83,128,46412,6,0,P|170:113|233:135,1,150.000005722046,0|0,3:0|3:0,0:0:0:0:
332,187,46867,2,0,L|348:91,1,75.0000028610231,8|0,0:0|3:0,0:0:0:0:
497,184,47170,6,0,L|513:280,1,75.0000028610231,8|8,0:0|0:0,0:0:0:0:
493,344,47397,1,8,0:0:0:0:
490,367,47473,1,8,0:0:0:0:
416,185,47625,1,8,0:3:0:0:
335,332,47776,6,0,L|203:313,1,112.500004291535,0|0,3:0|0:0,0:0:0:0:
343,303,48079,6,0,L|199:255,1,150,8|0,0:0|0:0,0:0:0:0:
359,282,48382,6,0,L|194:193,1,187.5,0|0,3:0|0:0,0:0:0:0:
385,270,48685,6,0,L|208:131,1,225.000008583069,8|0,0:0|0:0,0:0:0:0:
419,264,48988,5,8,0:0:0:0:
195,339,49140,1,0,3:0:0:0:
332,148,49291,1,8,0:0:0:0:
335,383,49443,1,0,3:0:0:0:
193,193,49594,1,8,0:0:0:0:
484,347,49746,1,8,0:0:0:0:
493,309,49822,1,8,0:0:0:0:
504,272,49897,5,8,0:0:0:0:
464,241,49972,1,8,0:0:0:0:
449,195,50048,1,8,0:0:0:0:
461,147,50124,1,8,0:0:0:0:
498,114,50200,6,0,L|529:239,1,100,0|0,3:0|0:0,0:0:0:0:
237,261,50503,2,0,L|206:385,1,100,0|0,3:0|0:0,0:0:0:0:
196,114,50806,2,0,L|171:211,1,100,8|0,0:0|0:0,0:0:0:0:
457,260,51109,2,0,L|487:384,1,100,8|0,0:0|0:0,0:0:0:0:
295,72,51412,5,2,0:0:0:0:
336,78,51488,1,2,0:0:0:0:
298,95,51564,1,2,0:0:0:0:
339,102,51640,1,2,0:0:0:0:
301,119,51716,5,2,0:0:0:0:
342,125,51791,1,2,0:0:0:0:
305,143,51867,1,2,0:0:0:0:
346,149,51943,1,2,0:0:0:0:
308,167,52019,5,2,0:0:0:0:
349,173,52094,1,2,0:0:0:0:
311,190,52170,1,2,0:0:0:0:
352,197,52246,1,2,0:0:0:0:
315,214,52322,5,2,0:0:0:0:
356,220,52397,1,2,0:0:0:0:
318,238,52473,1,2,0:0:0:0:
359,244,52549,1,2,0:0:0:0:
321,262,52625,5,8,3:2:0:0:
280,233,52700,1,8,0:0:0:0:
231,224,52776,1,8,0:0:0:0:
182,234,52852,1,8,0:0:0:0:
142,262,52928,5,8,3:2:0:0:
193,208,53003,1,8,0:0:0:0:
212,137,53079,1,8,0:0:0:0:
196,64,53155,1,8,0:0:0:0:
147,8,53231,6,8,L|82:-3,1,50,8|8,3:2|0:2,0:2:0:0:
304,84,53382,2,8,L|369:95,1,50,8|8,0:2|0:2,0:2:0:0:
129,24,53534,2,8,L|64:13,1,50,8|8,3:2|0:2,0:2:0:0:
316,107,53685,2,8,L|381:118,1,50,8|8,0:2|0:2,0:2:0:0:
77,137,53837,5,4,3:2:0:0:
261,21,53988,1,0,3:0:0:0:
71,303,54140,1,8,0:0:0:0:
255,187,54291,2,0,B|310:159|350:187|350:187|391:214|445:187,1,200,0|0,3:0|3:0,0:0:0:0:
303,268,54746,2,0,L|292:389,1,100,8|0,0:0|0:0,0:0:0:0:
399,120,55049,6,0,L|408:20,1,100,0|0,3:0|3:0,0:0:0:0:
194,57,55352,2,0,P|180:136|203:180,1,100,8|0,0:0|0:0,0:0:0:0:
381,238,55655,2,0,P|319:186|269:184,1,100,0|0,3:0|3:0,0:0:0:0:
130,309,55958,2,0,P|205:281|232:239,1,100,8|0,0:0|0:0,0:0:0:0:
78,26,56261,6,0,L|61:244,1,200,0|8,3:0|0:0,0:0:0:0:
0,380,56716,1,0,3:0:0:0:
130,309,56867,2,0,P|186:291|247:310,1,100,0|0,0:0|3:0,0:0:0:0:
512,336,57170,2,0,P|456:354|395:335,1,100,8|0,0:0|0:0,0:0:0:0:
315,384,57473,6,0,L|330:184,1,200,0|8,3:0|0:0,0:0:0:0:
403,68,57928,1,0,0:0:0:0:
467,190,58079,1,0,3:0:0:0:
266,62,58231,1,0,3:0:0:0:
394,306,58382,1,8,0:0:0:0:
193,178,58534,1,8,0:0:0:0:
193,178,58609,1,8,0:0:0:0:
193,178,58685,5,0,3:0:0:0:
339,27,58837,1,0,3:0:0:0:
321,341,58988,1,8,0:0:0:0:
258,225,59140,2,0,P|210:213|80:238,1,150,0|0,3:0|0:0,0:0:0:0:
25,268,59443,1,0,3:0:0:0:
173,384,59594,2,0,L|185:267,1,100,8|0,0:0|0:0,0:0:0:0:
199,65,59897,5,0,3:0:0:0:
420,13,60049,1,0,3:0:0:0:
114,175,60200,1,8,0:0:0:0:
335,123,60352,2,0,P|357:217|345:290,1,150,0|0,3:0|0:0,0:0:0:0:
309,353,60655,1,0,3:0:0:0:
478,293,60806,1,8,0:0:0:0:
258,205,60958,1,8,0:0:0:0:
496,118,61109,5,0,3:0:0:0:
406,361,61261,1,0,0:0:0:0:
424,50,61412,1,8,0:0:0:0:
321,253,61564,2,0,P|218:226|134:249,1,150,0|0,3:0|0:0,0:0:0:0:
100,288,61867,1,0,3:0:0:0:
287,338,62019,2,0,P|353:340|388:318,1,100,8|0,0:0|0:0,0:0:0:0:
274,96,62322,6,0,L|259:205,1,100,0|0,3:0|3:0,0:0:0:0:
468,155,62625,1,8,0:0:0:0:
461,105,62700,1,8,0:0:0:0:
454,55,62776,1,8,0:0:0:0:
237,203,62928,6,8,L|229:251,1,50
376,114,63079,2,8,L|369:65,1,50
223,223,63231,2,8,L|215:271,1,50
362,134,63382,2,8,L|355:85,1,50
326,305,63534,5,4,3:2:0:0:
276,87,63685,1,0,0:0:0:0:
187,384,63837,1,8,0:0:0:0:
137,166,63988,2,0,P|96:109|-30:149,1,200,0|0,3:0|3:0,0:0:0:0:
92,247,64443,2,0,P|142:259|218:229,1,100,8|0,0:0|0:0,0:0:0:0:
426,140,64746,6,0,L|302:130,1,100,0|0,3:0|3:0,0:0:0:0:
268,301,65049,2,0,P|280:251|250:175,1,100,8|0,0:0|0:0,0:0:0:0:
80,116,65352,2,0,P|117:151|198:163,1,100,0|0,3:0|3:0,0:0:0:0:
334,45,65655,2,0,P|284:59|233:123,1,100,8|0,0:0|0:0,0:0:0:0:
423,338,65958,6,0,L|411:130,1,200,0|8,3:0|0:0,0:0:0:0:
453,24,66412,1,0,3:0:0:0:
323,185,66564,2,0,L|328:284,1,100,0|0,3:0|0:0,0:0:0:0:
512,269,66867,2,0,L|506:169,1,100,8|0,0:0|0:0,0:0:0:0:
239,69,67170,5,0,3:0:0:0:
266,347,67322,1,0,3:0:0:0:
245,213,67473,2,0,L|122:205,1,100,8|0,0:0|0:0,0:0:0:0:
412,31,67776,1,0,3:0:0:0:
385,309,67928,1,0,3:0:0:0:
406,175,68079,2,0,L|529:167,1,100,8|0,0:0|0:0,0:0:0:0:
239,69,68382,6,0,P|153:60|86:72,1,150,0|0,3:0|0:0,0:0:0:0:
4,106,68685,1,8,0:0:0:0:
96,162,68837,2,0,P|182:153|249:165,1,150,0|0,3:0|0:0,0:0:0:0:
331,199,69140,1,0,3:0:0:0:
15,189,69291,2,0,P|21:247|6:309,1,100,8|0,0:0|0:0,0:0:0:0:
116,365,69594,5,0,3:0:0:0:
171,153,69746,1,0,3:0:0:0:
320,375,69897,1,8,0:0:0:0:
127,216,70049,2,0,P|139:156|118:47,1,150,0|0,3:0|0:0,0:0:0:0:
65,0,70352,1,0,3:0:0:0:
234,56,70503,2,0,P|289:61|349:46,1,100,8|0,0:0|0:0,0:0:0:0:
456,23,70806,6,0,P|444:139|454:174,1,150,0|0,3:0|0:0,0:0:0:0:
496,252,71109,1,8,0:0:0:0:
399,384,71261,2,0,P|411:268|401:233,1,150,0|0,3:0|0:0,0:0:0:0:
359,155,71564,1,0,3:0:0:0:
287,352,71715,1,8,0:0:0:0:
180,182,71867,1,8,0:0:0:0:
170,166,71943,1,8,0:0:0:0:
160,150,72019,6,0,L|142:268,1,100,0|0,3:0|3:0,0:0:0:0:
361,33,72322,2,0,L|379:151,1,100,8|0,0:0|0:0,0:0:0:0:
86,87,72625,1,8,0:0:0:0:
127,60,72700,1,8,0:0:0:0:
176,58,72776,1,8,0:0:0:0:
220,82,72852,1,8,0:0:0:0:
245,124,72928,5,8,0:0:0:0:
242,149,73003,1,8,0:0:0:0:
240,174,73079,1,8,0:0:0:0:
237,199,73155,1,8,0:0:0:0:
235,223,73231,5,8,3:2:0:0:
143,356,73534,1,0,3:0:0:0:
390,235,73837,5,8,3:2:0:0:
298,368,74140,1,0,3:0:0:0:
332,168,74291,1,8,0:0:0:0:
332,168,74367,1,8,0:0:0:0:
332,168,74443,6,0,P|392:147|457:180,1,100,0|8,3:0|0:0,0:0:0:0:
245,234,74746,2,0,P|224:174|257:109,1,100,0|0,3:0|3:0,0:0:0:0:
311,321,75049,2,0,P|251:342|186:309,1,100,8|0,0:0|3:0,0:0:0:0:
398,255,75352,1,8,0:0:0:0:
411,276,75427,1,8,0:0:0:0:
418,299,75503,1,8,0:0:0:0:
418,324,75579,1,8,0:0:0:0:
410,348,75655,5,8,3:0:0:0:
493,113,75958,1,0,3:0:0:0:
311,321,76261,5,8,3:0:0:0:
393,85,76564,1,0,3:0:0:0:
410,348,76867,5,8,0:0:0:0:
493,113,77019,1,8,0:0:0:0:
311,321,77170,5,8,0:0:0:0:
393,85,77322,1,8,0:0:0:0:
472,260,77473,1,2,0:3:0:0:
435,250,77549,1,4,0:3:0:0:
398,240,77625,1,8,0:3:0:0:
361,230,77700,1,8,0:3:0:0:
324,220,77776,5,8,0:0:0:0:
297,178,77851,1,8,0:0:0:0:
254,154,77927,1,8,0:0:0:0:
204,155,78003,1,8,0:0:0:0:
162,180,78079,5,8,0:0:0:0:
137,46,79291,5,8,0:0:0:0:
98,309,79443,1,0,3:0:0:0:
216,227,79594,1,0,3:0:0:0:
134,16,79746,5,8,0:0:0:0:
87,332,79898,1,0,3:0:0:0:
236,246,80049,1,8,0:0:0:0:
235,245,80125,1,8,0:0:0:0:
235,245,80200,2,8,L|379:236,1,100,8|0,0:0|0:0,0:0:0:0:
493,59,80503,5,8,3:2:0:0:
486,135,80806,1,8,3:2:0:0:
417,52,81109,1,8,3:2:0:0:
410,128,81412,1,8,3:2:0:0:
218,128,81715,5,8,3:2:0:0:
225,204,82018,1,8,3:2:0:0:
294,121,82322,5,8,3:2:0:0:
301,197,82473,1,8,0:2:0:0:
250,59,82625,1,8,3:2:0:0:
269,266,82776,1,8,0:2:0:0:
131,176,82928,5,8,0:0:0:0:
116,104,83029,1,8,0:0:0:0:
101,32,83130,1,8,0:0:0:0:
30,66,83231,5,2,0:3:0:0:
15,138,83332,1,2,0:3:0:0:
0,210,83433,1,2,0:3:0:0:
42,276,83534,5,4,0:3:0:0:
77,267,83635,1,4,0:3:0:0:
117,276,83736,1,4,0:3:0:0:
163,340,83837,5,8,0:3:0:0:
203,349,83938,1,8,0:3:0:0:
238,340,84039,1,8,0:3:0:0:
296,286,84140,6,0,P|258:203|364:279,1,350,0|0,3:0|0:0,0:0:0:0:
324,223,84746,6,0,P|362:60|258:218,1,525.000020027161,0|0,3:0|0:0,0:0:0:0:
298,131,85352,5,0,3:0:0:0:
