osu file format v14

[General]
AudioFilename: audio.mp3
AudioLeadIn: 0
PreviewTime: 53607
Countdown: 0
SampleSet: Normal
StackLeniency: 0.7
Mode: 2
LetterboxInBreaks: 0
WidescreenStoryboard: 1

[Editor]
Bookmarks: 2473,21109
DistanceSpacing: 0.8
BeatDivisor: 4
GridSize: 32
TimelineZoom: 1.8

[Metadata]
Title:Arakajime Ushinawareta Bokura no Ballad (Game Ver.)
TitleUnicode:予め失われた僕らのバラッド (Game Ver.)
Artist:EARPHONES
ArtistUnicode:イヤホンズ
Creator:Sanyi
Version:Imai Lisa's Overdose
Source:神獄塔 メアリスケルター
Tags:compile heart idea factory International ps vita playstation Mary Skelter Nightmares rpg -Hex- Xetopia AJamez Benita Benny- IDu5t Imai Lisa Du5t IDust Dust Jemzuu
BeatmapID:1767148
BeatmapSetID:843086

[Difficulty]
HPDrainRate:6
CircleSize:4.1
OverallDifficulty:9.5
ApproachRate:9.5
SliderMultiplier:1.95
SliderTickRate:2

[Events]
//Background and Video events
0,0,"bg.jpg",0,0
Video,534,"video.avi"
//Break Periods
//Storyboard Layer 0 (Background)
//Storyboard Layer 1 (Fail)
//Storyboard Layer 2 (Pass)
//Storyboard Layer 3 (Foreground)
//Storyboard Layer 4 (Overlay)
//Storyboard Sound Samples

[TimingPoints]
880,303.030303030303,4,1,11,25,1,0
1940,-100,4,1,11,5,0,0
2092,-100,4,1,11,50,0,0
11789,-100,4,1,22,70,0,0
21486,-100,4,1,22,60,0,0
29970,-90.9090909090909,4,1,22,60,0,0
31183,-100,4,1,22,60,0,0
40879,-100,4,1,22,55,0,0
48152,-100,4,1,22,50,0,0
48455,-100,4,1,22,55,0,0
48758,-100,4,1,22,60,0,0
49061,-100,4,1,22,65,0,0
50576,-80,4,1,22,70,0,0
51789,-100,4,1,22,70,0,0
51940,-100,4,1,22,25,0,0
52849,-100,4,1,22,5,0,0
53001,-100,4,1,11,35,0,0
53152,-100,4,1,11,40,0,0
53304,-100,4,1,11,45,0,0
53455,-100,4,1,11,50,0,0
53607,-100,4,1,11,60,0,0
53910,-100,4,1,11,70,0,0
54213,-86.9565217391304,4,1,22,75,0,1
63304,-86.9565217391304,4,1,11,50,0,0
63607,-86.9565217391304,4,1,11,60,0,0
63910,-86.9565217391304,4,1,22,75,0,1
73001,-86.9565217391304,4,1,22,50,0,1
73304,-86.9565217391304,4,1,22,60,0,1
73607,-90.9090909090909,4,1,22,65,0,0
77243,-83.3333333333333,4,1,22,65,0,0
77849,-90.9090909090909,4,1,22,65,0,0
78455,-90.9090909090909,4,1,22,50,0,0
79667,-90.9090909090909,4,1,22,60,0,0
80879,-100,4,1,22,40,0,0
81183,-100,4,1,22,45,0,0
81486,-100,4,1,22,50,0,0
81789,-100,4,1,22,55,0,0
82092,-100,4,1,22,60,0,0
82395,-100,4,1,22,65,0,0
83304,-90.9090909090909,4,1,22,60,0,0
84516,-100,4,1,22,65,0,0
85122,-100,4,1,22,70,0,0
85728,-100,4,1,22,80,0,0

[Colours]
Combo1 : 128,0,128
Combo2 : 255,0,0
Combo3 : 255,0,255
Combo4 : 0,0,255

[HitObjects]
256,192,880,12,0,1940,0:0:0:0:
161,51,2092,6,0,P|141:110|328:33,1,487.5,4|0,0:0|0:0,0:0:0:0:
170,52,3152,1,0,0:0:0:0:
329,119,3304,6,0,L|338:319,1,195,2|0,0:0|0:0,0:0:0:0:
179,327,3758,2,0,P|125:297|193:216,1,195,2|0,0:0|0:0,0:0:0:0:
53,160,4213,2,0,L|46:60,1,97.5,2|0,0:0|0:0,0:0:0:0:
318,44,4516,6,0,P|356:87|228:40,1,487.5,4|0,0:0|0:0,0:0:0:0:
266,35,5349,1,8,0:0:0:0:
410,176,5425,2,0,L|350:175,1,48.75,8|8,0:0|0:0,0:0:0:0:
219,301,5576,2,0,L|148:299,1,48.75,8|8,0:0|0:0,0:0:0:0:
393,307,5728,6,0,L|495:308,2,97.5,8|2|2,0:0|0:0|0:0,0:0:0:0:
141,143,6183,1,8,0:0:0:0:
265,142,6334,1,2,0:0:0:0:
141,143,6486,1,2,0:0:0:0:
370,40,6637,2,0,P|425:68|448:155,1,146.25,8|0,0:0|0:0,0:0:0:0:
169,350,6940,6,0,P|95:313|170:77,1,390,4|0,0:0|0:0,0:0:0:0:
296,63,7698,1,2,0:0:0:0:
66,201,7849,1,8,0:0:0:0:
62,152,7925,1,8,0:0:0:0:
59,103,8001,1,8,0:0:0:0:
308,144,8152,6,0,L|310:193,1,48.75,8|8,0:0|0:0,0:0:0:0:
310,193,8304,2,0,L|313:250,1,48.75,8|8,0:0|0:0,0:0:0:0:
110,354,8455,1,8,0:0:0:0:
89,311,8531,1,8,0:0:0:0:
101,265,8607,1,8,0:0:0:0:
140,238,8683,1,8,0:0:0:0:
335,42,8758,6,0,L|287:44,1,48.75,8|8,0:0|0:0,0:0:0:0:
210,105,8910,2,0,L|271:104,1,48.75,8|8,0:0|0:0,0:0:0:0:
184,181,9061,2,0,L|125:183,1,48.75,8|8,0:0|0:0,0:0:0:0:
59,257,9213,2,0,L|112:255,1,48.75,8|8,0:0|0:0,0:0:0:0:
347,341,9364,5,8,0:0:0:0:
474,341,9516,1,2,0:0:0:0:
244,199,9667,1,8,0:0:0:0:
117,199,9819,1,2,0:0:0:0:
359,45,9970,1,8,0:0:0:0:
486,45,10122,2,0,L|490:99,1,48.75,8|8,0:0|0:0,0:0:0:0:
294,135,10273,2,0,L|245:138,1,48.75,8|8,0:0|0:0,0:0:0:0:
396,261,10425,2,0,L|341:265,1,48.75,8|8,0:0|0:0,0:0:0:0:
89,335,10576,6,0,L|84:134,1,195,8|0,0:0|0:0,0:0:0:0:
210,127,11031,2,0,L|276:124,1,48.75,2|2,0:0|0:0,0:0:0:0:
466,36,11183,2,0,L|309:40,1,146.25,8|0,0:0|0:0,0:0:0:0:
160,281,11486,2,0,L|214:284,1,48.75,8|8,0:0|0:0,0:0:0:0:
370,331,11637,2,0,L|314:334,1,48.75,8|8,0:0|0:0,0:0:0:0:
56,177,11789,6,0,L|159:172,1,97.5,6|0,0:0|0:0,0:0:0:0:
301,50,12092,2,0,L|193:48,1,97.5,8|0,0:0|0:0,0:0:0:0:
54,201,12395,2,0,L|48:101,1,97.5,0|0,0:0|0:0,0:0:0:0:
267,35,12698,1,10,0:0:0:0:
137,35,12849,1,2,0:0:0:0:
435,328,13001,6,0,L|439:224,1,97.5,2|0,0:0|0:0,0:0:0:0:
285,278,13304,2,0,L|180:283,1,97.5,10|0,0:0|0:0,0:0:0:0:
399,163,13607,2,0,L|510:158,1,97.5,2|0,0:0|0:0,0:0:0:0:
158,27,13910,2,0,L|155:132,1,97.5,10|0,0:0|0:0,0:0:0:0:
421,341,14213,6,0,L|213:337,1,195,2|8,0:0|0:0,0:0:0:0:
324,270,14667,1,0,0:0:0:0:
180,205,14819,2,0,L|176:105,1,97.5,0|0,0:0|0:0,0:0:0:0:
387,44,15122,2,0,L|492:41,1,97.5,10|2,0:0|0:0,0:0:0:0:
226,41,15425,6,0,L|117:37,1,97.5,2|0,0:0|0:0,0:0:0:0:
270,105,15728,2,0,L|278:212,1,97.5,10|0,0:0|0:0,0:0:0:0:
51,243,16031,2,0,L|41:341,1,97.5,2|0,0:0|0:0,0:0:0:0:
257,346,16334,1,14,0:0:0:0:
41,350,16486,2,0,L|41:298,1,48.75,0|0,0:0|0:0,0:0:0:0:
309,263,16637,6,0,P|367:236|301:156,1,195,6|8,0:0|0:0,0:0:0:0:
209,141,17092,1,0,0:0:0:0:
455,40,17243,1,0,0:0:0:0:
330,86,17395,2,0,L|323:188,1,97.5,0|10,0:0|0:0,0:0:0:0:
197,219,17698,1,2,0:0:0:0:
467,347,17849,6,0,L|470:244,1,97.5,2|0,0:0|0:0,0:0:0:0:
236,310,18152,2,0,L|133:307,1,97.5,10|0,0:0|0:0,0:0:0:0:
382,189,18455,2,0,L|496:189,1,97.5,2|0,0:0|0:0,0:0:0:0:
173,48,18758,2,0,L|232:51,1,48.75,8|8,0:0|0:0,0:0:0:0:
363,256,18910,2,0,L|306:258,1,48.75,8|0,0:0|0:0,0:0:0:0:
142,271,19061,5,14,0:0:0:0:
402,339,19213,1,0,0:0:0:0:
404,290,19289,1,0,0:0:0:0:
406,241,19364,1,0,0:0:0:0:
116,122,19516,1,10,0:0:0:0:
246,120,19667,1,0,0:0:0:0:
116,122,19819,1,0,0:0:0:0:
404,126,19970,2,0,L|407:278,1,146.25,10|0,0:0|0:0,0:0:0:0:
32,192,20273,5,10,0:0:0:0:
256,192,20425,1,2,0:0:0:0:
480,192,20576,1,10,0:0:0:0:
256,192,20728,1,10,0:0:0:0:
270,84,21031,5,0,0:0:0:0:
49,49,21183,2,0,L|44:146,1,97.5,8|0,0:0|0:0,0:0:0:0:
331,335,21486,5,6,0:0:0:0:
206,335,21637,1,0,0:0:0:0:
354,264,21789,2,0,L|357:166,1,97.5,10|2,0:0|0:0,0:0:0:0:
134,57,22092,2,0,L|239:55,1,97.5,2|0,0:0|0:0,0:0:0:0:
476,261,22395,2,0,L|368:258,1,97.5,10|0,0:0|0:0,0:0:0:0:
64,343,22698,6,0,P|84:305|198:200,1,195,2|10,0:0|0:0,0:0:0:0:
80,131,23152,1,2,0:0:0:0:
312,46,23304,2,0,L|215:46,1,97.5,0|2,0:0|0:0,0:0:0:0:
432,125,23607,2,0,L|437:278,1,146.25,10|0,0:0|0:0,0:0:0:0:
204,338,23910,6,0,L|309:336,1,97.5,2|2,0:0|0:0,0:0:0:0:
445,231,24213,2,0,L|348:229,1,97.5,10|2,0:0|0:0,0:0:0:0:
99,47,24516,1,2,0:0:0:0:
224,46,24667,1,0,0:0:0:0:
85,110,24819,2,0,L|80:212,1,97.5,10|0,0:0|0:0,0:0:0:0:
362,349,25122,6,0,L|158:350,1,195,2|8,0:0|0:0,0:0:0:0:
393,239,25576,2,0,L|290:238,2,97.5,0|0|0,0:0|0:0|0:0,0:0:0:0:
166,43,26031,2,0,L|68:45,1,97.5,10|10,0:0|0:0,0:0:0:0:
66,102,26258,1,8,0:0:0:0:
285,325,26334,6,0,L|388:325,1,97.5,2|2,0:0|0:0,0:0:0:0:
118,232,26637,2,0,L|225:232,1,97.5,10|2,0:0|0:0,0:0:0:0:
489,53,26940,2,0,L|285:60,1,195,2|10,0:0|0:0,0:0:0:0:
414,166,27395,1,0,0:0:0:0:
163,96,27546,5,2,0:0:0:0:
283,97,27698,1,2,0:0:0:0:
163,96,27849,1,8,0:0:0:0:
439,191,28001,1,2,0:0:0:0:
319,187,28152,2,0,L|312:289,1,97.5,0|0,0:0|0:0,0:0:0:0:
71,340,28455,2,0,L|175:338,1,97.5,10|8,0:0|0:0,0:0:0:0:
228,336,28683,1,8,0:0:0:0:
483,260,28758,6,0,L|485:161,1,97.5,2|2,0:0|0:0,0:0:0:0:
351,130,29061,2,0,L|448:130,1,97.5,10|2,0:0|0:0,0:0:0:0:
193,40,29364,2,0,L|200:144,1,97.5,2|0,0:0|0:0,0:0:0:0:
361,215,29667,2,0,L|371:316,1,97.5,10|0,0:0|0:0,0:0:0:0:
128,330,29970,6,0,L|242:329,1,107.25000327301,8|0,0:0|0:0,0:0:0:0:
19,241,30273,2,0,L|129:240,1,107.25000327301,8|0,0:0|0:0,0:0:0:0:
384,330,30576,2,0,L|270:329,1,107.25000327301,8|0,0:0|0:0,0:0:0:0:
493,241,30879,2,0,L|383:240,1,107.25000327301,10|0,0:0|0:0,0:0:0:0:
41,180,31183,6,0,L|243:181,1,195,2|10,0:0|0:0,0:0:0:0:
138,99,31637,1,0,0:0:0:0:
388,347,31789,1,2,0:0:0:0:
263,348,31940,1,0,0:0:0:0:
408,285,32092,2,0,L|413:182,1,97.5,10|0,0:0|0:0,0:0:0:0:
128,88,32395,5,2,0:0:0:0:
248,87,32546,1,2,0:0:0:0:
128,88,32698,1,10,0:0:0:0:
386,171,32849,1,2,0:0:0:0:
246,222,33001,2,0,L|243:322,1,97.5,2|2,0:0|0:0,0:0:0:0:
470,223,33304,2,0,L|473:323,1,97.5,10|0,0:0|0:0,0:0:0:0:
206,267,33607,6,0,P|145:224|212:155,1,195,2|10,0:0|0:0,0:0:0:0:
488,34,34061,2,0,L|286:35,1,195,2|2,0:0|0:0,0:0:0:0:
44,172,34516,2,0,L|40:72,1,97.5,10|0,0:0|0:0,0:0:0:0:
358,112,34819,6,0,P|421:162|351:222,1,195,2|8,0:0|0:0,0:0:0:0:
197,302,35273,2,0,L|297:304,2,97.5,0|0|0,0:0|0:0|0:0,0:0:0:0:
454,351,35728,2,0,L|457:246,1,97.5,10|2,0:0|0:0,0:0:0:0:
153,57,36031,6,0,P|89:121|160:174,1,195,2|8,0:0|0:0,0:0:0:0:
291,335,36486,2,0,L|296:229,1,97.5,2|0,0:0|0:0,0:0:0:0:
192,228,36789,1,2,0:0:0:0:
434,175,36940,2,0,P|413:153|303:97,1,146.25,10|0,0:0|0:0,0:0:0:0:
101,93,37243,5,2,0:0:0:0:
229,93,37395,1,0,0:0:0:0:
101,93,37546,1,10,0:0:0:0:
375,338,37698,2,0,P|441:290|365:231,1,195,2|0,0:0|0:0,0:0:0:0:
108,285,38152,2,0,L|104:135,1,146.25,10|0,0:0|0:0,0:0:0:0:
376,39,38455,5,2,0:0:0:0:
251,39,38607,1,2,0:0:0:0:
410,75,38758,2,0,L|412:172,1,97.5,10|2,0:0|0:0,0:0:0:0:
140,297,39061,2,0,L|243:297,1,97.5,2|0,0:0|0:0,0:0:0:0:
68,196,39364,2,0,L|167:195,1,97.5,10|0,0:0|0:0,0:0:0:0:
439,46,39667,5,2,0:0:0:0:
311,46,39819,1,8,0:0:0:0:
308,78,39970,1,8,0:0:0:0:
161,136,40122,1,2,0:0:0:0:
289,136,40273,1,8,0:0:0:0:
161,136,40425,1,8,0:0:0:0:
392,161,40576,1,2,0:0:0:0:
435,181,40652,1,0,0:0:0:0:
459,222,40728,1,2,0:0:0:0:
457,270,40804,1,0,0:0:0:0:
170,346,40880,6,0,L|160:145,1,195,6|0,0:0|0:0,0:0:0:0:
293,95,41334,2,0,L|354:97,1,48.75,0|0,0:0|0:0,0:0:0:0:
137,47,41486,2,0,L|39:48,2,97.5,10|0|0,0:0|0:0|0:0,0:0:0:0:
293,236,41940,6,0,P|350:179|288:100,1,195,2|0,0:0|0:0,0:0:0:0:
128,174,42395,2,0,L|124:76,1,97.5,2|0,0:0|0:0,0:0:0:0:
337,55,42698,2,0,L|438:55,1,97.5,10|0,0:0|0:0,0:0:0:0:
198,287,43001,2,0,L|97:290,1,97.5,10|0,0:0|0:0,0:0:0:0:
328,183,43304,6,0,L|231:184,2,97.5,2|2|2,0:0|0:0|0:0,0:0:0:0:
441,126,43758,2,0,L|443:77,1,48.75,2|0,0:0|0:0,0:0:0:0:
210,38,43910,6,0,P|150:92|229:156,1,195,10|2,0:0|0:0,0:0:0:0:
112,100,44364,1,0,0:0:0:0:
328,337,44516,6,0,L|331:234,1,97.5,2|0,0:0|0:0,0:0:0:0:
175,208,44819,2,0,L|275:206,1,97.5,2|2,0:0|0:0,0:0:0:0:
483,65,45122,1,8,0:0:0:0:
358,64,45273,1,2,0:0:0:0:
95,208,45425,2,0,L|91:107,1,97.5,10|0,0:0|0:0,0:0:0:0:
386,149,45728,6,0,P|364:180|211:259,1,195,6|0,0:0|0:0,0:0:0:0:
109,274,46183,2,0,L|104:325,1,48.75,0|0,0:0|0:0,0:0:0:0:
354,73,46334,2,0,L|452:75,2,97.5,10|0|0,0:0|0:0|0:0,0:0:0:0:
103,57,46789,6,0,P|45:93|111:172,1,195,2|0,0:0|0:0,0:0:0:0:
245,196,47243,2,0,L|241:295,1,97.5,10|0,0:0|0:0,0:0:0:0:
462,343,47546,2,0,L|365:345,1,97.5,10|0,0:0|0:0,0:0:0:0:
300,345,47773,1,0,0:0:0:0:
69,274,47849,2,0,L|65:175,1,97.5,10|0,0:0|0:0,0:0:0:0:
373,34,48152,5,8,0:0:0:0:
150,33,48455,1,8,0:0:0:0:
423,34,48758,1,8,0:0:0:0:
99,33,49061,1,8,0:0:0:0:
476,227,49364,6,0,L|378:228,1,97.5,8|8,0:0|0:0,0:0:0:0:
212,296,49667,2,0,L|208:197,1,97.5,8|8,0:0|0:0,0:0:0:0:
341,196,49970,1,8,0:0:0:0:
111,99,50122,2,0,L|109:46,1,48.75,8|8,0:0|0:0,0:0:0:0:
288,98,50273,2,0,L|343:101,1,48.75,8|8,0:0|0:0,0:0:0:0:
85,272,50425,2,0,L|32:276,1,48.75,8|8,0:0|0:0,0:0:0:0:
356,349,50576,6,0,L|360:159,1,182.8125,10|0,0:0|0:0,0:0:0:0:
150,191,50879,2,0,P|182:160|310:89,1,182.8125,10|0,0:0|0:0,0:0:0:0:
471,304,51183,2,0,P|439:273|311:202,1,182.8125,10|0,0:0|0:0,0:0:0:0:
54,254,51486,2,0,L|52:65,1,182.8125,10|0,0:0|0:0,0:0:0:0:
276,230,51789,5,14,0:0:0:0:
256,192,51940,12,0,52849,0:0:0:0:
190,307,53001,5,8,0:0:0:0:
145,287,53076,1,8,0:0:0:0:
112,252,53152,1,8,0:0:0:0:
94,207,53228,1,8,0:0:0:0:
94,158,53304,1,8,0:0:0:0:
112,113,53379,1,8,0:0:0:0:
146,79,53455,1,8,0:0:0:0:
190,59,53531,1,8,0:0:0:0:
394,174,53607,6,0,L|345:172,1,48.75,10|8,0:0|0:0,0:0:0:0:
137,342,53758,2,0,L|136:284,1,48.75,10|8,0:0|0:0,0:0:0:0:
314,241,53910,2,0,L|368:243,1,48.75,10|8,0:0|0:0,0:0:0:0:
108,105,54061,2,0,L|58:108,1,48.75,10|8,0:0|0:0,0:0:0:0:
354,34,54213,6,0,L|477:36,2,112.125002138615,6|0|8,0:0|0:0|0:0,0:0:0:0:
94,286,54667,2,0,L|326:283,1,224.250004277229,0|0,0:0|0:0,0:0:0:0:
72,162,55122,2,0,L|68:47,1,112.125002138615,8|0,0:0|0:0,0:0:0:0:
391,47,55425,6,0,L|273:50,1,112.125002138615,0|0,0:0|0:0,0:0:0:0:
38,257,55728,2,0,L|154:254,1,112.125002138615,10|0,0:0|0:0,0:0:0:0:
468,339,56031,2,0,L|473:220,1,112.125002138615,2|0,0:0|0:0,0:0:0:0:
204,87,56334,2,0,L|86:88,1,112.125002138615,10|0,0:0|0:0,0:0:0:0:
414,42,56637,6,0,P|482:78|402:161,1,224.250004277229,2|8,0:0|0:0,0:0:0:0:
294,157,57092,1,2,0:0:0:0:
59,322,57243,1,2,0:0:0:0:
193,322,57395,1,0,0:0:0:0:
41,273,57546,2,0,L|37:154,1,112.125002138615,8|0,0:0|0:0,0:0:0:0:
312,40,57849,6,0,L|76:38,1,224.250004277229,2|8,0:0|0:0,0:0:0:0:
319,142,58304,1,2,0:0:0:0:
91,237,58455,1,2,0:0:0:0:
203,236,58607,1,0,0:0:0:0:
315,235,58758,1,8,0:0:0:0:
54,108,58910,2,0,L|51:52,1,56.0625010693074,8|8,0:0|0:0,0:0:0:0:
325,336,59061,5,6,0:0:0:0:
195,338,59213,1,2,0:0:0:0:
325,336,59364,1,10,0:0:0:0:
85,219,59516,2,0,L|326:220,1,224.250004277229,2|2,0:0|0:0,0:0:0:0:
454,189,59970,2,0,L|460:68,1,112.125002138615,10|0,0:0|0:0,0:0:0:0:
200,51,60273,5,2,0:0:0:0:
336,92,60425,2,0,L|339:206,1,112.125002138615,2|10,0:0|0:0,0:0:0:0:
85,340,60728,2,0,P|33:317|112:207,1,224.250004277229,2|0,0:0|0:0,0:0:0:0:
325,47,61183,2,0,L|209:46,1,112.125002138615,10|0,0:0|0:0,0:0:0:0:
481,48,61486,5,2,0:0:0:0:
250,163,61637,2,0,L|373:165,1,112.125002138615,2|10,0:0|0:0,0:0:0:0:
111,313,61940,2,0,L|347:315,1,224.250004277229,2|0,0:0|0:0,0:0:0:0:
63,215,62395,2,0,L|57:100,1,112.125002138615,10|0,0:0|0:0,0:0:0:0:
323,40,62698,6,0,P|397:90|321:172,1,224.250004277229,10|8,0:0|0:0,0:0:0:0:
268,174,63076,1,8,0:0:0:0:
326,172,63152,1,8,0:0:0:0:
161,260,63304,6,0,L|157:328,1,56.0625010693074,10|8,0:0|0:0,0:0:0:0:
358,315,63455,2,0,L|293:313,1,56.0625010693074,10|8,0:0|0:0,0:0:0:0:
157,194,63607,2,0,L|219:193,1,56.0625010693074,10|8,0:0|0:0,0:0:0:0:
417,28,63758,2,0,L|420:89,1,56.0625010693074,10|8,0:0|0:0,0:0:0:0:
170,321,63910,6,0,L|56:324,2,112.125002138615,6|0|8,0:0|0:0|0:0,0:0:0:0:
422,322,64364,2,0,P|483:299|411:196,1,224.250004277229,0|0,0:0|0:0,0:0:0:0:
183,63,64819,2,0,L|177:178,1,112.125002138615,8|0,0:0|0:0,0:0:0:0:
450,126,65122,6,0,L|456:243,1,112.125002138615,0|0,0:0|0:0,0:0:0:0:
207,336,65425,2,0,L|327:337,1,112.125002138615,10|0,0:0|0:0,0:0:0:0:
84,211,65728,2,0,L|198:208,1,112.125002138615,2|0,0:0|0:0,0:0:0:0:
458,165,66031,2,0,L|462:51,1,112.125002138615,10|0,0:0|0:0,0:0:0:0:
170,40,66334,6,0,P|106:105|181:194,1,224.250004277229,2|8,0:0|0:0,0:0:0:0:
58,240,66789,1,0,0:0:0:0:
357,316,66940,2,0,L|233:318,1,112.125002138615,2|0,0:0|0:0,0:0:0:0:
377,219,67243,2,0,L|489:219,1,112.125002138615,8|2,0:0|0:0,0:0:0:0:
235,145,67546,5,2,0:0:0:0:
479,79,67698,2,0,L|354:79,1,112.125002138615,2|8,0:0|0:0,0:0:0:0:
94,44,68001,1,2,0:0:0:0:
214,110,68152,1,8,0:0:0:0:
217,159,68228,1,8,0:0:0:0:
219,208,68304,1,8,0:0:0:0:
470,298,68455,2,0,L|357:297,1,112.125002138615,8|0,0:0|0:0,0:0:0:0:
293,296,68683,1,0,0:0:0:0:
47,258,68758,6,0,P|63:236|229:132,1,224.250004277229,6|10,0:0|0:0,0:0:0:0:
451,285,69213,2,0,L|460:52,1,224.250004277229,2|2,0:0|0:0,0:0:0:0:
211,77,69667,2,0,L|99:78,1,112.125002138615,10|0,0:0|0:0,0:0:0:0:
358,309,69970,6,0,L|236:311,2,112.125002138615,2|2|10,0:0|0:0|0:0,0:0:0:0:
78,230,70425,2,0,L|304:227,1,224.250004277229,2|2,0:0|0:0,0:0:0:0:
43,336,70879,2,0,L|34:166,1,168.187503207922,10|0,0:0|0:0,0:0:0:0:
234,51,71183,6,0,L|354:53,2,112.125002138615,2|0|10,0:0|0:0|0:0,0:0:0:0:
479,347,71637,2,0,P|464:334|268:244,1,224.250004277229,2|2,0:0|0:0,0:0:0:0:
37,200,72092,2,0,L|32:80,1,112.125002138615,10|8,0:0|0:0,0:0:0:0:
95,51,72319,1,8,0:0:0:0:
293,144,72395,5,14,0:0:0:0:
178,72,72546,2,0,L|237:68,1,56.0625010693074,0|0,0:0|0:0,0:0:0:0:
384,59,72698,2,0,L|496:52,1,112.125002138615,8|0,0:0|0:0,0:0:0:0:
203,340,73001,6,0,L|157:308,1,56.0625010693074,10|8,0:0|0:0,0:0:0:0:
156,307,73152,2,0,L|201:342,1,56.0625010693074,8|8,0:0|0:0,0:0:0:0:
375,334,73304,2,0,L|316:339,1,56.0625010693074,10|8,0:0|0:0,0:0:0:0:
121,182,73455,2,0,L|180:179,1,56.0625010693074,10|8,0:0|0:0,0:0:0:0:
452,325,73607,6,0,L|229:340,1,214.500006546021,4|0,0:0|0:0,0:0:0:0:
133,344,74061,1,0,0:0:0:0:
486,225,74213,2,0,L|272:236,1,214.500006546021,10|2,0:0|0:0,0:0:0:0:
45,184,74667,2,0,L|108:185,1,53.6250016365052,8|8,0:0|0:0,0:0:0:0:
371,325,74819,6,0,L|374:218,1,107.25000327301,10|8,0:0|0:0,0:0:0:0:
225,139,75122,2,0,L|336:138,1,107.25000327301,2|0,0:0|0:0,0:0:0:0:
277,76,75349,1,0,0:0:0:0:
74,221,75425,2,0,L|68:330,1,107.25000327301,10|0,0:0|0:0,0:0:0:0:
225,329,75728,2,0,L|282:330,1,53.6250016365052,10|8,0:0|0:0,0:0:0:0:
80,122,75879,2,0,L|25:121,1,53.6250016365052,10|8,0:0|0:0,0:0:0:0:
363,49,76031,6,0,P|424:85|333:174,1,214.500006546021,4|2,0:0|0:0,0:0:0:0:
473,245,76486,1,0,0:0:0:0:
190,344,76637,2,0,L|185:129,1,214.500006546021,6|2,0:0|0:0,0:0:0:0:
308,130,77092,1,0,0:0:0:0:
30,47,77243,5,8,0:0:0:0:
164,49,77395,1,2,0:0:0:0:
482,47,77546,1,8,0:0:0:0:
348,49,77698,1,2,0:0:0:0:
108,118,77849,5,10,0:0:0:0:
105,166,77925,1,8,0:0:0:0:
102,215,78001,1,8,0:0:0:0:
99,263,78076,1,8,0:0:0:0:
308,249,78152,2,0,L|246:251,1,53.6250016365052,10|8,0:0|0:0,0:0:0:0:
40,348,78304,2,0,L|98:346,1,53.6250016365052,10|8,0:0|0:0,0:0:0:0:
416,347,78455,5,6,0:0:0:0:
234,347,78758,1,0,0:0:0:0:
416,347,79061,1,2,0:0:0:0:
159,233,79364,1,0,0:0:0:0:
432,329,79667,5,8,0:0:0:0:
307,327,79819,1,2,0:0:0:0:
432,329,79970,1,2,0:0:0:0:
185,221,80122,1,8,0:0:0:0:
183,172,80198,1,0,0:0:0:0:
181,123,80273,1,2,0:0:0:0:
334,97,80425,2,0,L|336:38,1,53.6250016365052,0|0,0:0|0:0,0:0:0:0:
120,46,80576,2,0,L|116:211,1,160.875004909516,8|0,0:0|0:0,0:0:0:0:
416,192,80880,5,12,0:0:0:0:
256,192,81183,1,8,0:0:0:0:
96,192,81486,1,8,0:0:0:0:
256,192,81789,1,8,0:0:0:0:
448,192,82092,1,8,0:0:0:0:
256,194,82395,1,8,0:0:0:0:
64,192,82698,2,0,L|59:94,1,97.5,8|8,0:0|0:0,0:0:0:0:
205,46,83001,2,0,L|105:47,1,97.5,8|8,0:0|0:0,0:0:0:0:
337,342,83304,6,0,L|341:266,1,71.5000021820069,8|8,0:0|0:0,0:0:0:0:
250,225,83506,1,8,0:0:0:0:
416,193,83607,2,0,L|504:189,1,71.5000021820069,8|8,0:0|0:0,0:0:0:0:
415,133,83809,1,8,0:0:0:0:
233,80,83910,5,8,0:0:0:0:
306,79,84011,1,8,0:0:0:0:
233,80,84112,1,8,0:0:0:0:
475,80,84213,1,8,0:0:0:0:
403,80,84314,1,8,0:0:0:0:
475,80,84415,1,8,0:0:0:0:
135,340,84516,6,0,P|75:320|151:167,1,292.5,6|0,0:0|0:0,0:0:0:0:
391,42,85122,2,0,P|475:83|382:215,1,292.5,6|0,0:0|0:0,0:0:0:0:
33,216,85728,5,6,0:0:0:0:
