osu file format v14

[General]
AudioFilename: audio.mp3
AudioLeadIn: 0
PreviewTime: 53607
Countdown: 0
SampleSet: Normal
StackLeniency: 0.7
Mode: 2
LetterboxInBreaks: 0
WidescreenStoryboard: 1

[Editor]
DistanceSpacing: 0.8
BeatDivisor: 4
GridSize: 8
TimelineZoom: 1

[Metadata]
Title:Arakajime Ushinawareta Bokura no Ballad (Game Ver.)
TitleUnicode:予め失われた僕らのバラッド (Game Ver.)
Artist:EARPHONES
ArtistUnicode:イヤホンズ
Creator:Sanyi
Version:Cup
Source:神獄塔 メアリスケルター
Tags:compile heart idea factory International ps vita playstation Mary Skelter Nightmares rpg -Hex- Xetopia AJamez Benita Benny- IDu5t Imai Lisa Du5t IDust Dust Jemzuu
BeatmapID:1764051
BeatmapSetID:843086

[Difficulty]
HPDrainRate:3
CircleSize:2.6
OverallDifficulty:6
ApproachRate:6
SliderMultiplier:1.1
SliderTickRate:1

[Events]
//Background and Video events
0,0,"bg.jpg",0,0
Video,534,"video.avi"
//Break Periods
//Storyboard Layer 0 (Background)
//Storyboard Layer 1 (Fail)
//Storyboard Layer 2 (Pass)
//Storyboard Layer 3 (Foreground)
//Storyboard Layer 4 (Overlay)
//Storyboard Sound Samples

[TimingPoints]
880,303.030303030303,4,1,11,25,1,0
1940,-100,4,1,11,5,0,0
2092,-100,4,1,11,50,0,0
11789,-100,4,1,22,70,0,0
21486,-100,4,1,22,60,0,0
40879,-100,4,1,22,55,0,0
48152,-100,4,1,22,50,0,0
48455,-100,4,1,22,55,0,0
48758,-100,4,1,22,60,0,0
49061,-100,4,1,22,65,0,0
50576,-100,4,1,22,70,0,0
51940,-100,4,1,22,25,0,0
52849,-100,4,1,22,5,0,0
53001,-100,4,1,11,35,0,0
53152,-100,4,1,11,40,0,0
53304,-100,4,1,11,45,0,0
53455,-100,4,1,11,50,0,0
53607,-100,4,1,11,60,0,0
53910,-100,4,1,11,70,0,0
54213,-100,4,1,22,75,0,1
63304,-100,4,1,11,50,0,0
63607,-100,4,1,11,60,0,0
63910,-100,4,1,22,75,0,1
73001,-100,4,1,22,50,0,1
73304,-100,4,1,22,60,0,1
73607,-100,4,1,22,65,0,0
78455,-100,4,1,22,50,0,0
79667,-100,4,1,22,60,0,0
80879,-100,4,1,22,40,0,0
81183,-100,4,1,22,45,0,0
81486,-100,4,1,22,50,0,0
81789,-100,4,1,22,55,0,0
82092,-100,4,1,22,60,0,0
82395,-100,4,1,22,65,0,0
83304,-100,4,1,22,60,0,0
84516,-100,4,1,22,65,0,0
85122,-100,4,1,22,70,0,0
85728,-100,4,1,22,80,0,0

[Colours]
Combo1 : 128,0,128
Combo2 : 255,0,0
Combo3 : 255,0,255
Combo4 : 0,0,255

[HitObjects]
256,192,880,12,0,1789,0:0:0:0:
360,240,2092,5,4,0:0:0:0:
32,192,3304,2,0,L|200:192,2,165,2|2|2,0:0|0:0|0:0,0:0:0:0:
184,104,4516,5,4,0:0:0:0:
464,240,5425,1,8,0:0:0:0:
344,120,5728,2,0,L|176:120,2,165,8|8|8,0:0|0:0|0:0,0:0:0:0:
192,256,6940,5,4,0:0:0:0:
416,160,7698,2,0,L|480:160,1,55,2|8,0:0|0:0,0:0:0:0:
352,360,8152,2,0,P|272:208|360:88,1,330,8|8,0:0|0:0,0:0:0:0:
496,192,9364,5,8,0:0:0:0:
352,192,9667,1,8,0:0:0:0:
208,192,9970,1,8,0:0:0:0:
64,72,10273,2,0,L|184:72,1,110,8|8,0:0|0:0,0:0:0:0:
384,256,11183,2,0,L|264:256,1,110,8|8,0:0|0:0,0:0:0:0:
432,352,11789,6,0,P|464:232|408:144,1,220,6|0,0:0|0:0,0:0:0:0:
312,104,12698,1,10,0:0:0:0:
184,272,13001,2,0,L|304:272,1,110,2|10,0:0|0:0,0:0:0:0:
408,160,13607,2,0,L|280:160,1,110,2|10,0:0|0:0,0:0:0:0:
144,304,14213,6,0,P|112:184|168:96,1,220,2|0,0:0|0:0,0:0:0:0:
272,80,15122,1,10,0:0:0:0:
400,272,15425,2,0,L|280:272,1,110,2|10,0:0|0:0,0:0:0:0:
176,160,16031,2,0,L|304:160,1,110,2|14,0:0|0:0,0:0:0:0:
440,312,16637,6,0,P|472:192|416:104,1,220,6|0,0:0|0:0,0:0:0:0:
256,160,17698,1,2,0:0:0:0:
192,304,17849,2,0,L|320:304,1,110,2|10,0:0|0:0,0:0:0:0:
416,128,18455,2,0,L|304:128,1,110,2|8,0:0|0:0,0:0:0:0:
168,272,19061,6,0,L|336:272,2,165,14|10|10,0:0|0:0|0:0,0:0:0:0:
320,296,20273,1,10,0:0:0:0:
343,247,20425,1,2,0:0:0:0:
330,195,20576,1,10,0:0:0:0:
287,163,20728,1,10,0:0:0:0:
112,320,21183,1,8,0:0:0:0:
248,160,21486,6,0,L|360:160,1,110,6|10,0:0|0:0,0:0:0:0:
256,312,22092,2,0,B|200:312|200:312|264:312,1,110,2|10,0:0|0:0,0:0:0:0:
376,304,22698,1,2,0:0:0:0:
272,192,23001,2,0,L|200:192,1,55,10|2,0:0|0:0,0:0:0:0:
328,96,23455,2,0,L|392:96,1,55,2|10,0:0|0:0,0:0:0:0:
256,336,23910,6,0,L|120:336,1,110,2|10,0:0|0:0,0:0:0:0:
272,240,24516,2,0,L|392:240,1,110,2|10,0:0|0:0,0:0:0:0:
280,240,25122,2,0,P|240:152|280:112,1,165,2|0,0:0|0:0,0:0:0:0:
416,128,26031,1,10,0:0:0:0:
280,192,26334,6,0,L|168:192,1,110,2|10,0:0|0:0,0:0:0:0:
272,320,26940,2,0,B|328:320|328:320|264:320,1,110,2|10,0:0|0:0,0:0:0:0:
184,320,27546,2,0,P|104:280|88:200,2,165,2|2|10,0:0|0:0|0:0,0:0:0:0:
312,288,28758,6,0,L|448:288,1,110,2|10,0:0|0:0,0:0:0:0:
312,288,29364,2,0,L|312:176,1,110,2|10,0:0|0:0,0:0:0:0:
448,96,29970,1,8,0:0:0:0:
336,96,30273,1,8,0:0:0:0:
224,96,30576,1,8,0:0:0:0:
352,208,30879,2,0,L|424:208,1,55,10|0,0:0|0:0,0:0:0:0:
336,128,31183,6,0,L|224:128,1,110,2|10,0:0|0:0,0:0:0:0:
336,336,31789,2,0,B|392:336|392:336|328:336,1,110,2|10,0:0|0:0,0:0:0:0:
200,200,32395,2,0,P|176:144|216:96,1,110,2|10,0:0|0:0,0:0:0:0:
328,200,33001,2,0,P|352:144|312:96,1,110,2|10,0:0|0:0,0:0:0:0:
192,296,33607,6,0,L|368:296,2,165,2|2|10,0:0|0:0|0:0,0:0:0:0:
48,304,34819,2,0,P|64:224|96:208,1,110,2|8,0:0|0:0,0:0:0:0:
152,208,35273,1,0,0:0:0:0:
344,216,35728,2,0,L|344:152,1,55,10|2,0:0|0:0,0:0:0:0:
272,72,36031,6,0,L|96:72,1,165,2|2,0:0|0:0,0:0:0:0:
224,232,36789,2,0,L|296:232,1,55,2|10,0:0|0:0,0:0:0:0:
152,336,37243,2,0,B|96:336|96:336|160:336,1,110,2|10,0:0|0:0,0:0:0:0:
208,336,37698,2,0,L|376:336,1,165,2|10,0:0|0:0,0:0:0:0:
240,208,38455,6,0,L|112:208,1,110,2|10,0:0|0:0,0:0:0:0:
240,208,39061,2,0,L|240:80,1,110,2|10,0:0|0:0,0:0:0:0:
112,64,39667,1,2,0:0:0:0:
224,64,39970,1,8,0:0:0:0:
336,64,40273,1,8,0:0:0:0:
208,208,40576,2,0,L|136:208,1,55,2|2,0:0|0:0,0:0:0:0:
232,288,40880,5,6,0:0:0:0:
416,296,41334,2,0,L|416:240,1,55,0|10,0:0|0:0,0:0:0:0:
312,184,41789,1,0,0:0:0:0:
248,56,41940,2,0,P|192:112|248:144,1,165,2|2,0:0|0:0,0:0:0:0:
368,280,42698,1,10,0:0:0:0:
248,280,43001,1,10,0:0:0:0:
112,160,43304,6,0,L|240:160,2,110,2|2|10,0:0|0:0|0:0,0:0:0:0:
216,296,44213,2,0,L|336:296,1,110,2|2,0:0|0:0,0:0:0:0:
216,176,44819,2,0,B|160:176|160:176|232:176,1,110,2|8,0:0|0:0,0:0:0:0:
328,104,45425,2,0,L|272:104,1,55,10|0,0:0|0:0,0:0:0:0:
200,280,45728,5,6,0:0:0:0:
376,280,46183,2,0,L|376:224,1,55,0|10,0:0|0:0,0:0:0:0:
264,184,46637,1,0,0:0:0:0:
336,56,46789,2,0,P|392:112|336:144,1,165,2|10,0:0|0:0,0:0:0:0:
216,288,47546,1,10,0:0:0:0:
96,288,47849,1,10,0:0:0:0:
248,168,48152,6,0,L|360:168,1,110,8|8,0:0|0:0,0:0:0:0:
240,64,48758,2,0,L|120:64,1,110,8|8,0:0|0:0,0:0:0:0:
256,264,49364,1,8,0:0:0:0:
376,264,49667,1,8,0:0:0:0:
256,264,49970,1,8,0:0:0:0:
136,264,50273,2,0,L|72:264,1,55,8|8,0:0|0:0,0:0:0:0:
160,144,50576,5,10,0:0:0:0:
280,144,50879,1,10,0:0:0:0:
144,56,51183,1,10,0:0:0:0:
24,56,51486,1,10,0:0:0:0:
168,264,51789,1,14,0:0:0:0:
256,192,52092,12,8,53304,0:0:0:0:
336,320,53607,5,10,0:0:0:0:
378,289,53758,1,10,0:0:0:0:
374,237,53910,1,10,0:0:0:0:
327,214,54061,1,10,0:0:0:0:
248,216,54213,5,6,0:0:0:0:
136,152,54516,2,0,L|80:152,1,55,8|0,0:0|0:0,0:0:0:0:
192,80,54970,2,0,L|248:80,1,55,0|8,0:0|0:0,0:0:0:0:
352,80,55425,1,0,0:0:0:0:
216,256,55728,2,0,L|96:256,2,110,10|2|10,0:0|0:0|0:0,0:0:0:0:
72,160,56637,6,0,B|16:160|16:160|80:160,1,110,2|8,0:0|0:0,0:0:0:0:
184,80,57243,2,0,L|304:80,1,110,2|8,0:0|0:0,0:0:0:0:
176,272,57849,2,0,B|120:272|120:272|184:272,1,110,2|8,0:0|0:0,0:0:0:0:
288,272,58455,1,2,0:0:0:0:
168,200,58758,2,0,L|168:136,1,55,8|8,0:0|0:0,0:0:0:0:
248,344,59061,6,0,P|296:272|240:232,1,165,6|2,0:0|0:0,0:0:0:0:
136,120,59819,2,0,L|64:120,1,55,2|10,0:0|0:0,0:0:0:0:
208,224,60273,2,0,L|376:224,1,165,2|2,0:0|0:0,0:0:0:0:
256,120,61031,2,0,L|192:120,1,55,0|10,0:0|0:0,0:0:0:0:
328,328,61486,6,0,P|376:256|320:216,1,165,2|2,0:0|0:0,0:0:0:0:
216,176,62243,1,0,0:0:0:0:
144,96,62395,2,0,L|264:96,1,110,10|10,0:0|0:0,0:0:0:0:
368,88,63001,1,8,0:0:0:0:
232,320,63304,1,10,0:0:0:0:
189,289,63455,1,10,0:0:0:0:
193,237,63607,1,10,0:0:0:0:
240,214,63758,1,10,0:0:0:0:
320,208,63910,5,6,0:0:0:0:
208,144,64213,2,0,L|152:144,1,55,8|0,0:0|0:0,0:0:0:0:
264,72,64667,2,0,L|320:72,1,55,0|8,0:0|0:0,0:0:0:0:
424,72,65122,1,0,0:0:0:0:
288,256,65425,2,0,L|168:256,2,110,10|2|10,0:0|0:0|0:0,0:0:0:0:
432,160,66334,6,0,L|304:160,1,110,2|8,0:0|0:0,0:0:0:0:
168,72,66940,2,0,L|280:72,1,110,2|8,0:0|0:0,0:0:0:0:
216,160,67395,1,2,0:0:0:0:
152,240,67546,2,0,B|96:240|96:240|160:240,1,110,2|8,0:0|0:0,0:0:0:0:
208,240,68001,2,0,B|320:240|320:240|256:240,1,165,2|8,0:0|0:0,0:0:0:0:
208,320,68607,1,0,0:0:0:0:
128,200,68758,6,0,L|296:200,1,165,6|2,0:0|0:0,0:0:0:0:
168,96,69516,2,0,L|96:96,1,55,2|10,0:0|0:0,0:0:0:0:
248,200,69970,2,0,L|416:200,1,165,2|2,0:0|0:0,0:0:0:0:
296,96,70728,2,0,L|232:96,1,55,2|10,0:0|0:0,0:0:0:0:
376,312,71183,5,2,0:0:0:0:
256,312,71486,2,0,L|200:312,1,55,10|2,0:0|0:0,0:0:0:0:
320,184,71940,2,0,L|384:184,1,55,2|10,0:0|0:0,0:0:0:0:
240,88,72395,1,14,0:0:0:0:
360,88,72698,1,8,0:0:0:0:
240,88,73001,1,10,0:0:0:0:
120,232,73304,2,0,L|64:232,1,55,10|10,0:0|0:0,0:0:0:0:
136,328,73607,6,0,L|256:328,1,110,4|0,0:0|0:0,0:0:0:0:
352,224,74213,2,0,L|240:224,1,110,10|2,0:0|0:0,0:0:0:0:
136,128,74819,2,0,L|248:128,1,110,10|2,0:0|0:0,0:0:0:0:
352,128,75425,1,10,0:0:0:0:
232,288,75728,2,0,L|176:288,1,55,10|10,0:0|0:0,0:0:0:0:
248,200,76031,6,0,L|368:200,1,110,4|2,0:0|0:0,0:0:0:0:
248,104,76637,2,0,L|136:104,1,110,6|2,0:0|0:0,0:0:0:0:
264,248,77243,2,0,L|376:248,2,110,8|8|10,0:0|0:0|0:0,0:0:0:0:
152,144,78152,2,0,L|80:144,1,55,10|10,0:0|0:0,0:0:0:0:
168,56,78455,5,6,0:0:0:0:
416,368,79667,2,0,P|464:320|464:272,2,110,8|2|2,0:0|0:0|0:0,0:0:0:0:
304,336,80576,1,8,0:0:0:0:
176,192,80880,5,12,0:0:0:0:
288,192,81183,1,8,0:0:0:0:
400,192,81486,1,8,0:0:0:0:
288,192,81789,1,8,0:0:0:0:
176,192,82092,1,8,0:0:0:0:
288,192,82395,1,8,0:0:0:0:
176,80,82698,1,8,0:0:0:0:
288,80,83001,1,8,0:0:0:0:
160,304,83304,6,0,B|104:304|104:304|176:304,1,110,8|8,0:0|0:0,0:0:0:0:
272,208,83910,2,0,L|384:208,1,110,8|8,0:0|0:0,0:0:0:0:
256,104,84516,6,0,L|32:104,1,220,6|6,0:0|0:0,0:0:0:0:
288,40,85728,1,6,0:0:0:0:
