osu file format v14

[General]
AudioFilename: audio.mp3
AudioLeadIn: 0
PreviewTime: 53607
Countdown: 0
SampleSet: Normal
StackLeniency: 0.7
Mode: 2
LetterboxInBreaks: 0
WidescreenStoryboard: 1

[Editor]
DistanceSpacing: 0.8
BeatDivisor: 4
GridSize: 8
TimelineZoom: 3.099999

[Metadata]
Title:Arakajime Ushinawareta Bokura no Ballad (Game Ver.)
TitleUnicode:予め失われた僕らのバラッド (Game Ver.)
Artist:EARPHONES
ArtistUnicode:イヤホンズ
Creator:Sanyi
Version:Benny's Overdose
Source:神獄塔 メアリスケルター
Tags:compile heart idea factory International ps vita playstation Mary Skelter Nightmares rpg -Hex- Xetopia AJamez Benita Benny- IDu5t Imai Lisa Du5t IDust Dust Jemzuu
BeatmapID:1764050
BeatmapSetID:843086

[Difficulty]
HPDrainRate:6
CircleSize:3.8
OverallDifficulty:9.1
ApproachRate:9.1
SliderMultiplier:1.8
SliderTickRate:2

[Events]
//Background and Video events
0,0,"bg.jpg",0,0
Video,534,"video.avi"
//Break Periods
//Storyboard Layer 0 (Background)
//Storyboard Layer 1 (Fail)
//Storyboard Layer 2 (Pass)
//Storyboard Layer 3 (Foreground)
//Storyboard Layer 4 (Overlay)
//Storyboard Sound Samples

[TimingPoints]
880,303.030303030303,4,1,11,25,1,0
1940,-100,4,1,11,5,0,0
2092,-100,4,1,11,50,0,0
11789,-100,4,1,22,70,0,0
21486,-100,4,1,22,60,0,0
40879,-100,4,1,22,55,0,0
48152,-100,4,1,22,50,0,0
48455,-100,4,1,22,55,0,0
48758,-100,4,1,22,60,0,0
49061,-100,4,1,22,65,0,0
50576,-100,4,1,22,70,0,0
51940,-100,4,1,22,25,0,0
52849,-100,4,1,22,5,0,0
53001,-100,4,1,11,35,0,0
53152,-100,4,1,11,40,0,0
53304,-100,4,1,11,45,0,0
53455,-100,4,1,11,50,0,0
53607,-100,4,1,11,60,0,0
53910,-100,4,1,11,70,0,0
54213,-100,4,1,22,75,0,1
63304,-100,4,1,11,50,0,0
63607,-100,4,1,11,60,0,0
63910,-100,4,1,22,75,0,1
73001,-100,4,1,22,50,0,1
73304,-100,4,1,22,60,0,1
73607,-100,4,1,22,65,0,0
78455,-100,4,1,22,50,0,0
79667,-100,4,1,22,60,0,0
80879,-100,4,1,22,40,0,0
81183,-100,4,1,22,45,0,0
81486,-100,4,1,22,50,0,0
81789,-100,4,1,22,55,0,0
82092,-100,4,1,22,60,0,0
82395,-100,4,1,22,65,0,0
83304,-100,4,1,22,60,0,0
84516,-100,4,1,22,65,0,0
85122,-100,4,1,22,70,0,0
85728,-100,4,1,22,80,0,0

[Colours]
Combo1 : 128,0,128
Combo2 : 255,0,0
Combo3 : 255,0,255
Combo4 : 0,0,255

[HitObjects]
256,192,1031,12,0,1940,0:0:0:0:
212,343,2092,6,0,P|128:314|242:66,1,450,4|0,0:0|0:0,0:0:0:0:
404,75,3152,1,0,0:0:0:0:
144,138,3304,6,0,L|57:161,2,90,2|0|0,0:0|0:0|0:0,0:0:0:0:
473,204,3758,2,0,L|495:314,1,90,2|0,0:0|0:0,0:0:0:0:
229,272,4061,1,0,0:0:0:0:
66,265,4213,2,0,L|61:160,1,90,2|0,0:0|0:0,0:0:0:0:
425,191,4516,6,0,P|407:137|77:201,1,495,4|8,0:0|0:0,0:0:0:0:
351,237,5425,1,8,0:0:0:0:
367,187,5501,1,8,0:0:0:0:
202,195,5576,1,8,0:0:0:0:
195,137,5652,1,8,0:0:0:0:
416,102,5728,6,0,L|512:115,2,90,8|2|2,0:0|0:0|0:0,0:0:0:0:
146,130,6183,2,0,L|131:230,1,90,8|2,0:0|0:0,0:0:0:0:
274,236,6486,1,2,0:0:0:0:
31,247,6637,1,8,0:0:0:0:
270,329,6940,6,0,P|355:282|266:2,1,450,4|2,0:0|0:0,0:0:0:0:
60,91,7849,2,0,L|47:152,2,45,8|8|8,0:0|0:0|0:0,0:0:0:0:
317,73,8152,5,8,0:0:0:0:
354,96,8228,1,8,0:0:0:0:
376,135,8304,1,8,0:0:0:0:
378,179,8380,1,8,0:0:0:0:
284,193,8455,1,8,0:0:0:0:
246,216,8531,1,8,0:0:0:0:
224,255,8607,1,8,0:0:0:0:
222,299,8683,1,8,0:0:0:0:
307,304,8758,2,0,L|323:363,1,45,8|8,0:0|0:0,0:0:0:0:
226,360,8910,2,0,L|216:407,1,45,8|8,0:0|0:0,0:0:0:0:
384,364,9061,2,0,L|435:369,1,45,8|8,0:0|0:0,0:0:0:0:
275,311,9213,2,0,L|218:304,1,45,8|8,0:0|0:0,0:0:0:0:
442,260,9364,5,8,0:0:0:0:
442,260,9516,1,2,0:0:0:0:
188,235,9667,1,8,0:0:0:0:
188,235,9819,1,2,0:0:0:0:
333,191,9970,1,8,0:0:0:0:
83,171,10122,2,0,L|29:169,1,45,8|8,0:0|0:0,0:0:0:0:
230,121,10273,2,0,L|278:158,1,45,8|8,0:0|0:0,0:0:0:0:
265,148,10425,2,0,L|218:110,1,45,8|8,0:0|0:0,0:0:0:0:
47,118,10576,5,8,0:0:0:0:
264,119,11031,2,0,L|197:119,1,45,2|2,0:0|0:0,0:0:0:0:
399,144,11183,1,8,0:0:0:0:
431,174,11258,1,0,0:0:0:0:
441,217,11334,1,0,0:0:0:0:
426,259,11410,1,0,0:0:0:0:
273,274,11486,2,0,L|204:275,1,45,8|8,0:0|0:0,0:0:0:0:
370,216,11637,2,0,L|431:210,1,45,8|8,0:0|0:0,0:0:0:0:
212,194,11789,6,0,P|171:169|227:61,1,180,6|8,0:0|0:0,0:0:0:0:
298,60,12243,1,0,0:0:0:0:
451,158,12395,2,0,L|463:256,1,90,0|0,0:0|0:0,0:0:0:0:
344,280,12698,1,10,0:0:0:0:
460,251,12849,1,2,0:0:0:0:
208,263,13001,6,0,L|100:245,1,90,2|0,0:0|0:0,0:0:0:0:
354,221,13304,2,0,L|461:190,1,90,10|0,0:0|0:0,0:0:0:0:
278,166,13607,2,0,L|212:104,1,90,2|0,0:0|0:0,0:0:0:0:
358,98,13910,2,0,L|378:0,1,90,10|0,0:0|0:0,0:0:0:0:
126,215,14213,6,0,L|323:229,1,180,2|8,0:0|0:0,0:0:0:0:
398,237,14667,1,0,0:0:0:0:
251,183,14819,2,0,L|234:80,1,90,0|0,0:0|0:0,0:0:0:0:
352,77,15122,1,10,0:0:0:0:
229,56,15273,1,2,0:0:0:0:
491,162,15425,6,0,L|467:267,1,90,2|0,0:0|0:0,0:0:0:0:
199,255,15728,2,0,L|238:348,1,90,10|0,0:0|0:0,0:0:0:0:
396,331,16031,2,0,L|358:247,1,90,2|0,0:0|0:0,0:0:0:0:
58,238,16334,2,0,L|113:138,1,90,14|0,0:0|0:0,0:0:0:0:
404,174,16637,6,0,P|433:136|381:19,1,180,6|8,0:0|0:0,0:0:0:0:
300,22,17092,1,0,0:0:0:0:
141,85,17243,1,0,0:0:0:0:
81,149,17395,1,0,0:0:0:0:
87,236,17546,1,10,0:0:0:0:
155,292,17698,1,2,0:0:0:0:
399,366,17849,6,0,L|425:265,1,90,2|0,0:0|0:0,0:0:0:0:
259,280,18152,2,0,L|227:184,1,90,10|0,0:0|0:0,0:0:0:0:
476,192,18455,2,0,L|487:75,1,90,2|0,0:0|0:0,0:0:0:0:
208,95,18758,2,0,L|193:144,2,45,8|8|8,0:0|0:0|0:0,0:0:0:0:
471,69,19061,5,14,0:0:0:0:
347,129,19213,2,0,L|340:195,2,45,0|0|0,0:0|0:0|0:0,0:0:0:0:
59,211,19516,2,0,L|73:101,1,90,10|0,0:0|0:0,0:0:0:0:
194,116,19819,1,0,0:0:0:0:
445,135,19970,2,0,L|460:246,1,90,10|0,0:0|0:0,0:0:0:0:
168,300,20273,5,10,0:0:0:0:
313,243,20425,1,2,0:0:0:0:
168,300,20576,1,10,0:0:0:0:
391,203,20728,2,0,P|427:162|367:55,1,180,10|0,0:0|0:0,0:0:0:0:
246,60,21183,2,0,L|358:77,1,90,8|0,0:0|0:0,0:0:0:0:
69,155,21486,6,0,P|29:192|93:295,1,180,6|10,0:0|0:0,0:0:0:0:
165,300,21940,1,2,0:0:0:0:
328,256,22092,2,0,L|340:143,1,90,2|0,0:0|0:0,0:0:0:0:
175,149,22395,2,0,L|71:146,1,90,10|0,0:0|0:0,0:0:0:0:
341,91,22698,6,0,P|387:121|324:224,1,180,2|10,0:0|0:0,0:0:0:0:
197,254,23152,2,0,L|400:280,1,180,2|2,0:0|0:0,0:0:0:0:
220,300,23607,2,0,L|213:197,1,90,10|0,0:0|0:0,0:0:0:0:
469,204,23910,6,0,L|471:105,1,90,2|2,0:0|0:0,0:0:0:0:
327,88,24213,2,0,L|446:62,1,90,10|2,0:0|0:0,0:0:0:0:
173,66,24516,2,0,L|149:174,1,90,2|0,0:0|0:0,0:0:0:0:
296,166,24819,2,0,L|309:265,1,90,10|0,0:0|0:0,0:0:0:0:
87,270,25122,6,0,P|53:232|119:130,1,180,2|8,0:0|0:0,0:0:0:0:
255,136,25576,1,0,0:0:0:0:
163,89,25728,1,0,0:0:0:0:
72,47,25880,1,0,0:0:0:0:
228,54,26031,2,0,L|244:153,1,90,10|10,0:0|0:0,0:0:0:0:
196,186,26258,1,8,0:0:0:0:
48,201,26334,6,0,L|31:88,1,90,2|2,0:0|0:0,0:0:0:0:
178,87,26637,2,0,L|57:82,1,90,10|2,0:0|0:0,0:0:0:0:
359,155,26940,2,0,L|365:251,1,90,2|0,0:0|0:0,0:0:0:0:
229,265,27243,2,0,L|114:261,1,90,10|0,0:0|0:0,0:0:0:0:
405,220,27546,5,2,0:0:0:0:
279,192,27698,2,0,L|288:91,1,90,2|8,0:0|0:0,0:0:0:0:
422,93,28001,2,0,L|332:96,2,90,2|0|0,0:0|0:0|0:0,0:0:0:0:
204,179,28455,2,0,L|201:278,1,90,10|8,0:0|0:0,0:0:0:0:
255,294,28683,1,8,0:0:0:0:
424,176,28758,6,0,L|421:68,1,90,2|2,0:0|0:0,0:0:0:0:
291,94,29061,2,0,L|284:0,1,90,10|2,0:0|0:0,0:0:0:0:
425,6,29364,2,0,L|482:78,1,90,2|0,0:0|0:0,0:0:0:0:
195,150,29667,2,0,L|170:250,1,90,10|0,0:0|0:0,0:0:0:0:
434,245,29970,6,0,L|354:158,1,90,8|0,0:0|0:0,0:0:0:0:
123,177,30273,2,0,L|203:90,1,90,8|0,0:0|0:0,0:0:0:0:
446,121,30576,2,0,L|339:111,1,90,8|0,0:0|0:0,0:0:0:0:
86,140,30879,2,0,L|196:123,1,90,10|0,0:0|0:0,0:0:0:0:
492,120,31183,6,0,L|297:89,1,180,2|10,0:0|0:0,0:0:0:0:
401,181,31637,1,0,0:0:0:0:
246,203,31789,2,0,L|231:315,1,90,2|0,0:0|0:0,0:0:0:0:
376,301,32092,2,0,L|393:398,1,90,10|0,0:0|0:0,0:0:0:0:
134,370,32395,6,0,L|38:361,1,90,2|2,0:0|0:0,0:0:0:0:
176,305,32698,2,0,L|72:300,1,90,10|2,0:0|0:0,0:0:0:0:
315,223,33001,2,0,L|411:214,1,90,2|2,0:0|0:0,0:0:0:0:
273,158,33304,2,0,L|377:153,1,90,10|0,0:0|0:0,0:0:0:0:
118,165,33607,6,0,P|77:137|129:37,1,180,2|10,0:0|0:0,0:0:0:0:
279,74,34061,2,0,L|93:89,1,180,2|2,0:0|0:0,0:0:0:0:
357,163,34516,2,0,L|367:270,1,90,10|0,0:0|0:0,0:0:0:0:
84,267,34819,6,0,P|46:241|112:122,1,180,2|8,0:0|0:0,0:0:0:0:
230,134,35273,2,0,L|324:151,2,90,0|0|0,0:0|0:0|0:0,0:0:0:0:
354,54,35728,2,0,L|246:39,1,90,10|2,0:0|0:0,0:0:0:0:
476,233,36031,6,0,L|283:271,1,180,2|8,0:0|0:0,0:0:0:0:
140,178,36486,2,0,P|106:256|162:320,1,180,2|2,0:0|0:0,0:0:0:0:
320,168,36940,2,0,L|209:176,1,90,10|0,0:0|0:0,0:0:0:0:
449,247,37243,6,0,P|485:215|434:110,1,180,2|10,0:0|0:0,0:0:0:0:
281,133,37698,2,0,L|462:117,1,180,2|0,0:0|0:0,0:0:0:0:
298,76,38152,2,0,L|191:82,1,90,10|0,0:0|0:0,0:0:0:0:
471,159,38455,6,0,L|487:263,1,90,2|2,0:0|0:0,0:0:0:0:
298,166,38758,2,0,L|303:268,1,90,10|2,0:0|0:0,0:0:0:0:
138,256,39061,2,0,L|126:158,1,90,2|0,0:0|0:0,0:0:0:0:
349,158,39364,2,0,L|371:57,1,90,10|0,0:0|0:0,0:0:0:0:
45,72,39667,5,2,0:0:0:0:
177,143,39819,2,0,L|173:257,1,90,8|8,0:0|0:0,0:0:0:0:
69,279,40122,1,2,0:0:0:0:
310,284,40273,2,0,L|418:280,1,90,8|8,0:0|0:0,0:0:0:0:
265,216,40576,2,0,L|365:212,1,90,2|2,0:0|0:0,0:0:0:0:
108,175,40880,6,0,P|67:157|144:-4,1,270,6|0,0:0|0:0,0:0:0:0:
183,1,41410,1,0,0:0:0:0:
355,78,41486,2,0,P|398:118|338:214,1,180,10|0,0:0|0:0,0:0:0:0:
87,226,41940,2,0,L|278:215,1,180,2|0,0:0|0:0,0:0:0:0:
139,174,42395,2,0,L|132:78,1,90,2|0,0:0|0:0,0:0:0:0:
353,86,42698,2,0,L|363:211,1,90,10|0,0:0|0:0,0:0:0:0:
233,203,43001,1,10,0:0:0:0:
366,220,43152,1,0,0:0:0:0:
121,255,43304,6,0,L|25:250,1,90,2|2,0:0|0:0,0:0:0:0:
172,190,43607,2,0,L|76:183,1,90,2|2,0:0|0:0,0:0:0:0:
36,179,43834,1,0,0:0:0:0:
226,147,43910,2,0,L|344:147,2,90,10|0|2,0:0|0:0|0:0,0:0:0:0:
128,147,44364,1,0,0:0:0:0:
351,261,44516,6,0,P|384:221|331:116,1,180,2|2,0:0|0:0,0:0:0:0:
238,108,44970,1,2,0:0:0:0:
81,187,45122,2,0,L|64:279,1,90,8|2,0:0|0:0,0:0:0:0:
211,312,45425,2,0,L|100:320,1,90,10|0,0:0|0:0,0:0:0:0:
404,175,45728,6,0,P|445:157|368:-4,1,270,6|0,0:0|0:0,0:0:0:0:
330,9,46258,1,0,0:0:0:0:
157,78,46334,2,0,P|114:118|174:214,1,180,10|0,0:0|0:0,0:0:0:0:
425,226,46789,2,0,L|234:215,1,180,2|0,0:0|0:0,0:0:0:0:
90,187,47243,2,0,L|86:83,1,90,10|0,0:0|0:0,0:0:0:0:
243,101,47546,2,0,L|256:5,1,90,10|0,0:0|0:0,0:0:0:0:
199,9,47773,1,0,0:0:0:0:
46,73,47849,2,0,L|29:168,1,90,10|0,0:0|0:0,0:0:0:0:
361,289,48152,6,0,P|408:257|346:149,1,180,8|8,0:0|0:0,0:0:0:0:
127,161,48758,2,0,L|316:156,1,180,8|8,0:0|0:0,0:0:0:0:
37,204,49364,6,0,L|32:310,1,90,8|8,0:0|0:0,0:0:0:0:
168,210,49667,2,0,L|174:106,1,90,8|8,0:0|0:0,0:0:0:0:
309,200,49970,2,0,L|307:306,1,90,8|8,0:0|0:0,0:0:0:0:
285,326,50198,1,8,0:0:0:0:
241,341,50273,1,8,0:0:0:0:
198,331,50349,1,8,0:0:0:0:
344,326,50425,2,0,L|408:325,1,45,8|8,0:0|0:0,0:0:0:0:
162,242,50576,5,10,0:0:0:0:
385,208,50879,1,10,0:0:0:0:
154,161,51183,1,10,0:0:0:0:
389,129,51486,1,10,0:0:0:0:
87,159,51789,1,14,0:0:0:0:
256,192,51940,12,8,53001,0:0:0:0:
180,239,53304,6,0,L|113:233,1,45,8|8,0:0|0:0,0:0:0:0:
135,234,53455,2,0,L|180:239,1,45,8|8,0:0|0:0,0:0:0:0:
320,232,53607,2,0,L|333:172,1,45,10|8,0:0|0:0,0:0:0:0:
264,176,53758,2,0,L|249:123,1,45,10|8,0:0|0:0,0:0:0:0:
387,133,53910,2,0,L|469:131,1,45,10|8,0:0|0:0,0:0:0:0:
229,88,54061,2,0,L|168:91,1,45,10|8,0:0|0:0,0:0:0:0:
372,89,54213,6,0,P|413:114|371:234,1,180,6|8,0:0|0:0,0:0:0:0:
240,257,54667,2,0,L|429:267,1,180,0|0,0:0|0:0,0:0:0:0:
270,206,55122,2,0,L|260:108,1,90,8|0,0:0|0:0,0:0:0:0:
472,115,55425,5,0,0:0:0:0:
222,153,55728,2,0,L|203:249,1,90,10|0,0:0|0:0,0:0:0:0:
431,239,56031,2,0,L|484:313,1,90,2|0,0:0|0:0,0:0:0:0:
183,328,56334,2,0,L|90:354,1,90,10|0,0:0|0:0,0:0:0:0:
426,364,56637,6,0,P|459:330|403:208,1,180,2|8,0:0|0:0,0:0:0:0:
270,196,57092,1,2,0:0:0:0:
417,180,57243,2,0,P|459:143|403:41,1,180,2|8,0:0|0:0,0:0:0:0:
178,132,57849,6,0,L|306:130,2,90,2|0|8,0:0|0:0|0:0,0:0:0:0:
336,63,58304,1,2,0:0:0:0:
179,132,58455,2,0,P|128:171|186:286,1,180,2|8,0:0|0:0,0:0:0:0:
290,285,58910,2,0,L|370:283,1,45,8|8,0:0|0:0,0:0:0:0:
160,244,59061,6,0,L|64:229,2,90,6|2|10,0:0|0:0|0:0,0:0:0:0:
315,166,59516,2,0,L|131:173,1,180,2|2,0:0|0:0,0:0:0:0:
369,206,59970,2,0,L|406:117,1,90,10|0,0:0|0:0,0:0:0:0:
186,120,60273,6,0,L|86:129,2,90,2|2|10,0:0|0:0|0:0,0:0:0:0:
342,143,60728,2,0,P|389:184|327:274,1,180,2|0,0:0|0:0,0:0:0:0:
180,278,61183,2,0,L|149:177,1,90,10|0,0:0|0:0,0:0:0:0:
386,182,61486,6,0,L|488:175,2,90,2|2|10,0:0|0:0|0:0,0:0:0:0:
233,184,61940,2,0,P|182:146|236:51,1,180,2|0,0:0|0:0,0:0:0:0:
452,59,62395,2,0,L|476:157,1,90,10|0,0:0|0:0,0:0:0:0:
170,217,62698,6,0,L|363:211,1,180,10|8,0:0|0:0,0:0:0:0:
158,205,63304,2,0,L|151:149,1,45,10|8,0:0|0:0,0:0:0:0:
220,154,63455,2,0,L|238:103,1,45,10|8,0:0|0:0,0:0:0:0:
98,91,63607,2,0,L|47:82,1,45,10|8,0:0|0:0,0:0:0:0:
249,75,63758,2,0,L|318:69,1,45,10|8,0:0|0:0,0:0:0:0:
83,51,63910,6,0,P|37:80|91:185,1,180,6|8,0:0|0:0,0:0:0:0:
228,233,64364,2,0,L|39:243,1,180,0|0,0:0|0:0,0:0:0:0:
198,186,64819,2,0,L|298:168,1,90,8|0,0:0|0:0,0:0:0:0:
40,115,65122,5,0,0:0:0:0:
290,153,65425,2,0,L|309:249,1,90,10|0,0:0|0:0,0:0:0:0:
81,239,65728,2,0,L|28:313,1,90,2|0,0:0|0:0,0:0:0:0:
329,328,66031,2,0,L|422:354,1,90,10|0,0:0|0:0,0:0:0:0:
86,364,66334,6,0,P|53:330|109:208,1,180,2|8,0:0|0:0,0:0:0:0:
195,202,66789,1,0,0:0:0:0:
417,180,66940,2,0,L|224:153,1,180,2|8,0:0|0:0,0:0:0:0:
146,140,67395,1,2,0:0:0:0:
415,43,67546,6,0,L|325:44,2,90,2|2|8,0:0|0:0|0:0,0:0:0:0:
252,112,68001,2,0,P|210:139|272:240,1,180,2|8,0:0|0:0,0:0:0:0:
390,244,68455,2,0,L|417:351,1,90,8|0,0:0|0:0,0:0:0:0:
348,345,68683,1,0,0:0:0:0:
151,245,68758,6,0,P|106:228|132:110,1,180,6|10,0:0|0:0,0:0:0:0:
363,122,69213,2,0,L|179:129,1,180,2|2,0:0|0:0,0:0:0:0:
442,178,69667,2,0,L|479:89,1,90,10|0,0:0|0:0,0:0:0:0:
186,120,69970,5,2,0:0:0:0:
329,106,70122,1,2,0:0:0:0:
186,120,70273,1,10,0:0:0:0:
342,143,70425,2,0,P|389:184|327:274,1,180,2|2,0:0|0:0,0:0:0:0:
180,278,70879,2,0,L|149:177,1,90,10|0,0:0|0:0,0:0:0:0:
386,182,71183,6,0,L|488:175,2,90,2|0|10,0:0|0:0|0:0,0:0:0:0:
233,184,71637,2,0,P|182:146|236:51,1,180,2|2,0:0|0:0,0:0:0:0:
358,55,72092,2,0,L|449:107,1,90,10|8,0:0|0:0,0:0:0:0:
170,217,72395,6,0,L|363:211,1,180,14|8,0:0|0:0,0:0:0:0:
156,162,73001,2,0,L|92:155,1,45,10|8,0:0|0:0,0:0:0:0:
111,157,73152,2,0,L|156:162,1,45,8|8,0:0|0:0,0:0:0:0:
346,121,73304,1,10,0:0:0:0:
220,69,73455,1,10,0:0:0:0:
439,71,73607,6,0,P|484:108|433:229,1,180,4|0,0:0|0:0,0:0:0:0:
158,247,74213,2,0,L|356:256,1,180,10|2,0:0|0:0,0:0:0:0:
226,194,74667,2,0,L|161:188,1,45,8|8,0:0|0:0,0:0:0:0:
349,158,74819,6,0,L|453:146,2,90,10|8|2,0:0|0:0|0:0,0:0:0:0:
446,86,75273,2,0,L|494:81,1,45,0|0,0:0|0:0,0:0:0:0:
304,77,75425,2,0,L|202:73,1,90,10|0,0:0|0:0,0:0:0:0:
346,141,75728,2,0,L|365:217,1,45,10|8,0:0|0:0,0:0:0:0:
272,204,75879,2,0,L|257:259,1,45,10|8,0:0|0:0,0:0:0:0:
439,71,76031,6,0,P|484:108|433:229,1,180,4|2,0:0|0:0,0:0:0:0:
158,247,76637,2,0,L|356:256,1,180,6|2,0:0|0:0,0:0:0:0:
81,206,77243,6,0,L|63:112,1,90,8|2,0:0|0:0,0:0:0:0:
192,106,77546,2,0,L|93:101,1,90,8|2,0:0|0:0,0:0:0:0:
357,90,77849,1,10,0:0:0:0:
393,114,77925,1,8,0:0:0:0:
411,155,78001,1,8,0:0:0:0:
404,199,78076,1,8,0:0:0:0:
172,241,78152,2,0,L|140:301,1,45,10|8,0:0|0:0,0:0:0:0:
220,312,78304,2,0,L|245:360,1,45,10|8,0:0|0:0,0:0:0:0:
62,352,78455,5,6,0:0:0:0:
252,333,79667,6,0,L|367:327,2,90,8|2|2,0:0|0:0|0:0,0:0:0:0:
484,250,80122,1,8,0:0:0:0:
204,232,80273,2,0,L|90:227,1,90,2|0,0:0|0:0,0:0:0:0:
149,177,80501,1,0,0:0:0:0:
333,167,80576,2,0,L|432:173,1,90,8|0,0:0|0:0,0:0:0:0:
113,295,80880,6,0,P|66:274|118:153,1,180,12|8,0:0|0:0,0:0:0:0:
330,175,81486,2,0,L|150:165,1,180,8|8,0:0|0:0,0:0:0:0:
416,132,82092,2,0,P|454:168|392:273,1,180,8|8,0:0|0:0,0:0:0:0:
134,284,82698,2,0,L|33:274,1,90,8|8,0:0|0:0,0:0:0:0:
184,231,83001,2,0,L|91:222,1,90,8|8,0:0|0:0,0:0:0:0:
347,201,83304,6,0,L|419:195,2,60,8|8|8,0:0|0:0|0:0,0:0:0:0:
240,203,83607,2,0,L|249:134,1,60,8|8,0:0|0:0,0:0:0:0:
333,127,83809,1,8,0:0:0:0:
113,124,83910,2,0,L|47:120,2,60,8|8|8,0:0|0:0|0:0,0:0:0:0:
211,112,84213,2,0,L|202:43,1,60,8|8,0:0|0:0,0:0:0:0:
118,36,84415,1,8,0:0:0:0:
343,40,84516,6,0,P|413:82|350:244,1,270,6|0,0:0|0:0,0:0:0:0:
118,257,85122,2,0,P|62:238|135:70,1,270,6|0,0:0|0:0,0:0:0:0:
407,70,85728,1,6,0:0:0:0:
