osu file format v14

[General]
AudioFilename: audio.mp3
AudioLeadIn: 0
PreviewTime: 186074
Countdown: 0
SampleSet: Soft
StackLeniency: 0.5
Mode: 0
LetterboxInBreaks: 0
WidescreenStoryboard: 1

[Editor]
Bookmarks: 155054,214448,215660,253236,255660,258084,260508,286569,293842,298387,300811,303236,305660
DistanceSpacing: 1.9
BeatDivisor: 4
GridSize: 8
TimelineZoom: 2.699999

[Metadata]
Title:Arakajime Ushinawareta Bokura no Ballad
TitleUnicode:予め失われた僕らのバラッド
Artist:EARPHONES
ArtistUnicode:イヤホンズ
Creator:Flame Haze
Version:Senseless Sacrifice
Source:神獄塔 メアリスケルター
Tags:video game pop japanese j-rock jrock rock j-pop jpop Mary Skelter: Nightmares Skelter opening Idea Factory International IF Compile Heart CH kami gokutou Kangokutou Mearisukeruta Our Last Divine Prison Tower
BeatmapID:2786685
BeatmapSetID:1016966

[Difficulty]
HPDrainRate:5.8
CircleSize:4.2
OverallDifficulty:9
ApproachRate:9.6
SliderMultiplier:1.8
SliderTickRate:1

[Events]
//Background and Video events
0,0,"BG.jpg",0,0
//Break Periods
//Storyboard Layer 0 (Background)
//Storyboard Layer 1 (Fail)
//Storyboard Layer 2 (Pass)
//Storyboard Layer 3 (Foreground)
//Storyboard Layer 4 (Overlay)
//Storyboard Sound Samples

[TimingPoints]
90,303.030303030303,4,2,1,30,1,0
90,-142.857142857143,4,2,1,30,0,0
9786,-200,4,2,1,40,0,0
11529,-200,4,2,1,5,0,0
11605,-200,4,2,1,40,0,0
13347,-200,4,2,1,5,0,0
13423,-200,4,2,1,40,0,0
18877,-200,4,2,1,60,0,0
19483,-153.846153846153,4,2,1,60,0,0
20923,-153.846153846154,4,2,1,5,0,0
20999,-153.846153846154,4,2,1,60,0,0
21832,-153.846153846153,4,2,1,5,0,0
21908,-153.846153846153,4,2,1,60,0,0
26074,-153.846153846153,4,2,1,5,0,0
26150,-153.846153846153,4,2,1,60,0,0
29180,-142.857142857143,4,2,1,60,0,0
35165,-142.857142857143,4,2,1,5,0,0
35241,-142.857142857143,4,2,1,60,0,0
37590,-142.857142857143,4,2,1,5,0,0
37665,-142.857142857143,4,2,1,60,0,0
38196,-142.857142857143,4,2,1,5,0,0
38271,-142.857142857143,4,2,1,60,0,0
38499,-142.857142857143,4,2,1,5,0,0
38574,-142.857142857143,4,2,1,60,0,0
38877,-117.647058823529,4,2,1,60,0,0
47665,-90.9090909090909,4,2,1,60,0,0
47893,-90.9090909090909,4,2,1,5,0,0
47968,-90.9090909090909,4,2,1,60,0,0
48196,-90.9090909090909,4,2,1,60,0,0
48271,-90.9090909090909,4,2,1,60,0,0
48574,-117.647058823529,4,2,1,60,0,0
58196,-117.647058823529,4,2,1,5,0,0
58271,-117.647058823529,4,2,1,70,0,0
63044,-117.647058823529,4,2,1,5,0,0
63120,-117.647058823529,4,2,1,70,0,0
67362,-86.9565217391302,4,2,1,70,0,0
67589,-86.9565217391302,4,2,1,5,0,0
67665,-86.9565217391302,4,2,1,70,0,0
68499,-86.9565217391302,4,2,1,5,0,0
68574,-86.9565217391302,4,2,1,70,0,0
70620,-86.9565217391302,4,2,1,5,0,0
70696,-86.9565217391302,4,2,1,70,0,0
70923,-86.9565217391302,4,2,1,5,0,0
70999,-86.9565217391302,4,2,1,70,0,0
72741,-86.9565217391302,4,2,1,5,0,0
72817,-86.9565217391302,4,2,1,70,0,0
73044,-86.9565217391302,4,2,1,5,0,0
73120,-86.9565217391302,4,2,1,70,0,0
77211,-100,4,2,1,70,0,0
77362,-166.666666666667,4,2,1,70,0,0
77589,-166.666666666667,4,2,1,5,0,0
77665,-100,4,2,1,60,0,0
78802,-100,4,2,1,5,0,0
78877,-100,4,2,1,60,0,0
79559,-100,4,2,1,5,0,0
79635,-100,4,2,1,60,0,0
83650,-100,4,2,1,5,0,0
83726,-100,4,2,1,60,0,0
86150,-76.9230769230769,4,2,1,60,0,0
86377,-76.9230769230769,4,2,1,5,0,0
86453,-76.9230769230769,4,2,1,60,0,0
86680,-76.9230769230769,4,2,1,5,0,0
86756,-76.9230769230769,4,2,1,60,0,0
86983,-76.9230769230769,4,2,1,5,0,0
87059,-142.857142857143,4,2,1,60,0,0
87286,-142.857142857143,4,2,1,5,0,0
87362,-100,4,2,1,60,0,0
87893,-100,4,2,1,5,0,0
87968,-100,4,2,1,60,0,0
88499,-100,4,2,1,5,0,0
88574,-100,4,2,1,60,0,0
89711,-100,4,2,1,5,0,0
89786,-100,4,2,1,60,0,0
90014,-100,4,2,1,5,0,0
90089,-100,4,2,1,60,0,0
90468,-100,4,2,1,5,0,0
90544,-100,4,2,1,60,0,0
92438,-100,4,2,1,5,0,0
92514,-100,4,2,1,60,0,0
92893,-100,4,2,1,5,0,0
92968,-100,4,2,1,60,0,0
93650,-100,4,2,1,5,0,0
93726,-100,4,2,1,60,0,0
96832,-100,4,2,1,5,0,0
96908,-100,4,2,1,60,0,0
96983,-100,4,2,1,5,0,0
97059,-111.111111111111,4,2,1,60,0,0
100923,-111.111111111111,4,2,1,5,0,0
100999,-111.111111111111,4,2,1,70,0,0
106756,-76.9230769230769,4,2,1,70,0,0
106983,-76.9230769230769,4,2,1,5,0,0
107059,-76.9230769230769,4,2,1,70,0,0
107286,-76.9230769230769,4,2,1,5,0,0
107362,-76.9230769230769,4,2,1,70,0,0
107589,-76.9230769230769,4,2,1,5,0,0
107665,-76.9230769230769,4,2,1,70,0,0
107893,-76.9230769230769,4,2,1,5,0,0
107968,-111.111111111111,4,2,1,70,0,0
109180,-95.2380952380952,4,2,1,70,0,0
110393,-83.3333333333333,4,2,1,80,0,1
112135,-83.3333333333333,4,2,1,5,0,1
112211,-83.3333333333333,4,2,1,80,0,1
112741,-83.3333333333333,4,2,1,5,0,1
112817,-83.3333333333333,4,2,1,80,0,1
113953,-83.3333333333333,4,2,1,5,0,1
114029,-83.3333333333333,4,2,1,80,0,1
115165,-83.3333333333333,4,2,1,5,0,1
115241,-83.3333333333333,4,2,1,80,0,1
115923,-83.3333333333333,4,2,1,5,0,1
115999,-83.3333333333333,4,2,1,80,0,1
117135,-83.3333333333333,4,2,1,5,0,1
117211,-83.3333333333333,4,2,1,80,0,1
118347,-83.3333333333333,4,2,1,5,0,1
118423,-83.3333333333333,4,2,1,80,0,1
122438,-83.3333333333333,4,2,1,5,0,1
122514,-83.3333333333333,4,2,1,80,0,1
125165,-83.3333333333333,4,2,1,5,0,1
125241,-83.3333333333333,4,2,1,80,0,1
125620,-83.3333333333333,4,2,1,5,0,1
125696,-83.3333333333333,4,2,1,80,0,1
127589,-83.3333333333333,4,2,1,5,0,1
127665,-83.3333333333333,4,2,1,80,0,1
132135,-83.3333333333333,4,2,1,5,0,1
132211,-83.3333333333333,4,2,1,80,0,1
134635,-90.9090909090909,4,2,1,70,0,0
136983,-90.9090909090909,4,2,1,5,0,0
137059,-90.9090909090909,4,2,1,70,0,0
137286,-90.9090909090909,4,2,1,5,0,0
137362,-90.9090909090909,4,2,1,70,0,0
140620,-90.9090909090909,4,2,1,5,0,0
140696,-90.9090909090909,4,2,1,70,0,0
141226,-90.9090909090909,4,2,1,5,0,0
141302,-90.9090909090909,4,2,1,70,0,0
141908,-90.9090909090909,4,2,1,70,0,0
144559,-90.9090909090909,4,2,1,5,0,0
144635,-90.9090909090909,4,2,1,70,0,0
147438,-90.9090909090909,4,2,1,5,0,0
147514,-90.9090909090909,4,2,1,70,0,0
149105,-90.9090909090909,4,2,1,5,0,0
149180,-90.9090909090909,4,2,1,70,0,0
153726,-166.666666666667,4,2,1,70,0,0
153953,-166.666666666667,4,2,1,5,0,0
154029,-100,4,2,1,60,0,0
155468,-100,4,2,1,5,0,0
155544,-100,4,2,1,60,0,0
156680,-100,4,2,1,5,0,0
156756,-100,4,2,1,60,0,0
159408,-100,4,2,1,5,0,0
159483,-100,4,2,1,60,0,0
161529,-100,4,2,1,5,0,0
161605,-100,4,2,1,60,0,0
162438,-100,4,2,1,5,0,0
162514,-76.9230769230769,4,2,1,60,0,0
162741,-76.9230769230769,4,2,1,5,0,0
162817,-76.9230769230769,4,2,1,60,0,0
163044,-76.9230769230769,4,2,1,5,0,0
163120,-76.9230769230769,4,2,1,60,0,0
163347,-76.9230769230769,4,2,1,5,0,0
163423,-166.666666666667,4,2,1,60,0,0
163650,-166.666666666667,4,2,1,60,0,0
163726,-100,4,2,1,60,0,0
164862,-100,4,2,1,5,0,0
164938,-100,4,2,1,60,0,0
166074,-100,4,2,1,5,0,0
166150,-100,4,2,1,60,0,0
167286,-100,4,2,1,5,0,0
167362,-100,4,2,1,60,0,0
173120,-142.857142857143,4,2,1,60,0,0
173423,-117.647058823529,4,2,1,60,0,0
180696,-117.647058823529,4,2,1,70,0,0
183120,-153.846153846153,4,2,1,70,0,0
184332,-95.2380952380951,4,2,1,70,0,0
186756,-83.3333333333333,4,2,1,80,0,1
189105,-83.3333333333333,4,2,1,5,0,1
189180,-83.3333333333333,4,2,1,80,0,1
190317,-83.3333333333333,4,2,1,5,0,1
190393,-83.3333333333333,4,2,1,80,0,1
191529,-83.3333333333333,4,2,1,5,0,1
191605,-83.3333333333333,4,2,1,80,0,1
192286,-83.3333333333333,4,2,1,5,0,1
192362,-83.3333333333333,4,2,1,80,0,1
192741,-83.3333333333333,4,2,1,5,0,1
192817,-83.3333333333333,4,2,1,80,0,1
193499,-83.3333333333333,4,2,1,5,0,1
193574,-83.3333333333333,4,2,1,80,0,1
198802,-83.3333333333333,4,2,1,5,0,1
198877,-83.3333333333333,4,2,1,80,0,1
201529,-83.3333333333333,4,2,1,5,0,1
201605,-83.3333333333333,4,2,1,80,0,1
201983,-83.3333333333333,4,2,1,5,0,1
202059,-83.3333333333333,4,2,1,80,0,1
203196,-83.3333333333333,4,2,1,5,0,1
203271,-83.3333333333333,4,2,1,80,0,1
203953,-83.3333333333333,4,2,1,5,0,1
204029,-83.3333333333333,4,2,1,80,0,1
204408,-83.3333333333333,4,2,1,5,0,1
204483,-83.3333333333333,4,2,1,80,0,1
206150,-111.111111111111,4,2,1,80,0,1
208196,-111.111111111111,4,2,1,5,0,1
208271,-111.111111111111,4,2,1,80,0,1
210393,-95.2380952380952,4,2,1,80,0,1
210999,-95.2380952380952,4,2,1,55,0,0
211605,-95.2380952380952,4,2,1,60,0,0
212211,-95.2380952380952,4,2,1,65,0,0
212817,-95.2380952380952,4,2,1,70,0,0
215847,-153.846153846153,4,2,1,60,0,0
230317,-153.846153846153,4,2,1,5,0,0
230393,-153.846153846153,4,2,1,60,0,0
238802,-153.846153846153,4,2,1,5,0,0
238877,-153.846153846153,4,2,1,60,0,0
243953,-153.846153846153,4,2,1,5,0,0
244029,-153.846153846153,4,2,1,60,0,0
248499,-153.846153846153,4,2,1,5,0,0
248574,-153.846153846153,4,2,1,60,0,0
252211,-153.846153846153,4,2,1,70,0,0
257286,-153.846153846153,4,2,1,5,0,0
257362,-125,4,2,1,70,0,0
259786,-90.9090909090909,4,2,1,70,0,0
261908,-83.3333333333333,4,2,1,80,0,1
263347,-83.3333333333333,4,2,1,5,0,1
263423,-83.3333333333333,4,2,1,80,0,1
264256,-83.3333333333333,4,2,1,5,0,1
264332,-83.3333333333333,4,2,1,80,0,1
265468,-83.3333333333333,4,2,1,5,0,1
265544,-83.3333333333333,4,2,1,80,0,1
267438,-83.3333333333333,4,2,1,5,0,1
267514,-83.3333333333333,4,2,1,80,0,1
267893,-83.3333333333333,4,2,1,5,0,1
267968,-83.3333333333333,4,2,1,80,0,1
268650,-83.3333333333333,4,2,1,5,0,1
268726,-83.3333333333333,4,2,1,80,0,1
269862,-83.3333333333333,4,2,1,5,0,1
269938,-83.3333333333333,4,2,1,80,0,1
273347,-83.3333333333333,4,2,1,5,0,1
273423,-83.3333333333333,4,2,1,80,0,1
273953,-83.3333333333333,4,2,1,5,0,1
274029,-83.3333333333333,4,2,1,80,0,1
275923,-83.3333333333333,4,2,1,5,0,1
275999,-83.3333333333333,4,2,1,80,0,1
276074,-83.3333333333333,4,2,1,5,0,1
276150,-83.3333333333333,4,2,1,80,0,1
276680,-83.3333333333333,4,2,1,5,0,1
276756,-83.3333333333333,4,2,1,80,0,1
277135,-83.3333333333333,4,2,1,5,0,1
277211,-83.3333333333333,4,2,1,80,0,1
278347,-83.3333333333333,4,2,1,5,0,1
278423,-83.3333333333333,4,2,1,80,0,1
278802,-83.3333333333333,4,2,1,5,0,1
278877,-83.3333333333333,4,2,1,80,0,1
279559,-83.3333333333333,4,2,1,5,0,1
279635,-83.3333333333333,4,2,1,80,0,1
281302,-95.2380952380952,4,2,1,80,0,1
282135,-95.2380952380952,4,2,1,5,0,1
282211,-95.2380952380952,4,2,1,80,0,1
283726,-105.263157894737,4,2,1,80,0,1
284938,-80,4,2,1,80,0,1
286150,-100,4,2,1,80,0,0
288574,-117.647058823529,4,2,1,70,0,0
292211,-74.0740740740739,4,2,1,70,0,0
292741,-74.0740740740739,4,2,1,5,0,0
292817,-74.0740740740739,4,2,1,70,0,0
293347,-74.0740740740739,4,2,1,5,0,0
293423,-243.90243902439,4,2,2,70,0,0
293499,-243.90243902439,4,2,2,5,0,0
297059,-243.90243902439,4,2,1,10,0,0
297362,-100,4,2,1,10,0,0
297968,-100,4,2,1,15,0,0
300089,-100,4,2,1,20,0,0
300999,-100,4,2,1,25,0,0
303120,-100,4,2,1,30,0,0
304029,-100,4,2,1,35,0,0
305544,-100,4,2,1,40,0,0

[Colours]
Combo1 : 238,111,184
Combo2 : 149,139,237
Combo3 : 242,57,136
Combo4 : 74,45,242

[HitObjects]
110,351,90,5,2,0:0:0:0:
139,275,241,1,0,0:0:0:0:
100,153,393,1,0,0:0:0:0:
100,153,999,5,0,0:0:0:0:
100,153,1302,1,0,0:0:0:0:
185,179,1453,1,0,0:0:0:0:
306,116,1605,1,0,0:0:0:0:
144,47,1908,1,2,0:0:0:0:
144,47,2514,5,2,0:0:0:0:
186,115,2665,1,0,0:0:0:0:
356,65,2817,1,0,0:0:0:0:
356,65,3423,5,0,0:0:0:0:
356,65,3726,1,0,0:0:0:0:
325,139,3877,1,0,0:0:0:0:
417,289,4029,1,0,0:0:0:0:
325,139,4332,1,2,0:0:0:0:
325,139,4938,5,2,0:0:0:0:
366,197,5089,1,0,0:0:0:0:
335,353,5241,1,0,0:0:0:0:
335,353,5847,5,0,0:0:0:0:
335,353,6150,1,0,0:0:0:0:
266,329,6302,1,0,0:0:0:0:
207,188,6453,1,0,0:0:0:0:
266,329,6756,1,2,0:0:0:0:
266,329,7362,5,2,0:0:0:0:
339,275,7514,1,0,0:0:0:0:
285,94,7665,1,0,0:0:0:0:
285,94,8271,5,0,0:0:0:0:
285,94,8574,1,2,0:0:0:0:
362,139,8726,1,0,0:0:0:0:
494,27,8877,1,0,0:0:0:0:
362,139,9180,1,2,0:0:0:0:
362,139,9786,6,0,L|423:129,1,45,2|0,0:0|0:0,0:0:0:0:
406,131,10090,1,0,0:0:0:0:
491,317,10696,5,0,0:0:0:0:
491,317,10999,2,0,L|439:298,1,45
391,210,11302,2,0,L|319:232,1,67.5
327,230,11605,5,2,0:0:0:0:
146,371,12211,6,0,L|202:387,1,45,2|0,0:0|0:0,0:0:0:0:
190,384,12514,1,0,0:0:0:0:
144,168,13120,6,0,P|107:168|82:198,1,67.5
86,187,13423,6,0,L|106:243,1,45
2,157,13726,2,0,B|13:122|13:122|31:111|31:111|43:69,1,90,0|2,0:0|0:0,0:0:0:0:
236,16,14635,5,2,0:0:0:0:
261,93,14786,1,0,0:0:0:0:
284,171,14938,1,0,0:0:0:0:
284,171,15241,5,2,0:0:0:0:
261,93,15544,1,0,0:0:0:0:
112,319,15847,5,2,0:0:0:0:
137,242,15998,1,0,0:0:0:0:
160,164,16150,1,0,0:0:0:0:
160,164,16453,5,2,0:0:0:0:
112,319,16756,1,0,0:0:0:0:
291,356,17059,5,2,0:0:0:0:
252,245,17362,1,2,0:0:0:0:
138,273,17665,1,2,0:0:0:0:
174,384,17968,1,2,0:0:0:0:
270,214,18271,1,2,0:0:0:0:
270,214,18877,5,2,0:0:0:0:
352,254,19029,1,2,0:0:0:0:
412,312,19180,5,2,0:0:0:0:
512,262,19332,1,2,0:0:0:0:
435,144,19483,6,0,P|398:122|318:137,2,116.999994644165,2|0|0,0:0|0:0|0:0,0:0:0:0:
342,328,20393,1,2,0:0:0:0:
342,328,20696,2,0,B|348:226,1,87.749995983124
360,226,20999,5,2,0:0:0:0:
260,120,21302,2,0,P|195:130|211:258,1,204.749990627289,2|0,0:0|0:0,0:0:0:0:
213,244,21908,6,0,P|190:199|199:174,2,58.4999973220826,2|0|0,0:0|0:0|0:0,0:0:0:0:
314,313,22514,1,0,0:0:0:0:
131,381,22817,5,2,0:0:0:0:
131,381,23120,1,0,0:0:0:0:
226,342,23271,1,0,0:0:0:0:
27,266,23423,1,0,0:0:0:0:
137,221,23726,1,0,0:0:0:0:
27,266,24029,1,0,0:0:0:0:
121,76,24332,6,0,B|193:73|156:123|245:118,2,116.999994644165,2|0|0,0:0|0:0|0:0,0:0:0:0:
50,97,25241,1,2,0:0:0:0:
116,209,25544,6,0,P|168:189|183:175,1,58.4999973220826
318,57,25847,2,0,B|275:59|275:59|247:95,1,87.749995983124,2|0,0:0|0:0,0:0:0:0:
246,106,26150,5,2,0:0:0:0:
393,40,26453,1,0,0:0:0:0:
425,172,26756,6,0,P|383:180|319:147,1,116.999994644165,2|0,0:0|0:0,0:0:0:0:
288,78,27362,1,2,0:0:0:0:
484,135,27665,1,2,0:0:0:0:
484,135,27968,6,0,L|416:112,1,58.4999973220826
265,13,28271,2,0,B|307:6|307:6|327:13|327:13|378:3,1,116.999994644165
319,275,28877,5,2,0:0:0:0:
319,275,29029,1,2,0:0:0:0:
369,219,29180,2,0,P|432:205|488:227,2,125.999996154785,2|0|0,0:0|0:0|0:0,0:0:0:0:
319,275,30089,5,2,0:0:0:0:
467,243,30393,1,0,0:0:0:0:
421,346,30696,1,2,0:0:0:0:
390,154,30999,2,0,B|319:156|350:214|256:207,1,125.999996154785,2|0,0:0|0:0,0:0:0:0:
139,116,31605,6,0,P|156:64|170:51,2,62.9999980773926,2|0|0,0:0|0:0|0:0,0:0:0:0:
139,116,32211,1,0,0:0:0:0:
224,275,32514,5,2,0:0:0:0:
224,275,32817,2,0,L|304:250,1,62.9999980773926
122,208,33120,2,0,L|45:191,1,62.9999980773926
5,291,33423,5,0,0:0:0:0:
152,205,33726,1,0,0:0:0:0:
149,384,34029,6,0,B|104:374|104:374|80:354|82:318|102:298,2,125.999996154785,2|0|0,0:0|0:0|0:0,0:0:0:0:
260,324,34938,2,0,P|327:314|366:335,1,94.499997116089,2|0,0:0|0:0,0:0:0:0:
373,317,35241,6,0,P|346:303|302:306,1,62.9999980773926
194,355,35544,1,0,0:0:0:0:
249,127,35847,2,0,B|262:173|262:173|288:190|288:190|302:237,1,125.999996154785,2|2,0:0|0:0,0:0:0:0:
82,160,36453,6,0,P|91:122|99:78,1,62.9999980773926,2|0,0:0|0:0,0:0:0:0:
113,10,36756,1,0,0:0:0:0:
231,180,37059,5,0,0:0:0:0:
251,272,37362,2,0,P|240:231|229:170,1,94.499997116089
235,101,37665,6,0,P|259:77|308:70,1,62.9999980773926
441,132,37968,2,0,P|404:150|342:135,1,94.499997116089,2|0,0:0|0:0,0:0:0:0:
340,132,38271,6,0,P|368:168|370:241,1,94.499997116089,2|0,0:0|0:0,0:0:0:0:
379,232,38574,6,0,L|335:222,1,31.4999990386963,2|0,0:0|0:0,0:0:0:0:
418,297,38726,2,0,L|469:285,1,31.4999990386963,2|0,0:0|0:0,0:0:0:0:
346,382,38877,6,0,P|292:365|247:283,1,153.000002918243,2|0,1:2|3:0,0:0:0:0:
296,184,39281,1,0,3:0:0:0:
293,133,39382,1,0,3:0:0:0:
264,90,39483,2,0,P|218:63|122:96,1,153.000002918243,8|2,3:2|3:2,0:0:0:0:
127,211,39887,5,0,3:2:0:0:
171,187,39988,1,0,3:2:0:0:
195,142,40090,1,8,3:2:0:0:
50,57,40393,5,0,3:2:0:0:
50,57,40494,1,0,3:2:0:0:
50,57,40595,1,0,3:2:0:0:
50,57,40696,2,0,P|14:66|-8:68,2,51.0000009727478,10|0|0,3:2|3:2|3:2,0:0:0:0:
175,0,40999,2,0,P|205:1|226:9,2,51.0000009727478,8|0|0,3:2|3:2|3:2,0:0:0:0:
243,104,41302,6,0,B|285:120|318:93|312:91|340:52|407:71,1,153.000002918243,2|0,1:2|0:0,0:0:0:0:
424,90,41706,1,0,3:0:0:0:
453,131,41807,1,0,3:0:0:0:
449,181,41908,1,8,3:2:0:0:
270,294,42211,5,2,3:2:0:0:
251,245,42312,1,0,3:2:0:0:
271,197,42413,1,0,3:2:0:0:
317,174,42514,1,8,3:2:0:0:
477,273,42817,5,0,3:2:0:0:
455,294,42918,1,0,3:2:0:0:
425,303,43019,1,0,3:2:0:0:
394,299,43120,2,0,P|360:265|353:243,2,51.0000009727478,10|0|0,3:2|3:2|3:2,0:0:0:0:
476,348,43423,2,0,P|509:381|516:403,2,51.0000009727478,8|0|0,3:2|3:2|3:2,0:0:0:0:
372,305,43726,6,0,B|312:321|312:321|289:368|235:367,1,153.000002918243,2|0,1:2|0:0,0:0:0:0:
194,342,44130,1,0,3:2:0:0:
170,296,44231,1,0,3:2:0:0:
195,251,44332,2,0,P|229:189|210:106,1,153.000002918243,8|2,3:2|3:2,0:0:0:0:
48,122,44736,5,0,3:2:0:0:
69,167,44837,1,0,3:2:0:0:
119,178,44938,1,8,3:2:0:0:
246,48,45241,5,2,3:2:0:0:
246,48,45342,1,0,3:2:0:0:
246,48,45443,1,0,3:2:0:0:
246,48,45544,2,0,L|220:-13,2,51.0000009727478,10|0|0,3:2|3:2|3:2,0:0:0:0:
316,167,45847,2,0,L|335:120,2,51.0000009727478,8|0|0,3:2|3:2|3:2,0:0:0:0:
253,299,46150,6,0,B|198:292|193:249|199:252|191:210|104:199,1,153.000002918243,2|0,1:2|0:0,0:0:0:0:
89,216,46554,1,0,3:2:0:0:
57,256,46655,1,0,3:2:0:0:
63,306,46756,1,10,3:2:0:0:
279,380,47059,5,2,3:2:0:0:
270,329,47160,1,0,3:2:0:0:
232,296,47261,1,0,3:2:0:0:
181,290,47362,1,8,3:2:0:0:
13,366,47665,6,0,P|75:369|127:281,1,148.50000453186,2|0,3:2|0:0,0:0:0:0:
140,218,47968,6,0,B|150:174|179:154|179:154|225:156|265:181,1,148.50000453186,10|0,3:2|0:0,0:0:0:0:
286,252,48271,6,0,L|341:237,1,49.5000015106202,2|0,3:2|0:0,0:0:0:0:
359,221,48423,2,0,L|414:231,1,49.5000015106202,2|0,3:2|0:0,0:0:0:0:
508,353,48574,6,0,P|440:365|400:302,1,153.000002918243,2|0,1:2|0:0,0:0:0:0:
416,252,48978,1,0,3:2:0:0:
435,205,49079,1,0,3:2:0:0:
411,159,49180,1,8,3:2:0:0:
401,154,49483,5,2,3:2:0:0:
376,109,49584,1,0,3:2:0:0:
391,60,49685,1,0,3:2:0:0:
433,32,49786,1,8,3:2:0:0:
440,23,50090,5,2,3:2:0:0:
429,21,50191,1,0,3:2:0:0:
418,22,50292,1,0,3:2:0:0:
408,25,50393,2,0,P|383:17|361:5,2,51.0000009727478,10|0|0,3:2|3:2|3:2,0:0:0:0:
463,144,50696,2,0,P|496:141|538:121,2,51.0000009727478,8|0|0,3:2|3:2|3:2,0:0:0:0:
333,117,50999,6,0,B|260:165|328:203|248:248,1,153.000002918243,2|0,1:2|0:0,0:0:0:0:
143,212,51403,1,0,3:2:0:0:
100,182,51504,1,0,3:2:0:0:
87,130,51605,2,0,B|105:61|105:61|153:37|177:-2,1,153.000002918243,8|2,3:2|3:2,0:0:0:0:
290,70,52009,5,0,3:2:0:0:
249,100,52110,1,0,3:2:0:0:
198,106,52211,1,8,3:2:0:0:
44,44,52514,6,0,L|-12:2,2,51.0000009727478,2|0|0,3:2|3:2|3:2,0:0:0:0:
169,137,52817,2,0,P|200:117|243:112,2,51.0000009727478,10|0|0,3:2|3:2|3:2,0:0:0:0:
66,225,53120,2,0,P|42:216|21:201,2,51.0000009727478,8|0|0,3:2|3:2|3:2,0:0:0:0:
155,292,53423,6,0,B|215:285|215:285|233:264|233:264|321:251,1,153.000002918243,2|0,1:2|0:0,0:0:0:0:
345,269,53827,1,0,3:2:0:0:
377,308,53928,1,0,3:2:0:0:
374,358,54029,1,8,3:2:0:0:
193,259,54332,5,0,3:2:0:0:
193,208,54433,1,0,3:2:0:0:
227,171,54534,1,0,3:2:0:0:
278,168,54635,1,8,0:0:0:0:
252,364,54938,5,2,3:2:0:0:
225,379,55039,1,0,3:2:0:0:
194,384,55140,1,0,3:2:0:0:
163,381,55241,2,0,P|121:366|113:358,2,51.0000009727478,8|0|0,3:2|3:0|3:0,0:0:0:0:
305,310,55544,2,0,P|347:325|355:333,2,51.0000009727478,8|0|0,3:2|3:0|3:0,0:0:0:0:
184,304,55847,5,2,1:2:0:0:
115,166,56150,1,2,1:2:0:0:
263,94,56453,1,2,1:2:0:0:
337,233,56756,1,2,1:2:0:0:
134,178,57059,6,8,P|104:171|58:165,2,51.0000009727478
226,233,57362,2,0,P|251:228|275:222,2,51.0000009727478,8|8|8,0:3|0:3|0:3,0:0:0:0:
117,283,57665,5,8,0:3:0:0:
97,318,57766,1,8,0:3:0:0:
105,357,57867,1,8,0:3:0:0:
169,384,57968,6,0,P|206:365|293:338,1,114.750002188683,4|0,0:3|0:0,0:0:0:0:
295,352,58271,5,4,0:0:0:0:
31,27,59483,5,8,0:3:0:0:
61,113,59938,1,8,0:3:0:0:
142,73,60393,1,4,0:3:0:0:
45,259,60696,1,4,1:2:0:0:
318,126,61529,5,8,0:0:0:0:
314,110,61604,1,8,0:0:0:0:
309,95,61680,1,8,0:0:0:0:
303,80,61756,1,8,0:0:0:0:
298,65,61832,1,8,0:0:0:0:
292,50,61908,5,8,0:0:0:0:
494,109,62059,1,0,1:0:0:0:
494,109,62211,1,0,1:0:0:0:
466,22,62362,5,8,0:0:0:0:
300,148,62514,1,0,1:0:0:0:
300,148,62665,1,0,1:0:0:0:
403,364,62817,6,0,P|452:340|452:268,1,114.750002188683,8|0,0:0|0:0,0:0:0:0:
377,374,63120,5,4,1:2:0:0:
163,128,63877,5,0,1:0:0:0:
288,174,64029,1,8,0:0:0:0:
283,188,64105,1,8,0:0:0:0:
277,202,64180,1,0,1:0:0:0:
113,363,64332,5,8,1:2:0:0:
106,344,64407,1,8,0:0:0:0:
100,326,64483,1,8,0:0:0:0:
94,308,64559,1,8,0:0:0:0:
87,285,64635,1,8,1:2:0:0:
87,247,64710,1,8,0:0:0:0:
104,212,64786,1,8,0:0:0:0:
133,189,64862,1,8,0:0:0:0:
170,179,64938,5,8,1:2:0:0:
201,157,65013,1,8,0:0:0:0:
218,123,65089,1,8,0:0:0:0:
217,85,65165,1,8,0:0:0:0:
198,52,65241,1,8,1:2:0:0:
165,33,65316,1,8,0:0:0:0:
128,30,65392,1,8,0:0:0:0:
93,46,65468,1,8,0:0:0:0:
70,76,65544,5,12,1:2:0:0:
335,176,65696,1,8,0:0:0:0:
277,57,65847,5,8,0:0:0:0:
156,154,65999,1,8,0:0:0:0:
358,279,66150,5,8,0:0:0:0:
130,170,66302,1,8,0:0:0:0:
105,384,66453,5,8,0:0:0:0:
150,375,66528,1,8,0:0:0:0:
195,366,66604,1,8,0:0:0:0:
240,357,66680,1,8,0:0:0:0:
285,348,66756,1,0,1:0:0:0:
377,14,67211,5,8,0:3:0:0:
377,14,67286,1,8,0:3:0:0:
377,14,67362,2,0,P|384:73|466:81,1,155.250002961159,8|0,0:0|0:0,0:0:0:0:
463,55,67665,5,8,0:0:0:0:
458,69,67741,1,8,0:0:0:0:
454,84,67817,1,8,0:0:0:0:
450,99,67893,1,8,0:0:0:0:
417,166,67968,6,0,P|463:134|515:136,1,103.500001974106,4|0,1:2|0:0,0:0:0:0:
415,352,68271,2,0,B|355:330|355:330|348:300|348:300|279:272,1,155.250002961159,8|0,0:0|0:0,0:0:0:0:
262,283,68574,5,0,1:0:0:0:
417,206,68726,1,0,1:0:0:0:
323,384,68877,5,10,0:0:0:0:
314,378,69029,1,2,0:0:0:0:
197,184,69180,6,0,P|247:168|325:139,1,103.500001974106,2|0,1:2|0:0,0:0:0:0:
106,331,69483,2,0,P|56:313|7:298,1,103.500001974106,10|0,0:0|1:0,0:0:0:0:
230,288,69786,2,0,P|261:340|236:390,1,103.500001974106,2|0,0:2|1:0,0:0:0:0:
86,224,70089,1,10,0:0:0:0:
86,224,70241,1,8,0:0:0:0:
214,66,70393,6,0,B|240:47|252:21|252:21|202:45|125:44,1,155.250002961159,2|0,1:2|0:0,0:0:0:0:
146,31,70696,6,0,B|236:44|176:98|284:112,1,155.250002961159,8|0,0:0|0:0,0:0:0:0:
299,94,70999,5,0,1:0:0:0:
132,184,71150,1,0,1:0:0:0:
294,260,71302,5,10,0:0:0:0:
295,249,71377,1,2,0:0:0:0:
297,239,71453,1,2,0:0:0:0:
142,21,71605,6,0,P|67:26|41:70,1,103.500001974106,2|0,1:2|0:0,0:0:0:0:
229,132,71908,2,0,P|304:137|330:181,1,103.500001974106,10|0,0:2|0:0,0:0:0:0:
112,240,72211,2,0,P|61:233|20:262,1,103.500001974106,2|0,0:2|1:0,0:0:0:0:
274,273,72514,6,0,P|297:333|233:324,1,155.250002961159,14|0,0:2|0:0,0:0:0:0:
269,309,72817,2,0,B|319:328|319:328|331:356|331:356|402:381,1,155.250002961159,6|0,1:2|0:0,0:0:0:0:
495,283,73120,6,0,P|446:270|410:304,1,103.500001974106,8|0,0:0|0:0,0:0:0:0:
491,375,73423,1,0,1:0:0:0:
491,375,73574,1,0,1:0:0:0:
366,199,73726,6,0,L|308:229,1,51.7500009870529,10|0,0:0|0:0,0:0:0:0:
214,198,73877,1,2,0:0:0:0:
391,26,74029,6,0,P|450:24|475:99,1,103.500001974106,2|0,1:2|1:0,0:0:0:0:
288,127,74332,2,0,P|234:102|188:83,1,103.500001974106,10|0,0:0|1:0,0:0:0:0:
399,247,74635,2,0,B|425:243|443:233|443:233|462:239|462:239|481:224|534:216,1,103.500001974106,2|0,0:0|1:0,0:0:0:0:
364,372,74938,5,10,0:0:0:0:
355,366,75013,1,8,0:0:0:0:
346,360,75089,1,8,1:3:0:0:
177,171,75241,5,12,0:2:0:0:
387,100,75393,1,0,1:0:0:0:
387,100,75468,1,0,1:0:0:0:
387,100,75544,1,0,1:0:0:0:
358,277,75696,5,12,0:0:0:0:
162,263,75847,1,0,1:0:0:0:
71,87,75999,1,0,1:0:0:0:
281,354,76150,5,12,0:0:0:0:
365,5,76302,1,0,1:0:0:0:
71,87,76453,5,12,0:0:0:0:
420,245,76605,1,8,0:0:0:0:
41,294,76756,1,8,0:0:0:0:
279,0,76908,1,8,0:0:0:0:
281,354,77211,5,0,1:0:0:0:
413,281,77362,2,0,P|381:281|334:305,1,80.9999975280763,10|0,0:0|0:0,0:0:0:0:
281,354,77665,6,0,P|241:322|186:338,1,90,4|0,1:2|0:0,0:0:0:0:
141,383,77968,1,10,0:0:0:0:
292,354,78120,1,2,0:0:0:0:
231,147,78271,6,0,L|210:240,1,90,2|0,1:2|1:0,0:0:0:0:
320,139,78574,2,0,P|305:85|218:58,1,135,10|0,0:0|0:0,0:0:0:0:
217,50,78877,6,0,B|209:64|193:86|193:86|340:35,1,180,2|10,1:2|0:0,0:0:0:0:
461,202,79332,2,0,B|386:187|431:132|324:122,1,135,2|0,1:2|0:0,0:0:0:0:
320,139,79635,5,2,1:2:0:0:
257,295,79786,2,0,P|310:290|316:248,1,90,10|0,0:0|0:0,0:0:0:0:
176,117,80089,5,2,1:2:0:0:
167,133,80241,1,2,0:0:0:0:
225,205,80393,5,10,0:0:0:0:
133,39,80544,1,2,0:0:0:0:
33,156,80696,6,0,P|82:136|135:132,1,90,2|0,1:2|1:0,0:0:0:0:
324,241,80999,2,0,P|275:221|222:217,1,90,10|0,0:0|0:0,0:0:0:0:
107,305,81302,6,0,P|119:359|160:387,1,90,2|0,1:2|1:2,0:0:0:0:
210,300,81605,1,10,0:0:0:0:
37,371,81756,1,2,0:0:0:0:
37,371,81908,2,0,P|25:320|37:276,1,90,0|0,1:0|1:0,0:0:0:0:
111,122,82211,5,8,0:0:0:0:
111,122,82362,2,8,L|136:187,1,45,10|8,0:0|0:0,0:0:0:0:
189,371,82514,5,2,0:0:0:0:
68,302,82665,1,2,0:0:0:0:
259,260,82817,1,10,0:0:0:0:
259,260,82968,1,2,0:0:0:0:
370,376,83120,6,0,P|328:359|292:332,1,90,2|0,1:2|1:0,0:0:0:0:
172,234,83423,2,0,P|209:175|206:83,1,135,10|0,0:2|0:0,0:0:0:0:
239,114,83726,5,2,1:2:0:0:
55,22,83877,2,0,P|112:9|153:-2,1,90,2|8,0:0|0:0,0:0:0:0:
210,36,84180,5,2,0:0:0:0:
105,155,84332,2,0,P|61:143|17:133,1,90,0|0,1:0|1:0,0:0:0:0:
54,232,84635,5,10,0:0:0:0:
245,185,84786,1,8,0:0:0:0:
245,185,84862,1,8,0:0:0:0:
245,185,84938,5,2,1:2:0:0:
151,150,85089,1,2,0:0:0:0:
367,230,85241,5,10,0:0:0:0:
188,288,85393,1,2,0:0:0:0:
344,91,85544,6,0,B|399:103|375:129|441:142,1,90,2|0,1:2|1:0,0:0:0:0:
481,217,85847,2,0,P|433:231|385:255,1,90,10|0,0:0|0:0,0:0:0:0:
226,130,86150,6,0,B|249:113|262:88|262:88|252:218,1,175.499991966248,2|0,1:2|0:0,0:0:0:0:
66,351,86453,6,0,B|40:325|40:325|114:292|180:333,1,175.499991966248,10|0,0:0|0:0,0:0:0:0:
430,258,86756,6,0,P|372:236|396:317,1,175.499991966248,2|0,1:2|0:0,0:0:0:0:
158,217,87059,6,0,P|184:170|180:124,1,94.499997116089,10|0,0:2|0:0,0:0:0:0:
137,73,87362,6,0,P|84:85|33:94,1,90,6|0,1:2|0:0,0:0:0:0:
237,3,87665,2,0,P|285:10|306:94,1,135,10|0,0:0|0:0,0:0:0:0:
250,126,87968,6,0,P|310:158|359:141,1,90,2|0,1:2|1:0,0:0:0:0:
486,2,88271,2,0,B|438:23|438:23|433:51|433:51|377:74,1,135,10|0,0:0|0:0,0:0:0:0:
357,67,88574,5,2,1:2:0:0:
457,143,88726,1,2,0:0:0:0:
377,240,88877,1,8,0:0:0:0:
278,161,89029,1,2,0:0:0:0:
182,303,89180,6,0,P|229:288|275:276,1,90,2|2,1:2|1:2,0:0:0:0:
383,384,89483,2,0,P|307:369|232:352,1,135,10|0,0:0|0:0,0:0:0:0:
177,296,89786,6,0,P|135:272|78:342,1,135,2|0,1:2|0:0,0:0:0:0:
84,338,90089,1,8,0:0:0:0:
232,151,90241,6,0,B|309:175|257:226|364:243,1,135,2|0,1:2|0:0,0:0:0:0:
351,222,90544,1,2,1:2:0:0:
235,352,90696,2,0,P|192:357|163:324,1,90,8|0,0:0|0:0,0:0:0:0:
81,253,90999,6,0,B|107:187|107:187|147:171|147:171|184:88,1,180,2|8,1:2|0:0,0:0:0:0:
173,110,91453,1,2,0:0:0:0:
24,5,91605,2,0,P|37:53|46:101,1,90,0|0,1:0|1:0,0:0:0:0:
174,194,91908,5,8,0:0:0:0:
43,121,92059,1,2,0:0:0:0:
172,6,92211,2,0,B|251:17|210:69|321:68,1,135,2|0,1:2|0:0,0:0:0:0:
307,57,92514,5,8,0:0:0:0:
337,230,92665,2,0,B|303:212|288:183|288:183|286:214|257:253,1,135,2|0,1:2|0:0,0:0:0:0:
239,244,92968,5,2,1:2:0:0:
348,351,93120,2,0,P|395:336|443:322,1,90,10|0,0:0|0:0,0:0:0:0:
248,384,93423,6,0,B|191:371|191:371|183:350|183:350|106:331,1,135,2|0,1:2|0:0,0:0:0:0:
110,348,93726,1,10,0:0:0:0:
3,238,93877,6,0,P|61:226|182:192,1,180,2|0,1:2|0:0,0:0:0:0:
269,298,94332,2,0,P|225:312|185:273,1,90,10|0,0:0|0:0,0:0:0:0:
179,78,94635,5,2,1:2:0:0:
257,111,94786,1,2,0:0:0:0:
282,13,94938,5,10,0:0:0:0:
122,145,95089,1,0,0:0:0:0:
297,181,95241,6,0,P|346:198|387:214,1,90,2|0,1:2|1:0,0:0:0:0:
200,286,95544,2,0,P|157:302|115:316,1,90,14|0,0:0|0:0,0:0:0:0:
56,267,95847,5,2,1:2:0:0:
274,373,95999,1,8,0:0:0:0:
237,142,96150,1,8,0:0:0:0:
97,384,96302,1,8,0:3:0:0:
97,384,96453,6,0,P|54:368|12:354,1,90,8|8,0:0|0:0,0:0:0:0:
155,227,96756,2,0,P|173:239|197:287,1,45,4|0,0:3|0:0,0:0:0:0:
273,242,96908,2,0,P|277:263|260:314,1,45,4|0,0:3|0:0,0:0:0:0:
361,364,97059,5,6,1:2:0:0:
354,369,97211,2,0,L|244:358,1,80.9999975280763,0|0,1:0|0:0,0:0:0:0:
163,234,97514,5,2,1:2:0:0:
163,234,97589,1,0,1:0:0:0:
163,234,97665,2,0,P|219:268|314:197,1,161.999995056153,10|2,0:0|1:2,0:0:0:0:
320,53,98120,6,0,B|335:56|360:58|360:58|226:115,1,161.999995056153,2|0,1:2|1:0,0:0:0:0:
131,0,98574,2,0,P|166:15|205:31,1,80.9999975280763,2|0,0:2|1:0,0:0:0:0:
405,116,98877,2,0,P|367:131|330:146,1,80.9999975280763,10|0,0:2|1:0,0:0:0:0:
383,13,99180,1,10,0:0:0:0:
383,13,99332,1,8,0:0:0:0:
282,212,99483,6,4,P|244:178|233:129,2,80.9999975280763,6|2|2,0:0|1:2|1:2,1:2:0:0:
457,188,99938,1,2,1:2:0:0:
457,188,100014,1,0,1:2:0:0:
457,188,100089,2,0,B|439:160|439:160|400:199|420:298,1,161.999995056153,10|0,0:0|1:0,0:0:0:0:
474,342,100544,5,10,0:0:0:0:
340,271,100696,2,0,P|291:290|196:326,1,121.499996292114,2|0,1:2|0:0,0:0:0:0:
203,310,100999,5,0,1:0:0:0:
261,182,101150,1,0,1:0:0:0:
329,378,101302,1,8,0:0:0:0:
329,378,101453,1,0,1:0:0:0:
110,259,101605,6,0,L|176:241,1,40.4999987640381,10|0,0:0|0:0,0:0:0:0:
217,282,101756,1,2,0:0:0:0:
89,367,101908,5,6,1:2:0:0:
82,370,102060,2,0,L|-24:341,1,80.9999975280763,0|0,1:0|0:0,0:0:0:0:
68,176,102362,5,2,1:2:0:0:
72,187,102438,1,0,1:0:0:0:
76,198,102514,2,0,P|129:235|183:157,1,161.999995056153,10|0,0:0|1:0,0:0:0:0:
65,2,102968,6,0,B|156:21|105:76|210:88,1,161.999995056153,2|0,1:2|1:0,0:0:0:0:
308,4,103423,2,0,P|271:-15|227:14,1,80.9999975280763,10|0,0:0|1:0,0:0:0:0:
142,155,103726,2,0,P|178:174|222:144,1,80.9999975280763,10|0,0:0|1:0,0:0:0:0:
230,133,103953,5,0,1:0:0:0:
224,127,104029,1,10,0:0:0:0:
93,12,104180,1,8,1:3:0:0:
27,196,104332,5,4,1:2:0:0:
223,57,104635,1,8,0:0:0:0:
280,159,104938,5,8,0:0:0:0:
71,50,105241,1,8,0:0:0:0:
49,221,105544,5,8,0:0:0:0:
70,210,105696,1,8,0:0:0:0:
140,97,105847,5,8,0:0:0:0:
304,178,105999,1,8,0:0:0:0:
426,158,106150,5,8,0:0:0:0:
183,310,106302,1,8,0:0:0:0:
186,298,106377,1,8,0:0:0:0:
190,286,106453,1,8,0:0:0:0:
193,274,106529,1,8,0:0:0:0:
197,262,106605,1,8,0:0:0:0:
201,250,106680,1,8,0:0:0:0:
251,198,106756,6,0,B|340:239|274:277|373:333,1,175.499991966248,4|0,1:2|0:0,0:0:0:0:
470,140,107059,6,0,B|443:102|396:93|396:93|363:121|366:178,1,175.499991966248,4|0,1:2|0:0,0:0:0:0:
198,375,107362,6,0,B|144:393|123:338|123:338|142:297|165:235,1,175.499991966248,12|0,0:2|0:0,0:0:0:0:
110,40,107665,6,0,B|101:90|74:109|74:109|93:109|93:109|53:136|43:210,1,175.499991966248,4|0,1:2|0:0,0:0:0:0:
154,263,107968,5,2,1:2:0:0:
401,31,109180,6,8,L|480:8,3,47.2499985580445,8|8|8|8,1:2|0:2|0:2|0:2,0:2:0:0:
391,125,109483,5,8,1:2:0:0:
349,115,109558,1,8,0:2:0:0:
308,106,109634,1,8,0:2:0:0:
266,96,109710,1,8,0:2:0:0:
233,85,109786,6,8,L|305:59,1,47.2499985580445,10|8,0:2|0:2,0:2:0:0:
445,204,109938,2,8,L|373:230,1,47.2499985580445,10|8,0:2|0:2,0:2:0:0:
218,70,110089,6,8,L|290:44,1,47.2499985580445,10|8,0:2|0:2,0:2:0:0:
469,223,110241,2,8,L|397:249,1,47.2499985580445,10|8,0:2|0:2,0:2:0:0:
195,56,110393,5,6,1:2:0:0:
496,241,110544,1,0,1:0:0:0:
404,28,110696,1,8,0:0:0:0:
248,239,110847,2,0,P|164:250|212:180,1,215.999993408203,0|0,1:2|1:0,0:0:0:0:
368,341,111302,6,0,P|431:363|473:365,1,107.999996704102,8|0,0:0|0:0,0:0:0:0:
256,217,111605,2,0,P|202:221|152:241,1,107.999996704102,0|0,1:0|0:0,0:0:0:0:
18,347,111908,6,0,P|70:370|84:286,1,161.999995056153,10|0,0:0|0:0,0:0:0:0:
107,219,112211,2,0,P|54:219|20:259,1,107.999996704102,2|0,1:2|1:0,0:0:0:0:
216,369,112514,6,0,P|270:351|353:327,1,107.999996704102,10|0,0:0|0:0,0:0:0:0:
420,157,112817,2,0,B|363:125|363:125|327:216|386:263,1,215.999993408203,2|8,1:2|0:0,0:0:0:0:
512,101,113271,5,2,1:2:0:0:
318,336,113423,1,2,1:2:0:0:
512,278,113574,1,0,1:0:0:0:
308,94,113726,6,0,B|225:132|288:178|187:222,1,161.999995056153,8|0,0:0|0:0,0:0:0:0:
157,273,114029,2,0,P|128:229|139:178,1,107.999996704102,2|0,1:2|1:0,0:0:0:0:
232,309,114332,1,8,0:0:0:0:
2,200,114483,5,2,0:0:0:0:
271,0,114635,2,0,P|216:18|168:34,1,107.999996704102,2|0,1:2|1:0,0:0:0:0:
0,47,114938,6,0,P|80:89|152:128,1,161.999995056153,12|0,0:0|0:0,0:0:0:0:
205,85,115241,5,6,1:2:0:0:
2,200,115393,1,2,1:2:0:0:
205,85,115544,1,10,0:2:0:0:
402,302,115696,6,0,B|339:275|339:275|325:249|325:249|229:209,1,161.999995056153,2|0,1:2|0:0,0:0:0:0:
236,162,115999,5,2,1:2:0:0:
119,384,116150,2,0,P|171:364|221:343,1,107.999996704102,10|0,0:0|0:0,0:0:0:0:
500,270,116453,5,2,1:2:0:0:
377,81,116605,1,2,1:2:0:0:
299,384,116756,1,10,0:2:0:0:
238,89,116908,6,0,B|331:95|284:161|415:162,1,161.999995056153,2|0,1:2|0:0,0:0:0:0:
448,134,117211,5,0,1:0:0:0:
512,0,117362,2,0,P|475:12|407:29,1,107.999996704102,10|0,0:0|0:0,0:0:0:0:
211,123,117665,5,2,1:2:0:0:
272,298,117817,1,2,1:2:0:0:
8,147,117968,1,10,0:2:0:0:
276,59,118120,2,0,P|307:121|229:211,1,161.999995056153,2|0,1:2|0:0,0:0:0:0:
194,202,118423,5,0,1:0:0:0:
40,0,118574,2,0,P|97:15|161:34,1,107.999996704102,10|0,0:0|0:0,0:0:0:0:
86,243,118877,5,2,1:2:0:0:
39,130,119029,1,0,1:2:0:0:
276,59,119180,5,12,0:0:0:0:
227,296,119332,1,0,1:0:0:0:
283,376,119483,5,10,0:0:0:0:
298,371,119559,1,8,0:0:0:0:
313,365,119635,1,8,0:0:0:0:
417,235,119786,5,14,0:0:0:0:
375,222,119862,1,10,0:2:0:0:
334,206,119938,1,10,0:2:0:0:
293,190,120014,1,10,0:2:0:0:
253,173,120089,5,6,1:2:0:0:
472,366,120241,1,0,1:0:0:0:
485,76,120393,1,8,0:0:0:0:
234,204,120544,6,0,B|219:190|198:186|198:186|294:180|260:254|364:247,1,215.999993408203,0|0,1:0|1:0,0:0:0:0:
495,0,120999,2,0,P|443:11|412:54,1,107.999996704102,8|0,0:0|0:0,0:0:0:0:
158,102,121302,2,0,B|221:102|207:144|281:146,1,107.999996704102,0|0,1:0|1:0,0:0:0:0:
378,250,121605,6,0,P|442:227|492:211,1,107.999996704102,10|0,0:0|0:0,0:0:0:0:
315,74,121908,2,0,P|264:91|246:161,1,107.999996704102,2|0,1:2|1:0,0:0:0:0:
345,384,122211,2,0,B|387:345|387:345|360:229,1,161.999995056153,10|0,0:0|0:0,0:0:0:0:
369,174,122514,6,0,P|421:202|328:302,1,215.999993408203,2|8,1:2|0:0,0:0:0:0:
213,380,122968,5,0,1:0:0:0:
213,380,123044,1,0,1:0:0:0:
213,380,123120,2,0,P|171:335|107:302,1,107.999996704102,2|0,1:2|1:0,0:0:0:0:
17,247,123423,1,8,0:0:0:0:
236,283,123574,1,2,0:0:0:0:
27,75,123726,5,2,1:2:0:0:
222,10,123877,1,2,1:2:0:0:
300,200,124029,2,0,P|245:175|193:152,1,107.999996704102,12|0,0:0|0:0,0:0:0:0:
485,311,124332,5,2,1:2:0:0:
290,376,124483,1,2,1:2:0:0:
212,186,124635,2,0,P|267:211|319:234,1,107.999996704102,12|2,0:0|0:0,0:0:0:0:
388,1,124938,6,0,B|325:-16|325:-16|293:32|224:57,1,161.999995056153,6|0,1:2|0:0,0:0:0:0:
194,7,125241,1,10,0:0:0:0:
78,216,125393,2,0,P|136:164|211:185,1,161.999995056153,2|0,1:2|0:0,0:0:0:0:
233,258,125696,5,0,1:0:0:0:
85,355,125847,1,10,0:0:0:0:
85,355,125923,1,2,0:0:0:0:
85,355,125999,1,2,0:0:0:0:
273,384,126150,5,2,1:2:0:0:
129,181,126302,1,2,1:2:0:0:
486,314,126453,1,10,0:2:0:0:
487,84,126605,6,0,B|439:113|405:112|405:112|397:157|397:157|349:156|301:192,1,215.999993408203,2|0,1:2|1:0,0:0:0:0:
182,14,127059,2,0,P|238:29|295:43,1,107.999996704102,10|0,0:0|0:0,0:0:0:0:
89,199,127362,6,0,P|72:133|48:32,1,161.999995056153,2|0,1:2|0:0,0:0:0:0:
26,27,127665,1,8,0:0:0:0:
213,241,127817,6,0,P|268:204|176:151,1,215.999993408203,2|0,1:2|1:0,0:0:0:0:
137,339,128271,2,0,P|194:362|250:352,1,107.999996704102,14|0,0:2|0:0,0:0:0:0:
68,214,128574,5,2,1:2:0:0:
48,222,128650,1,0,1:0:0:0:
27,230,128726,1,0,1:0:0:0:
82,358,128877,5,8,1:2:0:0:
102,366,128953,1,0,1:0:0:0:
123,374,129029,1,0,1:0:0:0:
232,290,129180,5,8,0:0:0:0:
222,258,129256,1,8,0:0:0:0:
213,226,129332,1,8,0:0:0:0:
205,194,129408,1,8,0:0:0:0:
196,163,129483,2,8,L|262:199,1,53.9999983520508,8|8,0:3|0:3,0:3:0:0:
373,375,129635,2,4,L|307:339,1,53.9999983520508,4|4,0:3|0:3,0:3:0:0:
391,222,129786,5,6,0:2:0:0:
231,363,130089,1,2,0:2:0:0:
282,121,130393,5,6,0:2:0:0:
478,334,130696,1,2,0:2:0:0:
453,69,130999,5,10,0:2:0:0:
283,10,131150,1,2,1:2:0:0:
242,139,131302,6,0,P|297:122|349:107,1,107.999996704102,10|2,0:0|1:2,0:0:0:0:
154,39,131605,2,0,P|96:23|47:7,1,107.999996704102,10|0,0:0|1:0,0:0:0:0:
75,198,131908,2,0,P|141:214|170:131,1,161.999995056153,10|0,0:2|0:0,0:0:0:0:
157,132,132211,5,12,0:0:0:0:
133,356,132362,1,0,1:0:0:0:
339,261,132514,1,0,1:0:0:0:
310,80,132665,5,12,0:0:0:0:
84,60,132816,1,0,1:0:0:0:
188,261,132968,1,0,1:0:0:0:
398,17,133120,5,12,0:0:0:0:
207,157,133271,1,0,1:0:0:0:
422,258,133423,1,12,0:0:0:0:
442,250,133574,1,8,0:0:0:0:
462,244,133726,1,8,0:0:0:0:
482,239,133877,1,8,0:0:0:0:
381,384,134029,5,8,0:0:0:0:
360,378,134104,1,8,0:0:0:0:
339,372,134180,1,8,0:3:0:0:
318,366,134256,1,8,0:3:0:0:
297,358,134332,5,8,0:0:0:0:
348,341,134407,1,8,0:0:0:0:
399,324,134483,1,8,0:0:0:0:
450,307,134559,1,8,0:0:0:0:
511,361,134635,6,0,P|466:385|381:265,1,198.000006042481,4|8,1:2|0:0,0:0:0:0:
448,223,135089,1,2,1:2:0:0:
202,258,135241,1,2,0:2:0:0:
378,82,135393,1,2,1:2:0:0:
382,328,135544,1,10,0:2:0:0:
232,129,135696,1,2,0:2:0:0:
450,82,135847,6,0,P|435:33|364:15,1,99.0000030212403,2|0,1:2|1:0,0:0:0:0:
364,201,136150,2,0,P|434:216|486:229,1,99.0000030212403,10|0,0:0|0:0,0:0:0:0:
244,61,136453,2,0,P|174:76|122:89,1,99.0000030212403,2|0,1:2|1:0,0:0:0:0:
106,245,136756,6,0,P|77:234|133:220,1,148.50000453186,10|0,0:0|0:0,0:0:0:0:
103,198,137059,2,0,B|89:256|89:256|101:283|101:283|75:376,1,148.50000453186,2|0,1:2|0:0,0:0:0:0:
73,342,137362,5,8,0:0:0:0:
221,134,137514,2,0,B|258:83|258:83|272:156|288:242,1,198.000006042481,0|0,1:0|1:0,0:0:0:0:
402,290,137968,6,0,P|466:278|454:221,1,99.0000030212403,10|0,2:0|0:0,0:0:0:0:
318,86,138271,1,2,1:2:0:0:
313,94,138347,1,0,1:0:0:0:
308,102,138423,1,0,1:2:0:0:
243,181,138574,1,8,0:0:0:0:
202,99,138726,1,0,0:0:0:0:
296,355,138877,5,2,1:2:0:0:
176,309,139029,1,2,1:2:0:0:
224,189,139180,1,10,0:0:0:0:
347,230,139332,1,2,0:0:0:0:
347,230,139483,6,0,B|278:241|276:296|281:292|275:345|209:358,1,198.000006042481,2|8,1:2|0:0,0:0:0:0:
54,190,139938,1,2,1:2:0:0:
53,190,140089,2,0,P|101:191|130:230,1,99.0000030212403,2|0,1:2|1:0,1:0:0:0:
33,384,140393,6,0,P|76:327|147:334,1,148.50000453186,8|0,0:0|0:0,0:0:0:0:
159,355,140696,5,2,1:2:0:0:
142,344,140847,1,0,1:2:0:0:
36,143,140999,2,0,B|125:172|67:213|190:234,1,148.50000453186,10|0,0:0|0:0,0:0:0:0:
180,215,141302,5,2,1:2:0:0:
347,131,141453,1,2,1:2:0:0:
164,83,141605,1,10,0:0:0:0:
332,1,141756,1,2,0:0:0:0:
85,83,141908,6,0,B|95:29|142:4|142:4|205:6|252:55,1,198.000006042481,2|8,1:2|0:0,0:0:0:0:
276,384,142514,6,0,P|229:371|166:353,1,99.0000030212403,2|0,1:2|0:0,0:0:0:0:
351,270,142817,2,0,P|398:256|446:242,1,99.0000030212403,10|0,0:2|0:0,0:0:0:0:
511,359,143120,2,0,P|468:372|436:328,1,99.0000030212403,2|0,1:2|1:2,1:2:0:0:
386,112,143423,5,8,0:0:0:0:
512,166,143574,1,10,0:0:0:0:
416,9,143726,6,0,P|366:24|304:39,1,99.0000030212403,2|8,1:2|0:0,0:0:0:0:
231,60,143953,1,8,0:0:0:0:
231,60,144029,2,0,P|234:36|240:12,1,49.5000015106202,8|0,0:0|0:0,0:0:0:0:
328,117,144180,1,8,0:3:0:0:
236,309,144332,6,0,B|193:263|193:263|211:174,1,148.50000453186,4|0,1:2|0:0,0:0:0:0:
232,174,144635,5,10,0:0:0:0:
94,233,144786,1,2,1:2:0:0:
12,34,144938,1,2,0:0:0:0:
30,41,145014,1,0,1:2:0:0:
48,46,145089,1,0,1:2:0:0:
178,93,145241,6,0,P|236:76|301:55,1,99.0000030212403,8|0,0:0|0:0,0:0:0:0:
94,233,145544,2,0,P|46:218|0:204,1,99.0000030212403,0|0,1:0|1:0,0:0:0:0:
0,203,145847,5,10,0:0:0:0:
200,171,145999,1,2,0:0:0:0:
89,124,146150,1,2,1:2:0:0:
85,133,146302,1,2,1:2:0:0:
182,290,146453,5,8,0:0:0:0:
89,115,146605,1,2,0:0:0:0:
0,369,146756,6,0,B|23:369|56:332|56:332|94:356|94:356|114:328|166:310,1,198.000006042481,2|8,1:2|0:0,0:0:0:0:
372,348,147211,2,0,P|319:371|252:289,1,148.50000453186,0|0,1:0|0:0,0:0:0:0:
263,303,147514,5,2,1:2:0:0:
306,154,147665,2,0,P|331:206|359:262,1,99.0000030212403,10|0,0:0|0:0,0:0:0:0:
221,140,147968,2,0,P|244:96|287:73,1,99.0000030212403,2|0,1:2|1:0,0:0:0:0:
393,2,148271,6,0,P|442:15|502:30,2,99.0000030212403,8|2|0,0:0|0:0|1:0,0:0:0:0:
393,2,148726,1,2,1:2:0:0:
140,102,148877,2,0,P|208:87|304:70,1,148.50000453186,10|0,2:0|2:0,2:0:0:0:
350,136,149180,6,0,B|266:177|215:102|215:102|243:126|272:130,1,198.000006042481,2|8,1:2|0:0,0:0:0:0:
378,239,149635,1,0,1:0:0:0:
213,298,149786,2,0,P|265:267|326:257,1,99.0000030212403,2|0,0:0|1:0,0:0:0:0:
460,364,150089,2,0,P|412:350|371:324,1,99.0000030212403,10|0,0:0|0:0,0:0:0:0:
348,88,150393,5,2,1:2:0:0:
447,138,150544,1,2,1:2:0:0:
478,50,150696,5,10,0:2:0:0:
297,161,150847,1,10,0:2:0:0:
211,46,150999,5,2,1:2:0:0:
316,0,151150,1,2,1:2:0:0:
419,225,151302,5,10,0:0:0:0:
409,219,151377,1,10,0:0:0:0:
400,213,151453,1,8,0:3:0:0:
228,194,151605,5,12,0:0:0:0:
461,111,151756,1,0,1:0:0:0:
461,111,151832,1,0,1:0:0:0:
461,111,151908,1,8,0:0:0:0:
138,0,152059,1,0,1:0:0:0:
389,14,152211,5,12,0:0:0:0:
115,185,152362,1,0,1:0:0:0:
115,185,152438,1,0,1:0:0:0:
115,185,152514,1,8,0:0:0:0:
335,285,152665,1,0,1:0:0:0:
141,96,152817,5,12,0:0:0:0:
474,243,152968,1,8,0:0:0:0:
115,325,153120,1,8,0:0:0:0:
338,36,153271,1,8,0:0:0:0:
354,367,153574,5,0,1:0:0:0:
284,312,153726,2,0,P|242:311|210:348,1,80.9999975280763,8|0,0:0|0:0,0:0:0:0:
168,384,154029,6,0,B|238:367|238:367|277:386|277:386|367:364,1,180,6|8,1:2|0:0,0:0:0:0:
477,220,154483,2,0,B|486:196|486:196|381:175|365:295,1,180,2|0,1:2|1:2,0:0:0:0:
222,86,154938,2,0,P|265:100|312:114,1,90,10|0,0:0|0:0,0:0:0:0:
117,267,155241,6,0,P|166:248|276:213,1,135,2|0,1:2|0:0,0:0:0:0:
261,231,155544,5,10,0:0:0:0:
130,353,155696,2,0,P|45:322|39:232,1,180,2|2,1:2|1:2,0:0:0:0:
117,267,156150,2,0,P|160:253|207:239,1,90,10|0,0:0|0:0,0:0:0:0:
133,22,156453,6,0,P|118:67|15:78,1,135,2|0,1:2|0:0,0:0:0:0:
19,69,156756,5,8,0:0:0:0:
176,129,156908,1,2,0:0:0:0:
305,6,157059,2,0,P|264:23|210:42,1,90,2|0,1:2|1:0,0:0:0:0:
446,133,157362,2,0,P|405:116|363:101,1,90,10|0,0:2|0:0,0:0:0:0:
246,213,157665,5,2,1:2:0:0:
246,213,157817,1,0,1:0:0:0:
351,272,157968,2,0,P|395:253|392:196,1,90,8|8,0:0|0:0,0:0:0:0:
246,213,158271,5,0,1:0:0:0:
246,213,158423,1,0,1:0:0:0:
171,364,158574,2,0,P|127:345|130:288,1,90,10|10,0:0|0:0,0:0:0:0:
162,233,158802,5,8,0:0:0:0:
162,233,158877,2,0,L|276:270,1,90,2|0,1:2|0:0,0:0:0:0:
411,295,159180,2,0,B|279:350,1,135,10|0,0:2|0:0,0:0:0:0:
278,377,159483,6,0,L|364:343,1,90,2|0,1:2|1:0,0:0:0:0:
247,260,159786,2,0,L|162:233,1,90,10|0,0:2|0:0,0:0:0:0:
74,299,160089,5,2,1:2:0:0:
174,238,160241,1,2,0:0:0:0:
112,138,160393,1,8,0:0:0:0:
10,195,160544,1,2,0:0:0:0:
180,39,160696,6,0,P|222:52|266:65,1,90,2|0,1:2|0:0,0:0:0:0:
100,149,160999,2,0,P|56:133|51:75,1,90,10|8,0:0|0:0,0:0:0:0:
120,0,161226,5,8,0:0:0:0:
120,0,161302,2,0,L|276:46,1,135,2|0,1:2|0:0,0:0:0:0:
266,65,161605,6,0,L|163:34,1,90,10|0,0:0|0:0,0:0:0:0:
364,0,161908,2,0,L|467:31,1,90,2|0,1:2|0:0,0:0:0:0:
386,234,162211,2,0,B|354:182|354:182|376:147|400:104,1,135,10|0,0:0|0:0,0:0:0:0:
478,156,162514,6,0,B|419:168|413:221|422:220|407:275|325:274,1,175.499991966248,2|0,1:2|0:0,2:0:0:0:
181,116,162817,6,0,B|154:79|154:79|308:127,1,175.499991966248,10|0,0:0|0:0,0:0:0:0:
79,349,163120,6,0,P|99:270|179:278,1,175.499991966248,2|0,1:2|0:0,0:0:0:0:
427,351,163423,6,0,P|381:364|335:379,1,80.9999975280763,10|0,0:0|0:0,0:0:0:0:
286,330,163726,5,6,1:2:0:0:
370,384,163877,1,2,0:2:0:0:
449,244,164029,5,10,0:2:0:0:
384,281,164180,1,2,0:2:0:0:
274,100,164332,6,0,P|314:127|320:188,1,90,2|0,1:2|1:0,0:0:0:0:
463,0,164635,2,0,P|423:27|430:112,1,135,10|0,0:0|0:0,0:0:0:0:
451,112,164938,5,2,1:2:0:0:
360,71,165089,1,2,0:0:0:0:
268,31,165241,1,10,0:0:0:0:
268,31,165393,1,2,0:0:0:0:
162,163,165544,6,0,P|216:140|259:125,1,90,2|0,1:2|1:0,0:0:0:0:
136,247,165847,2,0,B|59:233|110:186|2:168,1,135,10|0,0:0|0:0,0:0:0:0:
14,187,166150,5,2,1:2:0:0:
152,267,166302,2,0,P|193:246|243:231,1,90,2|8,0:0|0:0,0:0:0:0:
131,7,166605,2,0,B|96:54|96:54|133:180,1,180,2|2,1:2|1:2,0:0:0:0:
234,232,167059,6,0,P|171:253|125:305,1,135,10|0,0:0|0:0,0:0:0:0:
61,317,167362,6,0,P|114:313|141:372,1,90,2|0,1:2|1:0,0:0:0:0:
282,356,167665,2,0,P|231:373|180:389,1,90,8|0,0:0|0:0,0:0:0:0:
41,275,167968,2,0,P|92:292|143:308,1,90,0|0,1:0|1:0,0:0:0:0:
251,232,168271,6,0,L|233:180,1,45,14|0,0:2|0:0,0:0:0:0:
164,110,168423,2,0,L|146:162,1,45,2|0,0:0|0:0,0:0:0:0:
390,13,168574,6,0,B|328:43|328:43|315:78|315:78|248:109,1,180,6|8,1:2|0:0,0:0:0:0:
365,188,169029,2,0,P|403:113|485:132,1,180,2|0,1:2|1:0,0:0:0:0:
511,314,169483,2,0,P|467:295|417:284,1,90,10|0,0:0|0:0,0:0:0:0:
278,383,169786,6,0,B|318:374|318:374|327:359|327:359|369:348,1,90,2|0,1:2|1:0,0:0:0:0:
278,383,170089,1,8,0:0:0:0:
170,214,170241,2,0,P|233:201|284:293,1,180,2|0,1:2|1:0,0:0:0:0:
189,375,170696,2,0,P|145:353|80:344,1,90,10|0,0:0|0:0,0:0:0:0:
28,197,170999,5,2,1:2:0:0:
28,197,171150,1,2,1:2:0:0:
147,224,171302,1,14,0:2:0:0:
25,104,171453,1,2,0:2:0:0:
168,2,171605,6,0,B|199:34|199:34|181:104,1,90,2|0,1:2|1:0,0:0:0:0:
24,177,171908,2,0,P|24:125|97:84,1,135,14|0,0:0|0:0,0:0:0:0:
108,96,172211,5,2,1:2:0:0:
218,249,172362,1,8,0:0:0:0:
201,242,172438,1,8,0:0:0:0:
184,235,172514,1,8,0:3:0:0:
302,191,172665,1,8,0:3:0:0:
232,356,172817,5,8,0:0:0:0:
86,289,172968,1,8,0:0:0:0:
33,376,173120,6,0,P|71:350|111:353,1,62.9999980773926,2|8,0:0|0:0,0:0:0:0:
154,376,173347,5,8,0:0:0:0:
154,376,173423,1,6,1:2:0:0:
16,270,173574,1,0,1:0:0:0:
263,96,173877,5,2,1:2:0:0:
263,96,173953,1,0,1:0:0:0:
263,96,174029,2,0,P|257:150|157:148,1,153.000002918243,10|2,0:0|1:2,0:0:0:0:
51,0,174483,2,0,P|116:10|220:26,1,153.000002918243,6|0,1:2|1:0,0:0:0:0:
410,164,174938,6,0,P|447:144|453:101,1,76.5000014591217,2|0,0:0|1:0,0:0:0:0:
357,9,175241,2,0,P|344:58|333:91,1,76.5000014591217,10|0,0:0|1:0,0:0:0:0:
430,240,175544,5,10,0:0:0:0:
322,73,175696,1,8,0:0:0:0:
253,160,175847,5,6,1:2:0:0:
389,245,175999,2,0,B|335:226|335:226|325:203|325:203|235:174,1,153.000002918243,2|2,1:2|1:2,0:0:0:0:
188,298,176377,1,0,1:0:0:0:
188,298,176453,2,0,P|225:282|281:302,1,76.5000014591217,10|0,0:0|0:0,0:0:0:0:
433,383,176756,5,2,1:2:0:0:
327,362,176908,1,10,0:0:0:0:
398,177,177059,2,0,B|405:164|413:139|413:139|423:183|459:265,1,153.000002918243,6|0,1:2|1:0,0:0:0:0:
398,177,177514,1,0,1:0:0:0:
334,368,177665,6,0,P|369:353|397:327,1,76.5000014591217,8|0,0:0|1:0,0:0:0:0:
301,153,177968,1,10,0:0:0:0:
301,153,178120,2,0,L|277:200,1,38.2500007295609,10|0,0:0|0:0,0:0:0:0:
146,343,178271,5,4,1:2:0:0:
146,343,178423,2,0,P|182:289|285:307,1,153.000002918243,0|2,1:0|1:2,0:0:0:0:
331,384,178802,1,0,1:0:0:0:
331,384,178877,2,0,L|221:361,1,76.5000014591217,10|0,0:0|0:0,0:0:0:0:
95,202,179180,5,2,1:2:0:0:
290,103,179332,2,0,P|240:156|169:140,1,153.000002918243,6|0,1:2|1:0,0:0:0:0:
169,140,179786,6,0,P|231:167|249:199,1,76.5000014591217,10|0,0:2|1:0,0:0:0:0:
245,321,180089,2,0,P|182:293|164:261,1,76.5000014591217,10|0,0:0|1:0,0:0:0:0:
181,265,180317,5,0,0:0:0:0:
188,262,180393,1,10,0:0:0:0:
367,182,180544,1,8,1:3:0:0:
245,321,180696,5,4,1:2:0:0:
176,239,180999,1,8,0:0:0:0:
256,168,181302,1,8,0:0:0:0:
189,84,181605,1,8,0:0:0:0:
256,0,181908,5,8,0:0:0:0:
189,84,182059,1,8,0:0:0:0:
256,168,182211,1,8,0:0:0:0:
176,239,182362,1,8,0:0:0:0:
245,321,182514,1,8,0:2:0:0:
336,240,182665,5,8,0:0:0:0:
307,252,182741,1,8,0:0:0:0:
277,260,182817,1,8,0:0:0:0:
247,269,182893,1,8,0:0:0:0:
218,278,182968,2,0,L|158:297,1,38.2500007295609,10|0,0:0|0:0,0:0:0:0:
84,254,183120,5,6,1:2:0:0:
356,368,183423,1,2,0:0:0:0:
471,136,183726,6,0,P|436:136|405:216,1,116.999994644165,2|2,0:0|0:0,0:0:0:0:
119,128,184332,5,14,0:0:0:0:
320,26,184483,1,0,1:0:0:0:
320,26,184559,1,0,1:0:0:0:
320,26,184635,1,0,1:0:0:0:
425,174,184786,5,12,0:0:0:0:
243,112,184938,1,0,1:0:0:0:
243,112,185014,1,0,1:0:0:0:
243,112,185089,1,0,1:0:0:0:
182,278,185241,5,8,0:0:0:0:
189,259,185317,1,8,0:0:0:0:
195,235,185393,2,0,L|210:184,1,47.2499985580445,8|4,0:3|0:3,0:0:0:0:
146,84,185544,6,8,L|79:111,3,47.2499985580445,8|8|8|8,1:2|0:0|0:0|0:0,0:0:0:0:
91,182,185847,1,8,1:2:0:0:
47,166,185922,1,8,0:0:0:0:
22,127,185998,1,8,0:0:0:0:
26,80,186074,1,8,0:0:0:0:
58,47,186150,6,8,L|122:65,1,47.2499985580445
211,226,186302,2,10,L|147:208,1,47.2499985580445,8|8,0:0|0:0,0:0:0:0:
49,33,186453,6,8,L|112:50,1,47.2499985580445
226,250,186605,2,10,L|162:232,1,47.2499985580445,8|8,0:0|0:0,0:0:0:0:
42,13,186756,5,4,1:2:0:0:
241,267,186908,1,0,1:2:0:0:
0,292,187059,1,8,0:0:0:0:
209,66,187211,2,0,P|262:57|269:185,1,215.999993408203,0|0,1:2|1:0,0:0:0:0:
179,373,187665,6,0,P|135:341|134:264,1,107.999996704102,8|0,0:0|0:0,0:0:0:0:
312,367,187968,2,0,P|365:350|429:324,1,107.999996704102,0|0,1:0|1:0,0:0:0:0:
494,97,188271,6,0,P|456:135|455:205,1,107.999996704102,10|0,0:0|0:0,0:0:0:0:
251,223,188574,2,0,B|321:236|280:272|370:279,1,107.999996704102,2|0,1:2|1:0,0:0:0:0:
465,51,188877,2,0,B|420:48|385:22|385:22|378:60|319:97,1,161.999995056153,10|0,0:0|0:0,0:0:0:0:
278,59,189180,6,0,B|304:75|330:75|330:75|347:117|347:117|378:112|429:136|429:136|414:122|399:102,1,215.999993408203,2|8,1:2|0:0,0:0:0:0:
227,0,189635,1,2,1:2:0:0:
443,236,189786,1,2,1:2:0:0:
148,199,189938,1,0,1:0:0:0:
361,118,190089,6,0,P|360:194|291:228,1,161.999995056153,8|0,0:0|0:0,0:0:0:0:
210,122,190393,2,0,P|262:119|299:156,1,107.999996704102,2|0,1:2|1:0,0:0:0:0:
275,357,190696,1,8,0:0:0:0:
191,103,190847,1,2,0:0:0:0:
409,359,190999,2,0,P|460:336|515:311,1,107.999996704102,2|0,1:2|1:0,0:0:0:0:
325,181,191302,6,0,B|224:219|281:272|196:303,1,161.999995056153,12|0,0:0|0:0,0:0:0:0:
143,284,191605,6,0,P|202:288|232:345,1,107.999996704102,6|0,1:2|1:0,0:0:0:0:
73,358,191908,1,10,0:0:0:0:
288,261,192059,2,0,P|228:208|150:200,1,161.999995056153,2|0,1:2|1:0,0:0:0:0:
95,255,192362,5,2,1:2:0:0:
202,384,192514,2,0,P|278:367|381:351,1,161.999995056153,10|0,0:0|0:0,0:0:0:0:
428,377,192817,5,2,1:2:0:0:
196,251,192968,1,2,1:2:0:0:
428,377,193120,1,10,0:2:0:0:
406,60,193271,2,0,B|341:137|419:147|354:235,1,161.999995056153,2|0,1:2|0:0,0:0:0:0:
303,235,193574,5,0,1:2:0:0:
512,324,193726,2,0,P|486:258|467:206,1,107.999996704102,10|8,0:0|0:0,0:0:0:0:
442,3,194029,5,2,1:2:0:0:
212,97,194180,1,2,0:0:0:0:
442,3,194332,1,10,0:0:0:0:
215,176,194483,2,0,B|161:162|161:162|117:116|129:28|230:13,1,215.999993408203,2|2,1:2|1:2,0:0:0:0:
116,235,194938,6,0,P|62:223|10:212,1,107.999996704102,10|0,0:0|0:0,0:0:0:0:
211,97,195241,2,0,P|265:86|317:74,1,107.999996704102,2|0,1:2|1:0,0:0:0:0:
429,258,195544,2,0,P|377:251|348:207,1,107.999996704102,12|0,0:0|1:2,0:0:0:0:
339,0,195847,6,8,P|348:32|362:62,1,53.9999983520508,2|0,1:2|0:0,0:0:0:0:
179,138,195999,2,8,P|194:109|202:77,1,53.9999983520508,10|0,0:0|0:0,0:0:0:0:
278,319,196150,5,10,0:0:0:0:
230,297,196225,1,8,0:0:0:0:
214,247,196301,1,10,0:0:0:0:
241,202,196377,1,8,0:0:0:0:
293,189,196453,5,6,1:2:0:0:
402,365,196605,1,0,1:2:0:0:
97,148,196756,1,8,0:0:0:0:
9,383,196908,2,0,B|85:351|85:351|95:306|95:306|175:271,1,215.999993408203,0|0,1:2|1:0,0:0:0:0:
381,376,197362,6,0,P|328:369|294:328,1,107.999996704102,8|0,0:0|0:0,0:0:0:0:
232,117,197665,2,0,P|283:138|361:166,1,107.999996704102,0|0,1:0|1:0,0:0:0:0:
179,265,197968,6,0,B|132:277|132:277|111:268|111:268|73:276,1,107.999996704102,10|0,0:0|0:0,0:0:0:0:
0,113,198271,2,0,P|45:100|98:170,1,107.999996704102,2|0,1:2|1:0,0:0:0:0:
264,0,198574,2,0,P|207:15|102:44,1,161.999995056153,10|0,0:0|0:0,0:0:0:0:
29,14,198877,6,0,B|97:17|108:91|94:87|109:153|190:160,1,215.999993408203,2|8,1:2|0:0,0:0:0:0:
311,18,199332,1,0,1:2:0:0:
207,48,199483,2,0,P|260:36|311:18,1,107.999996704102,2|0,1:2|1:0,0:0:0:0:
358,144,199786,5,8,0:0:0:0:
94,33,199938,1,10,0:0:0:0:
171,221,200089,5,2,1:2:0:0:
331,153,200241,1,2,1:2:0:0:
431,333,200393,2,0,P|379:309|321:286,1,107.999996704102,12|2,0:0|0:0,0:0:0:0:
1,235,200696,5,2,1:2:0:0:
161,303,200848,1,2,1:2:0:0:
261,123,200999,2,0,P|209:146|151:169,1,107.999996704102,12|2,0:0|0:0,0:0:0:0:
309,5,201302,6,0,B|401:33|329:84|439:112,1,161.999995056153,6|0,1:2|0:0,0:0:0:0:
488,78,201605,1,10,0:0:0:0:
352,277,201756,6,0,P|387:206|465:207,1,161.999995056153,2|0,1:2|0:0,0:0:0:0:
512,260,202059,1,2,1:2:0:0:
347,382,202211,1,10,0:0:0:0:
327,374,202286,1,2,0:0:0:0:
306,367,202362,1,2,0:0:0:0:
94,256,202514,5,2,1:2:0:0:
270,213,202665,2,0,P|248:164|196:155,1,107.999996704102,2|8,1:2|0:0,0:0:0:0:
179,129,202968,2,0,P|239:123|287:222,1,161.999995056153,2|0,1:2|0:0,0:0:0:0:
243,255,203271,5,2,1:2:0:0:
129,384,203423,2,0,P|109:356|129:288,1,107.999996704102,10|0,0:0|0:0,0:0:0:0:
446,308,203726,6,0,P|382:329|286:361,1,161.999995056153,2|0,1:2|0:0,0:0:0:0:
229,329,204029,1,10,0:0:0:0:
320,70,204180,6,0,B|338:48|384:44|420:105|354:167,1,161.999995056153,2|0,1:2|0:0,0:0:0:0:
308,204,204483,1,0,1:0:0:0:
125,0,204635,2,0,P|178:15|245:30,1,107.999996704102,10|8,0:0|0:3,0:0:0:0:
156,359,204938,5,2,1:2:0:0:
46,283,205089,2,0,B|-19:245|5:179|5:179|70:157|70:157|63:182,1,215.999993408203,12|0,0:2|1:0,0:0:0:0:
63,180,205468,5,0,1:0:0:0:
63,180,205544,1,8,0:0:0:0:
160,13,205696,1,8,0:0:0:0:
0,89,205847,5,8,1:3:0:0:
128,299,205999,1,4,0:3:0:0:
190,161,206150,6,0,P|256:170|265:273,1,161.999995056153,6|2,1:2|0:0,0:0:0:0:
401,369,206605,1,0,1:0:0:0:
401,369,206680,1,0,1:0:0:0:
401,369,206756,2,0,L|368:282,1,80.9999975280763,10|0,0:0|0:0,0:0:0:0:
440,158,207059,5,2,1:2:0:0:
360,302,207211,1,8,0:0:0:0:
202,133,207362,6,0,B|311:163,1,80.9999975280763,2|8,1:2|0:0,0:0:0:0:
280,154,207665,1,2,1:2:0:0:
280,154,207817,1,0,1:0:0:0:
453,9,207968,6,0,B|401:21|401:21|377:84,1,121.499996292114,10|0,0:0|0:0,0:0:0:0:
460,141,208271,6,0,P|451:122|444:103,1,40.4999987640381,4|0,1:2|0:0,0:0:0:0:
331,0,208423,2,0,P|323:18|315:37,1,40.4999987640381,2|0,0:0|0:0,0:0:0:0:
293,270,208574,5,6,1:2:0:0:
376,84,208877,1,2,0:0:0:0:
493,250,209180,5,6,1:2:0:0:
177,118,209483,1,2,0:0:0:0:
158,313,209786,5,8,0:0:0:0:
285,172,209938,1,0,1:0:0:0:
296,302,210089,5,0,1:0:0:0:
148,191,210241,1,8,0:0:0:0:
125,384,210393,6,0,P|177:364|224:347,1,94.499997116089,2|0,1:2|1:0,0:0:0:0:
330,375,210620,1,0,1:0:0:0:
330,375,210696,2,0,P|293:347|296:302,1,94.499997116089,14|0,0:0|1:0,0:0:0:0:
391,117,210999,5,6,1:2:0:0:
424,225,211302,1,8,0:0:0:0:
244,150,211605,5,8,1:2:0:0:
296,28,211908,1,8,0:0:0:0:
388,103,212211,5,8,1:2:0:0:
437,254,212514,1,8,0:0:0:0:
231,170,212817,5,8,1:2:0:0:
298,3,213120,1,8,0:0:0:0:
388,144,213423,5,8,0:0:0:0:
342,131,213574,1,8,0:0:0:0:
296,116,213726,1,8,0:0:0:0:
251,101,213877,1,8,0:0:0:0:
176,20,214029,5,0,1:0:0:0:
301,210,214180,1,8,0:0:0:0:
185,159,214332,5,8,0:0:0:0:
316,83,214483,1,8,0:0:0:0:
448,244,214635,5,10,1:2:0:0:
434,238,214711,1,8,0:2:0:0:
420,233,214786,1,8,0:2:0:0:
406,227,214862,1,8,0:2:0:0:
392,221,214938,1,8,1:2:0:0:
378,215,215014,1,8,0:2:0:0:
365,209,215089,1,8,0:2:0:0:
351,203,215165,1,8,0:2:0:0:
337,198,215241,5,10,1:2:0:0:
365,250,215316,1,8,0:0:0:0:
349,308,215392,1,8,0:0:0:0:
296,337,215468,1,8,0:0:0:0:
239,322,215544,1,8,0:3:0:0:
208,271,215619,1,8,0:3:0:0:
232,213,215696,1,4,0:3:0:0:
222,152,215771,1,4,0:3:0:0:
162,137,215847,6,4,P|235:159|298:177,1,116.999994644165,6|0,1:2|1:2,1:2:0:0:
449,11,216453,5,10,0:0:0:0:
449,11,216756,2,0,P|416:19|400:112,1,116.999994644165,2|0,1:2|0:0,0:0:0:0:
187,25,217362,5,2,1:2:0:0:
187,25,217665,2,0,B|256:21|224:66|317:69,1,116.999994644165,10|0,0:0|0:0,0:0:0:0:
127,227,218271,6,0,B|104:187|104:187|136:98,1,116.999994644165,2|0,1:2|1:0,0:0:0:0:
143,238,218877,1,8,0:0:0:0:
339,236,219180,6,0,B|276:258|324:291|240:325,1,116.999994644165,2|0,1:2|0:0,0:0:0:0:
61,245,219786,1,2,1:2:0:0:
61,245,220089,2,0,P|101:245|147:320,1,116.999994644165,10|0,0:0|0:0,0:0:0:0:
465,366,220696,6,0,B|439:352|424:320|424:320|393:341|359:347,1,116.999994644165,6|0,1:2|1:0,0:0:0:0:
278,190,221302,6,0,L|345:207,1,58.4999973220826,10|0,0:0|0:0,0:0:0:0:
444,202,221605,2,0,L|306:167,1,116.999994644165,2|0,1:2|0:0,0:0:0:0:
203,369,222211,6,0,P|253:331|331:325,2,116.999994644165,2|10|2,1:2|0:0|1:2,0:0:0:0:
30,186,223120,2,0,P|85:203|163:226,1,116.999994644165,2|2,1:2|1:2,0:0:0:0:
290,176,223726,5,10,0:0:0:0:
139,239,224029,1,2,0:0:0:0:
94,14,224332,6,0,P|113:73|81:127,1,116.999994644165,0|0,1:2|1:0,0:0:0:0:
211,226,224938,5,14,0:0:0:0:
208,209,225013,1,2,0:0:0:0:
206,192,225089,1,2,0:0:0:0:
204,175,225165,1,2,0:0:0:0:
201,159,225241,1,2,0:0:0:0:
199,142,225316,1,2,0:0:0:0:
197,125,225392,1,2,0:0:0:0:
194,108,225468,1,2,0:0:0:0:
192,92,225544,6,0,B|265:84|235:130|314:125,2,116.999994644165,6|0|10,1:2|1:0|0:0,0:0:0:0:
50,204,226453,2,0,B|41:197|17:189|17:189|101:191|70:251|161:246,1,175.499991966248,2|0,1:2|0:0,0:0:0:0:
315,304,227059,6,0,P|271:323|249:339,1,58.4999973220826,2|0,1:2|0:0,0:0:0:0:
180,350,227362,2,0,P|238:351|301:394,1,116.999994644165,10|0,0:0|0:0,0:0:0:0:
461,235,227968,6,0,B|449:286|449:286|426:301|426:301|412:359,2,116.999994644165,2|0|10,1:2|1:0|0:0,0:0:0:0:
376,11,228877,2,0,P|367:86|451:77,1,175.499991966248,2|0,1:2|0:0,0:0:0:0:
365,4,229483,6,0,P|325:19|285:33,1,58.4999973220826,2|0,1:2|0:0,0:0:0:0:
174,181,229786,2,0,B|222:157|245:108|245:108|248:163|302:214,1,204.749990627289,14|0,0:0|0:0,0:0:0:0:
298,203,230393,6,0,B|238:224|279:260|199:292,2,116.999994644165,4|0|10,1:2|1:0|0:0,0:0:0:0:
506,367,231302,2,0,P|439:352|369:337,1,116.999994644165,2|0,1:2|0:0,0:0:0:0:
247,246,231908,5,2,1:2:0:0:
132,317,232211,1,10,0:2:0:0:
255,371,232514,1,2,1:2:0:0:
134,166,232817,5,2,1:2:0:0:
288,215,233120,1,0,1:2:0:0:
226,365,233423,1,10,0:2:0:0:
75,304,233726,1,2,1:2:0:0:
253,94,234029,5,0,1:0:0:0:
253,93,234332,2,0,P|287:101|313:126,1,58.4999973220826,2|0,1:2|0:0,0:0:0:0:
312,202,234635,1,10,0:0:0:0:
197,21,234786,1,8,0:0:0:0:
83,142,234938,2,0,P|116:127|154:113,1,58.4999973220826,4|4,0:3|0:3,0:0:0:0:
243,238,235165,5,0,1:0:0:0:
243,238,235241,2,0,L|112:211,1,116.999994644165,6|0,1:2|1:0,0:0:0:0:
52,244,235847,1,10,0:0:0:0:
276,162,236150,2,0,P|317:249|298:280,1,116.999994644165,2|0,1:2|0:0,0:0:0:0:
124,373,236756,5,2,1:2:0:0:
124,373,237059,2,0,P|158:355|223:390,1,116.999994644165,10|0,0:0|0:0,0:0:0:0:
78,298,237665,1,2,1:2:0:0:
78,297,237968,6,0,P|53:313|25:321,1,58.4999973220826,2|0,1:2|0:0,0:0:0:0:
114,208,238271,2,0,P|141:216|166:231,1,58.4999973220826,10|0,0:2|0:0,0:0:0:0:
293,74,238574,6,0,P|237:78|211:119,1,87.749995983124,2|0,1:2|0:0,0:0:0:0:
208,107,238877,6,0,B|218:94|226:81|226:81|233:127|242:168,2,116.999994644165,2|0|10,0:2|1:0|0:0,0:0:0:0:
208,107,239786,1,0,1:0:0:0:
349,208,240089,5,6,1:2:0:0:
475,146,240393,1,2,1:2:0:0:
349,208,240696,1,10,0:2:0:0:
505,334,240999,2,0,P|480:317|385:305,1,116.999994644165,2|0,1:2|0:0,0:0:0:0:
309,377,241605,6,0,P|278:381|256:309,2,116.999994644165,2|10|2,1:2|0:0|1:2,0:0:0:0:
418,167,242514,6,0,B|390:198|390:198|428:288,1,116.999994644165,2|0,1:2|1:0,0:0:0:0:
408,291,243120,2,0,L|376:219,1,58.4999973220826,10|0,0:0|0:0,0:0:0:0:
441,63,243423,2,0,P|444:133|407:63,1,204.749990627289,2|0,1:2|0:0,0:0:0:0:
457,72,244029,6,0,P|474:105|487:132,1,58.4999973220826,2|0,1:2|0:0,0:0:0:0:
314,63,244332,2,0,P|327:36|341:11,1,58.4999973220826,10|0,0:2|0:0,0:0:0:0:
344,163,244635,5,2,3:2:0:0:
311,176,244711,1,2,3:2:0:0:
276,170,244786,1,2,3:2:0:0:
249,147,244862,1,2,3:2:0:0:
242,112,244938,6,0,P|308:152|363:184,1,116.999994644165,6|0,1:2|1:0,0:0:0:0:
201,321,245544,5,10,0:0:0:0:
201,321,245847,2,0,B|169:277|186:233|186:233|196:245|218:266,1,116.999994644165,2|0,1:2|0:0,0:0:0:0:
349,374,246453,6,0,L|406:359,1,58.4999973220826,2|0,1:2|0:0,0:0:0:0:
477,315,246756,2,0,L|363:342,1,116.999994644165,10|0,0:0|1:0,0:0:0:0:
178,255,247362,5,2,1:2:0:0:
178,255,247665,2,0,P|214:266|242:272,1,58.4999973220826,2|0,1:2|0:0,0:0:0:0:
351,144,247968,2,0,P|315:155|287:161,1,58.4999973220826,10|0,0:2|0:0,0:0:0:0:
181,35,248271,2,0,P|209:67|252:67,1,87.749995983124,2|0,1:2|0:0,0:0:0:0:
262,61,248574,6,0,B|251:53|238:37|238:37|246:88|249:140,2,116.999994644165,2|0|10,1:2|1:0|0:0,0:0:0:0:
262,61,249483,1,8,0:0:0:0:
162,140,249786,5,6,1:2:0:0:
36,78,250090,1,2,1:2:0:0:
162,140,250393,1,10,0:2:0:0:
284,4,250696,6,0,P|235:18|158:42,1,116.999994644165,2|0,1:2|0:0,0:0:0:0:
106,216,251302,5,0,1:0:0:0:
117,202,251453,1,0,1:0:0:0:
22,67,251605,5,12,0:0:0:0:
38,144,251756,1,8,0:0:0:0:
218,158,251908,5,8,0:3:0:0:
199,255,252059,1,8,0:3:0:0:
74,373,252211,5,12,0:0:0:0:
315,220,252514,1,8,0:0:0:0:
383,370,252817,1,8,0:0:0:0:
163,161,253120,1,8,0:0:0:0:
418,37,253423,1,8,0:0:0:0:
312,238,253726,6,0,P|280:222|249:207,1,58.4999973220826,2|0,1:2|0:0,0:0:0:0:
392,155,254029,2,0,P|424:139|455:124,1,58.4999973220826,10|0,0:0|0:0,0:0:0:0:
312,238,254332,2,0,P|280:222|249:207,1,58.4999973220826,2|0,1:2|0:0,0:0:0:0:
447,266,254635,5,8,0:0:0:0:
337,20,254938,1,8,0:0:0:0:
201,375,255241,1,8,0:0:0:0:
91,129,255544,1,8,0:0:0:0:
447,266,255847,1,8,0:0:0:0:
219,19,256150,6,0,P|264:32|286:38,1,58.4999973220826,10|0,0:0|0:0,0:0:0:0:
439,147,256453,2,0,P|410:154|382:163,1,58.4999973220826,2|0,1:2|0:0,0:0:0:0:
219,19,256756,2,0,P|264:32|286:38,1,58.4999973220826,10|0,0:0|0:0,0:0:0:0:
283,244,257059,6,0,P|252:213|248:170,1,87.749995983124,4|0,1:2|0:0,0:0:0:0:
269,146,257362,5,8,0:0:0:0:
219,208,257514,1,8,0:0:0:0:
291,266,257665,1,8,0:0:0:0:
233,340,257817,1,8,0:0:0:0:
304,384,257968,5,10,0:0:0:0:
124,259,258120,1,10,0:0:0:0:
67,384,258271,5,8,0:3:0:0:
115,377,258372,5,8,0:3:0:0:
146,341,258473,5,8,0:3:0:0:
66,225,258574,5,8,0:3:0:0:
87,255,258675,5,8,0:3:0:0:
124,259,258776,5,8,0:3:0:0:
221,149,258877,5,12,0:3:0:0:
200,160,258978,5,4,0:3:0:0:
191,171,259079,5,4,0:3:0:0:
190,185,259180,6,0,P|238:249|244:265,1,72,4|2,0:3|0:0,0:0:0:0:
73,135,259483,1,4,1:2:0:0:
73,135,259786,5,8,0:0:0:0:
103,102,259862,1,8,0:0:0:0:
147,95,259938,1,8,0:0:0:0:
182,120,260013,1,8,0:2:0:0:
234,182,260089,5,8,1:2:0:0:
281,192,260164,1,8,0:0:0:0:
321,165,260240,1,8,0:0:0:0:
329,117,260316,1,8,0:0:0:0:
299,46,260393,5,8,1:2:0:0:
243,66,260468,1,8,0:0:0:0:
187,86,260544,1,8,0:0:0:0:
131,107,260620,1,8,0:0:0:0:
71,130,260696,5,2,1:2:0:0:
452,311,260847,1,2,1:2:0:0:
299,24,260999,1,2,1:2:0:0:
138,374,261302,5,0,0:0:0:0:
175,360,261453,1,0,0:0:0:0:
211,344,261605,5,8,3:2:0:0:
202,339,261680,1,8,3:2:0:0:
193,334,261756,1,8,3:2:0:0:
184,329,261832,1,8,3:2:0:0:
175,324,261908,5,6,1:2:0:0:
0,225,262059,1,0,1:0:0:0:
256,94,262211,1,8,0:0:0:0:
16,86,262362,2,0,B|83:94|101:153|88:154|102:214|184:216,1,215.999993408203,0|0,1:2|1:0,0:0:0:0:
466,3,262817,6,0,P|403:24|344:42,1,107.999996704102,8|0,0:0|0:0,0:0:0:0:
283,274,263120,2,0,P|346:228|333:132,1,161.999995056153,0|0,1:0|0:0,0:0:0:0:
283,105,263423,5,10,0:0:0:0:
418,291,263574,1,0,0:0:0:0:
512,50,263726,1,2,1:2:0:0:
335,154,263877,1,0,1:0:0:0:
498,304,264029,6,0,P|458:360|351:338,1,161.999995056153,10|0,0:0|0:0,0:0:0:0:
335,295,264332,2,0,B|343:249|388:241|388:241|451:304|390:387,1,215.999993408203,2|8,1:2|0:0,0:0:0:0:
277,236,264786,1,2,0:0:0:0:
512,181,264938,1,2,1:2:0:0:
225,25,265090,1,0,1:2:0:0:
437,7,265241,2,0,B|482:68|482:68|451:114|448:151,1,161.999995056153,8|0,0:0|0:0,0:0:0:0:
385,188,265544,6,0,P|338:165|336:113,1,107.999996704102,2|0,1:2|1:0,0:0:0:0:
512,255,265847,1,8,0:0:0:0:
308,370,265999,1,2,0:0:0:0:
173,208,266150,6,0,P|245:234|279:246,1,107.999996704102,2|0,1:2|1:0,0:0:0:0:
37,323,266453,1,8,0:0:0:0:
134,115,266605,1,8,0:0:0:0:
134,115,266680,1,8,0:0:0:0:
134,115,266756,5,6,1:2:0:0:
360,314,266908,1,2,1:2:0:0:
9,384,267059,1,10,0:0:0:0:
205,12,267211,6,0,B|222:71|222:71|259:88|259:88|272:129|279:144,1,161.999995056153,2|0,1:2|0:0,0:2:0:0:
343,181,267514,1,2,1:2:0:0:
187,359,267665,2,0,P|261:320|346:282,1,161.999995056153,10|0,0:0|0:0,0:0:0:0:
404,301,267968,5,2,1:2:0:0:
133,105,268120,1,2,1:2:0:0:
162,384,268271,1,10,0:2:0:0:
320,25,268423,6,0,B|377:29|392:66|382:68|397:116|466:112,1,161.999995056153,2|0,1:2|0:0,0:0:0:0:
506,69,268726,1,0,1:0:0:0:
332,287,268877,2,0,P|281:260|231:237,1,107.999996704102,10|8,0:0|0:0,0:0:0:0:
241,25,269180,5,2,1:2:0:0:
512,156,269332,1,2,0:2:0:0:
222,242,269483,1,10,0:0:0:0:
470,372,269635,2,0,B|478:357|500:338|500:338|448:370|373:378,1,161.999995056153,2|0,1:2|0:2,1:2:0:0:
321,352,269938,5,2,1:2:0:0:
150,151,270090,2,0,P|201:158|238:203,1,107.999996704102,10|0,0:0|0:0,0:0:0:0:
398,11,270393,2,0,P|345:30|296:46,1,107.999996704102,2|0,1:2|1:0,0:0:0:0:
81,29,270696,5,12,0:0:0:0:
87,14,270771,1,8,0:0:0:0:
92,0,270847,1,0,1:0:0:0:
217,21,270999,2,0,P|275:39|291:44,2,53.9999983520508,8|8|8,0:0|0:3|0:3,0:0:0:0:
33,106,271302,5,12,0:0:0:0:
0,147,271377,1,8,0:0:0:0:
5,199,271453,1,8,0:0:0:0:
46,233,271529,1,8,0:0:0:0:
98,229,271605,5,6,1:2:0:0:
326,0,271756,1,0,1:2:0:0:
0,39,271908,1,8,0:0:0:0:
358,160,272059,2,0,P|307:133|225:237,1,215.999993408203,0|0,1:0|1:0,0:0:0:0:
364,369,272514,6,0,P|422:350|485:328,1,107.999996704102,8|0,0:0|0:0,0:0:0:0:
229,218,272817,2,0,P|177:200|126:183,1,107.999996704102,0|0,1:2|1:0,0:0:0:0:
78,384,273120,6,0,B|131:358|131:358|152:290|72:263,1,161.999995056153,10|0,0:0|0:0,0:0:0:0:
2,219,273423,2,0,B|60:235|29:267|101:289,1,107.999996704102,2|0,1:2|1:0,0:0:0:0:
404,328,273726,6,0,P|324:355|248:387,1,161.999995056153,10|0,0:0|0:0,0:0:0:0:
157,340,274029,2,0,P|184:298|230:316,2,107.999996704102,2|0|8,1:2|0:0|0:0,0:0:0:0:
138,384,274483,5,0,1:0:0:0:
404,267,274635,1,2,1:2:0:0:
255,173,274786,1,0,1:0:0:0:
403,375,274938,2,0,P|432:376|494:319,1,107.999996704102,8|2,0:0|0:0,0:0:0:0:
325,38,275241,5,2,1:2:0:0:
512,132,275393,1,2,1:2:0:0:
230,225,275544,1,12,0:0:0:0:
230,225,275620,1,2,0:0:0:0:
230,225,275696,1,2,1:2:0:0:
174,21,275847,6,0,P|198:32|223:42,1,53.9999983520508,2|0,0:0|0:0,0:0:0:0:
85,166,275999,2,0,P|48:182|13:200,1,53.9999983520508,2|0,1:2|0:0,0:0:0:0:
26,8,276150,1,12,0:0:0:0:
26,8,276226,1,2,0:0:0:0:
26,8,276302,1,2,0:0:0:0:
236,128,276453,6,0,B|288:167|288:167|315:226|244:276,1,161.999995056153,4|0,1:2|0:0,0:0:0:0:
198,274,276756,1,10,0:0:0:0:
461,12,276908,2,0,B|385:36|280:68,1,161.999995056153,2|0,1:2|0:0,0:0:0:0:
243,19,277211,5,2,1:2:0:0:
468,134,277362,1,10,0:0:0:0:
468,134,277438,1,8,0:0:0:0:
468,134,277514,1,8,0:0:0:0:
194,190,277665,5,2,1:2:0:0:
386,76,277817,1,2,1:2:0:0:
399,384,277968,1,10,0:2:0:0:
85,94,278120,2,0,B|181:115|123:172|252:191,1,161.999995056153,2|0,1:2|0:0,0:0:0:0:
283,148,278423,5,2,1:2:0:0:
153,383,278574,2,0,P|94:372|89:281,1,161.999995056153,10|0,0:0|0:0,0:0:0:0:
155,261,278877,6,0,P|199:276|276:295,1,107.999996704102,2|0,1:2|1:0,0:0:0:0:
149,245,279180,1,8,0:2:0:0:
448,105,279332,2,0,P|390:132|284:179,1,161.999995056153,2|0,1:2|0:0,0:0:0:0:
242,134,279635,5,2,1:2:0:0:
405,330,279786,2,0,B|443:272|443:272|414:209,1,107.999996704102,10|8,0:0|0:0,0:0:0:0:
306,349,280014,1,8,0:0:0:0:
306,349,280090,2,0,P|254:323|188:318,1,107.999996704102,4|0,1:2|1:0,0:0:0:0:
96,384,280317,5,0,1:0:0:0:
96,384,280393,2,0,L|58:324,3,53.9999983520508,12|0|0|0,1:2|1:2|1:2|1:2,1:2:0:0:
13,137,280696,5,12,0:0:0:0:
65,130,280771,1,8,0:0:0:0:
112,155,280847,1,8,0:0:0:0:
134,203,280923,1,8,0:0:0:0:
125,256,280999,2,0,L|54:234,1,53.9999983520508,8|8,0:3|0:3,0:0:0:0:
238,177,281150,2,0,L|309:154,1,53.9999983520508,4|4,0:3|0:3,0:0:0:0:
127,0,281302,6,0,L|100:102,1,94.499997116089,6|0,1:2|1:0,0:0:0:0:
232,23,281605,1,2,0:0:0:0:
232,23,281680,1,2,0:0:0:0:
232,23,281756,1,0,1:0:0:0:
369,167,281908,6,0,P|350:120|248:117,1,141.749995674133,10|0,0:0|0:0,0:0:0:0:
258,120,282211,5,2,1:2:0:0:
431,65,282362,1,8,0:0:0:0:
431,65,282438,1,8,0:0:0:0:
431,65,282514,2,0,P|455:122|474:159,1,94.499997116089,10|8,0:0|0:0,0:0:0:0:
303,263,282817,2,0,P|323:220|341:176,1,94.499997116089,2|0,1:2|1:0,0:0:0:0:
289,100,283044,5,0,1:0:0:0:
289,100,283120,2,0,P|237:110|256:178,1,94.499997116089,8|0,0:0|1:0,0:0:0:0:
453,306,283423,5,8,0:0:0:0:
440,275,283499,1,8,0:0:0:0:
427,244,283574,1,8,0:3:0:0:
414,213,283650,1,8,0:3:0:0:
403,184,283726,5,6,1:2:0:0:
312,384,284029,1,2,0:2:0:0:
34,34,284332,5,6,1:2:0:0:
133,217,284635,1,2,0:2:0:0:
457,39,284938,5,14,0:2:0:0:
404,282,285089,1,2,1:2:0:0:
94,116,285241,5,8,0:0:0:0:
159,340,285393,1,8,0:0:0:0:
183,0,285544,5,2,1:2:0:0:
221,11,285619,1,0,1:0:0:0:
259,22,285695,1,0,1:0:0:0:
297,33,285771,1,0,1:0:0:0:
322,45,285847,5,10,0:2:0:0:
263,63,285922,1,8,0:0:0:0:
204,82,285998,1,10,0:2:0:0:
145,100,286074,1,8,0:0:0:0:
94,116,286150,5,2,1:2:0:0:
371,359,287362,5,10,0:0:0:0:
161,234,287514,1,2,1:2:0:0:
161,234,287665,1,2,1:2:0:0:
200,369,287817,5,8,0:0:0:0:
352,166,287968,1,2,1:2:0:0:
293,292,288120,5,0,1:0:0:0:
293,292,288196,1,0,1:0:0:0:
293,292,288271,1,14,0:0:0:0:
95,160,288423,1,0,1:0:0:0:
473,76,288574,5,4,1:2:0:0:
428,63,288877,1,0,1:2:0:0:
401,100,289180,1,0,1:2:0:0:
419,142,289483,1,0,1:2:0:0:
463,152,289786,5,0,1:2:0:0:
232,46,290089,1,0,1:2:0:0:
325,303,290393,5,0,1:0:0:0:
450,228,290544,1,8,0:0:0:0:
509,331,290696,5,8,0:0:0:0:
282,206,290847,1,8,0:0:0:0:
164,355,290999,5,8,0:0:0:0:
195,336,291100,1,8,0:0:0:0:
227,318,291201,1,8,0:0:0:0:
325,303,291302,5,8,0:3:0:0:
312,280,291403,1,8,0:3:0:0:
300,258,291504,1,8,0:3:0:0:
272,159,291605,6,0,L|326:133,2,51.0000009727478,8|4|4,0:3|0:3|0:3,0:0:0:0:
160,242,291908,2,0,L|110:228,2,51.0000009727478,4|4|4,0:3|0:3|0:3,0:0:0:0:
390,194,292211,6,0,P|491:325|328:297,1,425.2500016222,4|0,1:2|0:0,0:0:0:0:
138,26,292817,6,0,P|37:157|200:129,1,425.2500016222,4|0,1:2|0:0,0:0:0:0:
255,12,293423,6,0,B|304:180|304:180|392:225|425:390|246:487|94:365|124:229|208:180|208:180|254:24,1,885.600013513184,6|8,1:2|0:0,0:0:0:0:
440,40,297362,6,0,L|514:66,2,60,0|0|0,3:2|3:2|3:2,0:2:0:0:
431,31,297665,1,8,3:2:0:0:
294,118,297968,6,0,L|368:91,2,60,0|0|0,3:2|3:2|3:2,0:2:0:0:
285,127,298271,1,8,3:2:0:0:
164,26,298574,6,0,L|238:52,2,60,0|0|0,3:2|3:2|3:2,0:2:0:0:
155,17,298877,1,8,3:2:0:0:
21,108,299180,6,0,L|95:81,2,60,0|0|0,3:2|3:2|3:2,0:2:0:0:
12,117,299483,1,8,3:2:0:0:
128,242,299786,5,0,3:2:0:0:
124,236,299887,1,0,3:2:0:0:
120,231,299988,1,0,3:2:0:0:
117,225,300089,6,0,L|81:176,2,60,8|0|0,0:0|3:0|3:0,0:0:0:0:
203,285,300393,2,0,L|283:310,2,60,8|0|0,0:0|3:0|3:0,0:0:0:0:
119,328,300696,1,8,0:0:0:0:
119,328,300999,6,0,P|69:309|49:307,2,60,0|0|0,3:0|3:0|3:0,0:0:0:0:
165,384,301302,1,8,0:0:0:0:
253,248,301605,6,0,P|203:267|183:269,2,60,0|0|0,3:0|3:0|3:0,0:0:0:0:
299,192,301908,1,8,0:0:0:0:
359,359,302211,5,0,3:0:0:0:
341,342,302312,1,0,3:0:0:0:
319,331,302413,1,0,3:0:0:0:
296,339,302514,6,0,L|234:379,2,60,8|0|0,0:0|3:0|3:0,0:0:0:0:
354,254,302817,2,0,L|369:176,2,60,8|0|0,0:0|3:0|3:0,0:0:0:0:
406,342,303120,1,8,0:0:0:0:
406,342,303423,6,0,P|438:355|463:378,2,60,0|0|0,3:0|3:0|3:0,0:0:0:0:
330,376,303726,1,8,0:0:0:0:
108,224,304029,6,0,P|76:236|54:254,2,60,0|0|0,3:0|3:0|3:0,0:0:0:0:
184,257,304332,1,8,0:0:0:0:
256,8,304635,5,0,3:0:0:0:
256,48,304736,1,0,3:0:0:0:
256,96,304837,1,0,3:0:0:0:
208,160,304938,6,0,L|160:208,2,60,8|0|0,0:0|3:0|3:0,0:0:0:0:
304,160,305241,2,0,L|346:202,2,60,8|0|0,0:0|3:0|3:0,0:0:0:0:
256,96,305544,5,4,1:2:0:0:
