osu file format v14

[General]
AudioFilename: audio.mp3
AudioLeadIn: 0
PreviewTime: 53231
Countdown: 0
SampleSet: None
StackLeniency: 0.7
Mode: 3
LetterboxInBreaks: 0
SpecialStyle: 0
WidescreenStoryboard: 0

[Editor]
DistanceSpacing: 0.8
BeatDivisor: 4
GridSize: 32
TimelineZoom: 2.100002

[Metadata]
Title:Arakajime Ushinawareta Bokura no Ballad
TitleUnicode:予め失われた僕らのバラッド
Artist:EARPHONES
ArtistUnicode:イヤホンズ
Creator:Feerum
Version:Normal
Source:神獄塔 メアリスケルター
Tags:compile heart idea factory International ps vita playstation Mary Skelter Nightmares rpg
BeatmapID:1242638
BeatmapSetID:586805

[Difficulty]
HPDrainRate:7
CircleSize:4
OverallDifficulty:7
ApproachRate:10
SliderMultiplier:1.4
SliderTickRate:1

[Events]
//Background and Video events
Video,45,"Video2.avi"
0,0,"Final BG.jpg",0,0
//Break Periods
//Storyboard Layer 0 (Background)
//Storyboard Layer 1 (Fail)
//Storyboard Layer 2 (Pass)
//Storyboard Layer 3 (Foreground)
//Storyboard Sound Samples

[TimingPoints]
1716,303.030303030303,4,3,1,50,1,0
53837,-100,4,3,1,50,0,1
62928,-100,4,3,1,50,0,0
63534,-100,4,3,1,50,0,1
73231,-100,4,3,1,50,0,0

[HitObjects]
64,192,1716,128,2,2473:0:0:0:0:
448,192,1716,1,4,1:0:0:0:
320,192,2776,1,0,0:0:0:0:
192,192,2928,1,4,0:0:0:0:
448,192,3079,1,0,0:0:0:0:
64,192,3231,1,0,0:0:0:0:
320,192,3382,1,4,0:0:0:0:
192,192,3534,1,0,0:0:0:0:
448,192,3685,1,0,0:0:0:0:
64,192,3837,1,4,0:0:0:0:
320,192,3988,1,0,0:0:0:0:
192,192,4140,128,4,4897:1:0:0:0:
448,192,4140,1,2,0:0:0:0:
448,192,5049,1,8,0:0:0:0:
320,192,5200,1,8,0:0:0:0:
64,192,5352,1,8,0:0:0:0:
192,192,5503,1,2,0:0:0:0:
320,192,5655,1,2,0:0:0:0:
448,192,5806,1,8,0:0:0:0:
192,192,5958,1,2,0:0:0:0:
320,192,6109,1,2,0:0:0:0:
192,192,6261,128,8,6564:0:0:0:0:
448,192,6564,128,2,7019:0:0:0:0:
64,192,6564,1,4,1:0:0:0:
192,192,7322,1,2,0:0:0:0:
320,192,7473,1,8,0:0:0:0:
64,192,7625,1,2,0:0:0:0:
448,192,7776,1,2,0:0:0:0:
192,192,7776,1,4,1:0:0:0:
320,192,8079,1,2,0:0:0:0:
64,192,8382,1,2,0:0:0:0:
192,192,8685,1,2,0:0:0:0:
448,192,8988,1,2,0:0:0:0:
64,192,8988,1,4,1:0:0:0:
320,192,9140,1,8,0:0:0:0:
192,192,9291,1,8,0:0:0:0:
448,192,9443,1,8,0:0:0:0:
64,192,9594,1,8,0:0:0:0:
320,192,9746,128,8,10200:0:0:0:0:
192,192,10200,1,8,0:0:0:0:
448,192,10200,1,0,0:0:0:0:
320,192,10806,1,0,0:0:0:0:
64,192,10806,1,8,0:0:0:0:
192,192,11109,1,0,0:0:0:0:
320,192,11109,1,8,0:0:0:0:
64,192,11412,1,4,1:0:0:0:
448,192,11412,1,2,0:0:0:0:
320,192,11715,1,8,0:0:0:0:
192,192,12019,1,2,0:0:0:0:
448,192,12170,1,2,0:0:0:0:
64,192,12322,1,8,0:0:0:0:
320,192,12473,1,0,0:0:0:0:
192,192,12625,128,2,12928:0:0:0:0:
448,192,12928,128,8,13231:0:0:0:0:
64,192,12928,1,0,0:0:0:0:
64,192,13231,128,2,13534:0:0:0:0:
320,192,13534,128,8,13837:0:0:0:0:
448,192,13534,1,0,0:0:0:0:
192,192,13837,128,2,14443:0:0:0:0:
448,192,14140,1,8,0:0:0:0:
64,192,14443,1,2,0:0:0:0:
320,192,14594,1,2,0:0:0:0:
192,192,14746,1,8,0:0:0:0:
448,192,14897,1,0,0:0:0:0:
64,192,15049,128,2,15352:0:0:0:0:
320,192,15352,128,8,15655:0:0:0:0:
192,192,15352,1,0,0:0:0:0:
192,192,15655,128,0,15958:0:0:0:0:
448,192,15958,128,8,16261:0:0:0:0:
64,192,15958,1,4,1:0:0:0:
192,192,16261,1,4,1:0:0:0:
320,192,16261,128,2,16867:0:0:0:0:
64,192,16564,1,8,0:0:0:0:
448,192,16867,1,2,0:0:0:0:
192,192,17019,1,2,0:0:0:0:
320,192,17170,1,8,0:0:0:0:
448,192,17322,1,0,0:0:0:0:
64,192,17473,128,2,17776:0:0:0:0:
192,192,17776,128,0,18079:0:0:0:0:
320,192,17776,1,8,0:0:0:0:
448,192,18079,128,2,18382:0:0:0:0:
64,192,18382,1,8,0:0:0:0:
320,192,18534,1,2,0:0:0:0:
192,192,18685,1,8,0:0:0:0:
448,192,18685,1,4,1:0:0:0:
320,192,19140,1,4,1:0:0:0:
64,192,19140,1,8,0:0:0:0:
192,192,19594,1,8,0:0:0:0:
448,192,19594,1,4,1:0:0:0:
64,192,19897,1,0,0:0:0:0:
320,192,19897,1,8,0:0:0:0:
192,192,20049,1,2,0:0:0:0:
448,192,20200,1,0,0:0:0:0:
64,192,20200,1,8,0:0:0:0:
320,192,20352,1,8,0:0:0:0:
192,192,20655,1,2,0:0:0:0:
448,192,20806,128,8,21109:0:0:0:0:
64,192,21109,1,4,1:0:0:0:
192,192,21109,1,2,0:0:0:0:
320,192,21412,1,8,0:0:0:0:
448,192,21412,1,0,0:0:0:0:
64,192,21716,1,2,0:0:0:0:
448,192,21867,1,2,0:0:0:0:
192,192,22019,1,8,0:0:0:0:
320,192,22019,1,0,0:0:0:0:
64,192,22322,1,2,0:0:0:0:
192,192,22625,1,0,0:0:0:0:
448,192,22625,1,8,0:0:0:0:
320,192,22776,1,2,0:0:0:0:
192,192,23079,1,2,0:0:0:0:
320,192,23231,1,0,0:0:0:0:
64,192,23231,1,8,0:0:0:0:
448,192,23534,1,2,0:0:0:0:
192,192,23837,1,8,0:0:0:0:
320,192,23837,1,0,0:0:0:0:
64,192,24140,1,2,0:0:0:0:
448,192,24291,1,2,0:0:0:0:
192,192,24443,1,8,0:0:0:0:
320,192,24443,1,0,0:0:0:0:
448,192,24746,1,2,0:0:0:0:
192,192,24897,1,2,0:0:0:0:
320,192,25049,1,0,0:0:0:0:
64,192,25049,1,8,0:0:0:0:
448,192,25352,1,2,0:0:0:0:
64,192,25503,1,2,0:0:0:0:
192,192,25655,1,0,0:0:0:0:
448,192,25655,1,8,0:0:0:0:
320,192,25806,1,8,0:0:0:0:
192,192,25958,1,2,0:0:0:0:
64,192,26261,1,8,0:0:0:0:
448,192,26261,1,0,0:0:0:0:
64,192,26564,1,2,0:0:0:0:
192,192,26716,1,2,0:0:0:0:
320,192,26867,1,0,0:0:0:0:
448,192,26867,1,8,0:0:0:0:
448,192,27170,1,2,0:0:0:0:
64,192,27473,1,8,0:0:0:0:
320,192,27473,1,0,0:0:0:0:
192,192,27776,1,2,0:0:0:0:
448,192,27928,1,2,0:0:0:0:
192,192,28079,1,8,0:0:0:0:
64,192,28079,1,0,0:0:0:0:
320,192,28231,1,8,0:0:0:0:
64,192,28382,1,2,0:0:0:0:
192,192,28534,1,0,0:0:0:0:
448,192,28685,1,8,0:0:0:0:
320,192,28837,1,0,0:0:0:0:
64,192,28988,128,2,29291:0:0:0:0:
320,192,29291,128,0,29594:0:0:0:0:
448,192,29291,1,8,0:0:0:0:
192,192,29594,1,2,0:0:0:0:
64,192,29594,1,4,1:0:0:0:
192,192,29897,1,4,1:0:0:0:
320,192,29897,1,8,0:0:0:0:
320,192,30200,1,4,1:0:0:0:
448,192,30200,1,2,0:0:0:0:
192,192,30503,1,8,0:0:0:0:
64,192,30503,1,4,1:0:0:0:
448,192,30806,1,4,1:0:0:0:
64,192,30806,1,2,0:0:0:0:
320,192,31109,1,8,0:0:0:0:
448,192,31109,1,0,0:0:0:0:
192,192,31412,1,2,0:0:0:0:
448,192,31564,1,2,0:0:0:0:
320,192,31716,1,0,0:0:0:0:
64,192,31716,1,8,0:0:0:0:
192,192,32019,1,2,0:0:0:0:
320,192,32322,1,0,0:0:0:0:
448,192,32322,1,8,0:0:0:0:
320,192,32625,1,2,0:0:0:0:
64,192,32776,1,2,0:0:0:0:
192,192,32928,1,0,0:0:0:0:
448,192,32928,1,8,0:0:0:0:
320,192,33231,1,2,0:0:0:0:
64,192,33534,1,0,0:0:0:0:
192,192,33534,1,8,0:0:0:0:
448,192,33685,1,2,0:0:0:0:
64,192,33988,1,2,0:0:0:0:
320,192,34140,1,8,0:0:0:0:
448,192,34140,1,0,0:0:0:0:
192,192,34443,1,2,0:0:0:0:
320,192,34746,1,8,0:0:0:0:
64,192,34746,1,0,0:0:0:0:
448,192,35049,1,2,0:0:0:0:
64,192,35200,1,2,0:0:0:0:
192,192,35352,1,0,0:0:0:0:
320,192,35352,1,8,0:0:0:0:
448,192,35655,1,2,0:0:0:0:
64,192,35958,1,0,0:0:0:0:
448,192,35958,1,8,0:0:0:0:
192,192,36109,1,2,0:0:0:0:
320,192,36412,1,2,0:0:0:0:
448,192,36564,1,0,0:0:0:0:
64,192,36564,1,8,0:0:0:0:
192,192,36867,1,2,0:0:0:0:
320,192,37170,1,8,0:0:0:0:
64,192,37170,1,0,0:0:0:0:
448,192,37322,1,2,0:0:0:0:
64,192,37625,1,2,0:0:0:0:
192,192,37776,1,8,0:0:0:0:
448,192,37776,1,0,0:0:0:0:
64,192,38079,1,2,0:0:0:0:
320,192,38231,1,2,0:0:0:0:
192,192,38382,1,8,0:0:0:0:
448,192,38382,1,0,0:0:0:0:
64,192,38534,1,0,0:0:0:0:
320,192,38685,128,2,38988:0:0:0:0:
192,192,38988,128,8,39291:0:0:0:0:
448,192,38988,1,4,1:0:0:0:
320,192,39291,1,2,0:0:0:0:
64,192,39291,1,0,0:0:0:0:
448,192,39443,1,8,0:0:0:0:
64,192,39594,1,8,0:0:0:0:
320,192,39746,1,2,0:0:0:0:
192,192,39897,1,8,0:0:0:0:
448,192,40049,1,8,0:0:0:0:
64,192,40200,128,2,40503:0:0:0:0:
320,192,40503,1,2,0:0:0:0:
448,192,40503,1,4,1:0:0:0:
192,192,40655,1,2,0:0:0:0:
64,192,40958,1,2,0:0:0:0:
192,192,41109,1,8,0:0:0:0:
320,192,41109,1,0,0:0:0:0:
448,192,41412,1,2,0:0:0:0:
64,192,41564,1,2,0:0:0:0:
320,192,41867,1,2,0:0:0:0:
192,192,42019,1,0,0:0:0:0:
448,192,42170,1,2,0:0:0:0:
320,192,42322,1,8,0:0:0:0:
64,192,42322,1,0,0:0:0:0:
192,192,42473,1,2,0:0:0:0:
448,192,42625,1,0,0:0:0:0:
320,192,42625,1,8,0:0:0:0:
64,192,42776,1,8,0:0:0:0:
192,192,42928,1,4,1:0:0:0:
320,192,42928,1,2,0:0:0:0:
448,192,43079,1,2,0:0:0:0:
64,192,43231,1,0,0:0:0:0:
320,192,43382,1,2,0:0:0:0:
64,192,43534,1,8,0:0:0:0:
192,192,43534,1,0,0:0:0:0:
448,192,43837,1,2,0:0:0:0:
192,192,43988,1,8,0:0:0:0:
320,192,44140,128,2,44443:0:0:0:0:
64,192,44443,128,2,44594:0:0:0:0:
192,192,44594,128,2,44746:0:0:0:0:
448,192,44746,128,8,44897:0:0:0:0:
320,192,44897,128,2,45049:0:0:0:0:
192,192,45049,128,8,45200:0:0:0:0:
64,192,45200,1,0,0:0:0:0:
448,192,45352,1,2,0:0:0:0:
320,192,45352,1,4,1:0:0:0:
192,192,45503,1,2,0:0:0:0:
64,192,45806,1,2,0:0:0:0:
192,192,45958,1,0,0:0:0:0:
320,192,45958,1,8,0:0:0:0:
448,192,46261,1,2,0:0:0:0:
64,192,46412,1,2,0:0:0:0:
192,192,46716,1,2,0:0:0:0:
320,192,46867,1,8,0:0:0:0:
448,192,46867,1,0,0:0:0:0:
64,192,47019,1,2,0:0:0:0:
192,192,47170,1,0,0:0:0:0:
320,192,47170,1,8,0:0:0:0:
448,192,47322,1,2,0:0:0:0:
64,192,47473,1,8,0:0:0:0:
320,192,47776,1,2,0:0:0:0:
448,192,47776,1,4,1:0:0:0:
320,192,48079,1,0,0:0:0:0:
448,192,48079,1,8,0:0:0:0:
192,192,48382,1,8,0:0:0:0:
64,192,48382,1,0,0:0:0:0:
192,192,48685,1,0,0:0:0:0:
64,192,48685,1,8,0:0:0:0:
320,192,48988,1,2,0:0:0:0:
448,192,49140,1,8,0:0:0:0:
192,192,49291,1,8,0:0:0:0:
320,192,49443,1,8,0:0:0:0:
192,192,49594,1,2,0:0:0:0:
64,192,49746,1,8,0:0:0:0:
320,192,49897,1,8,0:0:0:0:
192,192,50049,1,8,0:0:0:0:
64,192,50200,128,4,50503:1:0:0:0:
448,192,50200,1,2,0:0:0:0:
192,192,50503,128,4,50806:1:0:0:0:
320,192,50503,1,2,0:0:0:0:
320,192,50806,128,4,51109:1:0:0:0:
64,192,50806,1,8,0:0:0:0:
448,192,51109,128,4,51412:1:0:0:0:
192,192,51109,1,8,0:0:0:0:
64,192,51412,128,4,52625:1:0:0:0:
320,192,51412,1,2,0:0:0:0:
448,192,52625,1,2,0:0:0:0:
64,192,52928,1,2,0:0:0:0:
320,192,53231,1,10,0:0:0:0:
192,192,53382,1,8,0:0:0:0:
448,192,53534,1,10,0:0:0:0:
320,192,53685,1,8,0:0:0:0:
64,192,53837,1,2,0:0:0:0:
192,192,53837,1,4,1:0:0:0:
448,192,53988,1,2,0:0:0:0:
64,192,54140,1,8,0:0:0:0:
320,192,54140,1,0,0:0:0:0:
192,192,54291,1,2,0:0:0:0:
64,192,54594,1,2,0:0:0:0:
448,192,54746,1,0,0:0:0:0:
320,192,54746,1,8,0:0:0:0:
64,192,55049,1,2,0:0:0:0:
192,192,55352,1,0,0:0:0:0:
320,192,55352,1,8,0:0:0:0:
448,192,55655,1,2,0:0:0:0:
64,192,55806,1,2,0:0:0:0:
320,192,55958,1,8,0:0:0:0:
192,192,55958,1,0,0:0:0:0:
448,192,56261,128,2,56564:0:0:0:0:
64,192,56564,1,8,0:0:0:0:
192,192,56564,1,0,0:0:0:0:
320,192,56716,1,2,0:0:0:0:
64,192,56867,1,2,0:0:0:0:
448,192,57019,1,2,0:0:0:0:
320,192,57170,1,8,0:0:0:0:
192,192,57170,1,0,0:0:0:0:
64,192,57473,128,2,57776:0:0:0:0:
448,192,57776,1,0,0:0:0:0:
320,192,57776,1,8,0:0:0:0:
192,192,57928,1,0,0:0:0:0:
448,192,58079,1,2,0:0:0:0:
64,192,58231,1,2,0:0:0:0:
320,192,58382,1,8,0:0:0:0:
192,192,58382,1,0,0:0:0:0:
448,192,58534,1,8,0:0:0:0:
64,192,58685,128,4,58837:1:0:0:0:
192,192,58685,1,2,0:0:0:0:
320,192,58837,128,2,58988:0:0:0:0:
192,192,58988,128,8,59140:0:0:0:0:
448,192,59140,128,2,59443:0:0:0:0:
64,192,59443,1,2,0:0:0:0:
192,192,59594,1,8,0:0:0:0:
320,192,59594,1,0,0:0:0:0:
448,192,59897,128,2,60049:0:0:0:0:
192,192,60049,128,2,60200:0:0:0:0:
320,192,60200,128,8,60352:0:0:0:0:
64,192,60352,128,2,60655:0:0:0:0:
448,192,60655,1,2,0:0:0:0:
192,192,60806,1,0,0:0:0:0:
320,192,60806,1,8,0:0:0:0:
64,192,60958,1,8,0:0:0:0:
448,192,61109,128,2,61261:0:0:0:0:
320,192,61261,128,0,61412:0:0:0:0:
192,192,61412,128,8,61564:0:0:0:0:
448,192,61564,128,2,61867:0:0:0:0:
64,192,61867,1,2,0:0:0:0:
192,192,62019,1,8,0:0:0:0:
320,192,62019,128,0,62322:0:0:0:0:
64,192,62322,128,0,62625:0:0:0:0:
448,192,62322,1,2,0:0:0:0:
192,192,62625,1,4,1:0:0:0:
448,192,62625,1,8,0:0:0:0:
320,192,62776,1,2,0:0:0:0:
64,192,62928,1,8,0:0:0:0:
448,192,63079,1,8,0:0:0:0:
192,192,63231,1,10,0:0:0:0:
320,192,63382,1,8,0:0:0:0:
64,192,63534,1,4,1:0:0:0:
448,192,63534,1,2,0:0:0:0:
192,192,63837,1,8,0:0:0:0:
448,192,63837,1,0,0:0:0:0:
320,192,63988,1,2,0:0:0:0:
64,192,64291,1,2,0:0:0:0:
192,192,64443,1,8,0:0:0:0:
448,192,64443,1,0,0:0:0:0:
64,192,64746,1,2,0:0:0:0:
320,192,64897,1,2,0:0:0:0:
192,192,65049,1,8,0:0:0:0:
448,192,65049,1,0,0:0:0:0:
320,192,65352,1,2,0:0:0:0:
64,192,65503,1,2,0:0:0:0:
448,192,65655,1,0,0:0:0:0:
192,192,65655,1,8,0:0:0:0:
64,192,65958,128,2,66261:0:0:0:0:
192,192,66261,1,0,0:0:0:0:
448,192,66261,1,8,0:0:0:0:
320,192,66412,1,2,0:0:0:0:
448,192,66564,128,2,66867:0:0:0:0:
192,192,66867,1,8,0:0:0:0:
320,192,66867,1,0,0:0:0:0:
64,192,67019,1,0,0:0:0:0:
448,192,67170,1,2,0:0:0:0:
320,192,67322,1,2,0:0:0:0:
192,192,67473,1,8,0:0:0:0:
64,192,67473,1,0,0:0:0:0:
448,192,67625,128,2,68079:0:0:0:0:
192,192,68079,1,8,0:0:0:0:
320,192,68231,1,0,0:0:0:0:
448,192,68382,1,2,0:0:0:0:
64,192,68382,1,4,1:0:0:0:
192,192,68534,1,2,0:0:0:0:
320,192,68685,1,8,0:0:0:0:
64,192,68837,1,2,0:0:0:0:
448,192,69140,1,2,0:0:0:0:
320,192,69291,1,8,0:0:0:0:
64,192,69443,1,8,0:0:0:0:
448,192,69594,1,0,0:0:0:0:
192,192,69594,1,2,0:0:0:0:
64,192,69746,1,2,0:0:0:0:
448,192,69897,1,8,0:0:0:0:
192,192,70049,1,2,0:0:0:0:
320,192,70352,1,2,0:0:0:0:
64,192,70503,1,8,0:0:0:0:
448,192,70503,1,0,0:0:0:0:
320,192,70806,128,2,71109:0:0:0:0:
192,192,71109,1,0,0:0:0:0:
64,192,71109,1,8,0:0:0:0:
448,192,71261,128,2,71564:0:0:0:0:
64,192,71564,1,2,0:0:0:0:
192,192,71715,1,8,0:0:0:0:
320,192,71715,1,4,1:0:0:0:
448,192,71867,1,8,0:0:0:0:
64,192,72019,128,8,72322:0:0:0:0:
320,192,72322,1,8,0:0:0:0:
448,192,72322,1,0,0:0:0:0:
192,192,72473,1,2,0:0:0:0:
448,192,72625,128,0,72928:0:0:0:0:
64,192,72625,1,2,0:0:0:0:
64,192,72928,128,0,73231:0:0:0:0:
320,192,72928,1,2,0:0:0:0:
192,192,73231,1,4,1:0:0:0:
448,192,73231,1,2,0:0:0:0:
320,192,73382,1,2,0:0:0:0:
192,192,73685,1,2,0:0:0:0:
320,192,73837,1,0,0:0:0:0:
64,192,73837,1,8,0:0:0:0:
192,192,74140,1,2,0:0:0:0:
448,192,74291,1,8,0:0:0:0:
320,192,74443,1,2,0:0:0:0:
64,192,74443,1,0,0:0:0:0:
192,192,74594,1,8,0:0:0:0:
448,192,74746,1,2,0:0:0:0:
320,192,74897,1,2,0:0:0:0:
64,192,75049,1,8,0:0:0:0:
192,192,75049,1,0,0:0:0:0:
448,192,75352,1,8,0:0:0:0:
64,192,75503,1,2,0:0:0:0:
320,192,75655,1,2,0:0:0:0:
192,192,75655,1,4,1:0:0:0:
448,192,75958,1,0,0:0:0:0:
192,192,76261,1,2,0:0:0:0:
64,192,76261,1,4,1:0:0:0:
320,192,76564,1,0,0:0:0:0:
64,192,76867,1,4,1:0:0:0:
448,192,76867,1,8,0:0:0:0:
192,192,77019,1,2,0:0:0:0:
320,192,77170,1,0,0:0:0:0:
64,192,77170,1,8,0:0:0:0:
448,192,77322,1,2,0:0:0:0:
320,192,77473,1,0,0:0:0:0:
192,192,77473,128,2,77776:0:0:0:0:
448,192,77776,1,8,0:0:0:0:
64,192,77928,1,8,0:0:0:0:
320,192,78079,1,8,0:0:0:0:
192,192,78079,1,0,0:0:0:0:
448,192,78382,1,0,0:0:0:0:
64,192,78685,1,0,0:0:0:0:
320,192,78988,1,0,0:0:0:0:
192,192,79291,1,8,0:0:0:0:
64,192,79291,1,0,0:0:0:0:
448,192,79443,1,2,0:0:0:0:
320,192,79594,1,2,0:0:0:0:
192,192,79746,1,0,0:0:0:0:
64,192,79746,1,8,0:0:0:0:
448,192,79897,1,2,0:0:0:0:
320,192,80049,1,2,0:0:0:0:
192,192,80200,1,8,0:0:0:0:
64,192,80200,1,0,0:0:0:0:
448,192,80352,1,2,0:0:0:0:
320,192,80503,1,10,0:0:0:0:
192,192,80503,1,4,1:0:0:0:
192,192,80806,1,10,0:0:0:0:
320,192,81109,1,10,0:0:0:0:
320,192,81412,1,10,0:0:0:0:
64,192,81715,1,8,0:0:0:0:
448,192,81715,1,2,0:0:0:0:
64,192,82019,1,2,0:0:0:0:
448,192,82019,1,8,0:0:0:0:
320,192,82322,1,2,0:0:0:0:
192,192,82322,1,8,0:0:0:0:
320,192,82625,1,8,0:0:0:0:
192,192,82625,1,2,0:0:0:0:
64,192,82928,128,8,83231:0:0:0:0:
448,192,82928,1,2,0:0:0:0:
320,192,83231,128,8,83534:0:0:0:0:
192,192,83231,1,2,0:0:0:0:
448,192,83534,128,8,83837:0:0:0:0:
64,192,83534,1,2,0:0:0:0:
192,192,83837,128,8,84140:0:0:0:0:
320,192,83837,1,2,0:0:0:0:
64,192,84140,128,2,84746:0:0:0:0:
448,192,84140,1,4,1:0:0:0:
320,192,84746,128,2,85352:0:0:0:0:
192,192,84746,1,4,1:0:0:0:
64,192,85352,128,2,89746:0:0:0:0:
448,192,85352,1,4,1:0:0:0:
