osu file format v14

[General]
AudioFilename: audio.mp3
AudioLeadIn: 0
PreviewTime: 53231
Countdown: 0
SampleSet: None
StackLeniency: 0.7
Mode: 3
LetterboxInBreaks: 0
SpecialStyle: 0
WidescreenStoryboard: 0

[Editor]
DistanceSpacing: 0.8
BeatDivisor: 4
GridSize: 32
TimelineZoom: 2.100002

[Metadata]
Title:Arakajime Ushinawareta Bokura no Ballad
TitleUnicode:予め失われた僕らのバラッド
Artist:EARPHONES
ArtistUnicode:イヤホンズ
Creator:Feerum
Version:Easy
Source:神獄塔 メアリスケルター
Tags:compile heart idea factory International ps vita playstation Mary Skelter Nightmares rpg
BeatmapID:1242635
BeatmapSetID:586805

[Difficulty]
HPDrainRate:6.5
CircleSize:4
OverallDifficulty:6
ApproachRate:10
SliderMultiplier:1.4
SliderTickRate:1

[Events]
//Background and Video events
Video,45,"Video2.avi"
0,0,"Final BG.jpg",0,0
//Break Periods
//Storyboard Layer 0 (Background)
//Storyboard Layer 1 (Fail)
//Storyboard Layer 2 (Pass)
//Storyboard Layer 3 (Foreground)
//Storyboard Sound Samples

[TimingPoints]
1716,303.030303030303,4,3,1,50,1,0
53837,-100,4,3,1,50,0,1
62928,-100,4,3,1,50,0,0
63534,-100,4,3,1,50,0,1
73231,-100,4,3,1,50,0,0

[HitObjects]
448,192,1716,128,4,2473:1:0:0:0:
64,192,1716,1,0,0:0:0:0:
192,192,2928,1,4,3:0:0:0:
448,192,3382,1,4,3:0:0:0:
320,192,3837,1,4,3:0:0:0:
64,192,4140,128,0,4897:0:0:0:0:
448,192,4140,1,4,1:0:0:0:
448,192,5049,128,8,5352:0:0:0:0:
192,192,5352,128,8,5655:0:0:0:0:
320,192,5655,128,2,5958:0:0:0:0:
64,192,5958,128,2,6261:0:0:0:0:
192,192,6261,128,8,6564:0:0:0:0:
448,192,6564,128,4,7019:1:0:0:0:
448,192,7322,1,2,3:0:0:0:
64,192,7473,1,8,3:0:0:0:
320,192,7625,1,2,3:0:0:0:
192,192,7776,128,4,8382:1:0:0:0:
320,192,8382,128,2,8988:0:0:0:0:
64,192,8988,1,4,1:0:0:0:
192,192,9140,1,8,3:0:0:0:
448,192,9291,1,8,3:0:0:0:
320,192,9443,1,8,3:0:0:0:
192,192,9594,1,8,3:0:0:0:
64,192,9746,1,8,3:0:0:0:
448,192,9897,128,8,10200:3:0:0:0:
64,192,10200,1,8,3:0:0:0:
192,192,10806,1,8,3:0:0:0:
320,192,11109,1,8,3:0:0:0:
64,192,11412,1,0,0:0:0:0:
448,192,11412,128,4,12019:1:0:0:0:
192,192,11715,1,8,3:0:0:0:
64,192,12019,1,2,3:0:0:0:
448,192,12322,1,8,3:0:0:0:
320,192,12473,1,0,0:0:0:0:
192,192,12625,128,2,12928:3:0:0:0:
448,192,12928,128,8,13231:3:0:0:0:
64,192,13231,128,2,13534:3:0:0:0:
320,192,13534,128,8,13837:3:0:0:0:
192,192,13837,128,2,14443:3:0:0:0:
448,192,14140,1,8,3:0:0:0:
320,192,14443,1,2,3:0:0:0:
64,192,14746,1,8,3:0:0:0:
448,192,14897,1,0,0:0:0:0:
320,192,15049,128,2,15352:3:0:0:0:
192,192,15352,128,8,15655:3:0:0:0:
448,192,15655,128,2,15958:3:0:0:0:
64,192,15958,128,8,16261:3:0:0:0:
320,192,16261,128,4,16867:1:0:0:0:
192,192,16564,1,8,3:0:0:0:
64,192,16867,1,2,3:0:0:0:
448,192,17170,1,8,3:0:0:0:
192,192,17322,1,0,0:0:0:0:
320,192,17473,128,2,17776:3:0:0:0:
64,192,17776,128,8,18079:3:0:0:0:
448,192,18079,128,2,18382:3:0:0:0:
192,192,18382,128,8,18685:3:0:0:0:
320,192,18685,1,8,3:0:0:0:
64,192,19140,1,8,3:0:0:0:
192,192,19594,1,8,3:0:0:0:
448,192,19897,1,8,3:0:0:0:
64,192,20049,1,2,3:0:0:0:
320,192,20200,1,8,3:0:0:0:
192,192,20352,1,8,3:0:0:0:
64,192,20655,1,2,3:0:0:0:
448,192,20806,128,8,21109:3:0:0:0:
192,192,21109,1,4,1:0:0:0:
320,192,21412,1,8,0:0:0:0:
64,192,21716,1,2,0:0:0:0:
448,192,21867,1,2,0:0:0:0:
192,192,22019,1,8,0:0:0:0:
320,192,22322,1,2,0:0:0:0:
64,192,22625,1,8,0:0:0:0:
448,192,22776,1,2,0:0:0:0:
320,192,23079,1,2,0:0:0:0:
192,192,23231,1,8,0:0:0:0:
64,192,23534,1,2,0:0:0:0:
448,192,23837,1,8,0:0:0:0:
192,192,24140,1,2,0:0:0:0:
448,192,24291,1,2,0:0:0:0:
64,192,24443,1,8,0:0:0:0:
448,192,24746,1,2,0:0:0:0:
192,192,24897,1,2,0:0:0:0:
320,192,25049,1,8,0:0:0:0:
64,192,25352,1,2,0:0:0:0:
448,192,25503,1,2,0:0:0:0:
320,192,25655,1,8,0:0:0:0:
192,192,25806,1,8,0:0:0:0:
448,192,25958,1,2,0:0:0:0:
64,192,26261,1,8,0:0:0:0:
192,192,26564,1,2,0:0:0:0:
320,192,26716,1,2,0:0:0:0:
64,192,26867,1,8,0:0:0:0:
448,192,27170,1,2,0:0:0:0:
192,192,27473,1,8,0:0:0:0:
448,192,27776,1,2,0:0:0:0:
64,192,27928,1,2,0:0:0:0:
320,192,28079,1,8,0:0:0:0:
192,192,28231,1,8,0:0:0:0:
448,192,28382,128,2,28685:0:0:0:0:
192,192,28685,128,8,28988:0:0:0:0:
320,192,28988,128,2,29291:0:0:0:0:
64,192,29291,128,8,29594:0:0:0:0:
192,192,29594,1,2,0:0:0:0:
320,192,29897,1,8,0:0:0:0:
448,192,30200,1,2,0:0:0:0:
64,192,30503,1,8,0:0:0:0:
320,192,30806,1,2,0:0:0:0:
192,192,30806,1,4,1:0:0:0:
448,192,31109,1,8,0:0:0:0:
320,192,31412,1,2,0:0:0:0:
64,192,31564,1,2,0:0:0:0:
448,192,31716,1,8,0:0:0:0:
192,192,32019,1,2,0:0:0:0:
320,192,32322,1,8,0:0:0:0:
448,192,32625,1,2,0:0:0:0:
192,192,32776,1,2,0:0:0:0:
320,192,32928,1,8,0:0:0:0:
64,192,33231,1,2,0:0:0:0:
448,192,33534,1,8,0:0:0:0:
192,192,33685,1,2,0:0:0:0:
64,192,33988,1,2,0:0:0:0:
320,192,34140,1,8,0:0:0:0:
192,192,34443,1,2,0:0:0:0:
448,192,34746,1,8,0:0:0:0:
64,192,35049,1,2,0:0:0:0:
320,192,35200,1,2,0:0:0:0:
192,192,35352,1,8,0:0:0:0:
448,192,35655,1,2,0:0:0:0:
320,192,35958,1,8,0:0:0:0:
192,192,36109,1,2,0:0:0:0:
64,192,36412,1,2,0:0:0:0:
448,192,36564,1,8,0:0:0:0:
192,192,36867,1,2,0:0:0:0:
320,192,37170,1,8,0:0:0:0:
64,192,37322,1,2,0:0:0:0:
192,192,37625,1,2,0:0:0:0:
448,192,37776,1,8,0:0:0:0:
64,192,38079,1,2,0:0:0:0:
192,192,38231,1,2,0:0:0:0:
448,192,38382,1,8,0:0:0:0:
320,192,38534,1,0,0:0:0:0:
64,192,38685,128,2,38988:0:0:0:0:
320,192,38988,128,8,39291:0:0:0:0:
192,192,39291,1,2,0:0:0:0:
448,192,39443,1,8,0:0:0:0:
64,192,39594,1,8,0:0:0:0:
448,192,39746,1,2,0:0:0:0:
192,192,39897,1,8,0:0:0:0:
320,192,40049,1,8,0:0:0:0:
64,192,40200,128,2,40503:0:0:0:0:
448,192,40503,128,4,40806:1:0:0:0:
320,192,40958,1,2,0:0:0:0:
64,192,41109,1,8,0:0:0:0:
192,192,41412,1,2,0:0:0:0:
320,192,41564,128,2,41867:0:0:0:0:
64,192,41867,1,2,0:0:0:0:
448,192,42019,1,0,0:0:0:0:
192,192,42322,1,8,0:0:0:0:
320,192,42625,1,8,0:0:0:0:
64,192,42928,1,2,0:0:0:0:
192,192,43079,1,2,0:0:0:0:
320,192,43382,1,2,0:0:0:0:
64,192,43534,1,8,0:0:0:0:
448,192,43837,1,2,0:0:0:0:
192,192,43988,1,8,0:0:0:0:
320,192,44140,128,2,44443:0:0:0:0:
64,192,44443,1,2,0:0:0:0:
192,192,44594,1,2,0:0:0:0:
448,192,44746,1,8,0:0:0:0:
320,192,44897,1,2,0:0:0:0:
192,192,45049,1,8,0:0:0:0:
64,192,45200,1,0,0:0:0:0:
448,192,45352,128,4,45655:1:0:0:0:
64,192,45806,1,2,0:0:0:0:
448,192,45958,1,8,0:0:0:0:
320,192,46261,1,2,0:0:0:0:
192,192,46412,128,2,46867:0:0:0:0:
448,192,46867,1,8,0:0:0:0:
320,192,47170,1,8,0:0:0:0:
192,192,47473,1,8,0:0:0:0:
448,192,47776,1,4,1:0:0:0:
448,192,48079,1,8,0:0:0:0:
192,192,48382,1,8,0:0:0:0:
192,192,48685,1,8,0:0:0:0:
320,192,48988,1,2,0:0:0:0:
320,192,49291,1,8,0:0:0:0:
64,192,49594,1,2,0:0:0:0:
64,192,49897,1,8,0:0:0:0:
448,192,50200,128,4,50503:1:0:0:0:
192,192,50503,128,4,50806:1:0:0:0:
320,192,50806,128,4,51109:1:0:0:0:
64,192,51109,128,4,51412:1:0:0:0:
448,192,51412,128,4,52625:1:0:0:0:
192,192,52625,128,2,53837:0:0:0:0:
448,192,53837,1,2,0:0:0:0:
64,192,53837,1,4,1:0:0:0:
320,192,54140,1,8,0:0:0:0:
64,192,54291,1,2,0:0:0:0:
192,192,54594,1,2,0:0:0:0:
448,192,54746,1,8,0:0:0:0:
320,192,55049,1,2,0:0:0:0:
64,192,55352,1,8,0:0:0:0:
192,192,55655,1,2,0:0:0:0:
320,192,55958,1,8,0:0:0:0:
64,192,56261,128,2,56716:0:0:0:0:
448,192,56716,1,2,0:0:0:0:
192,192,56867,128,2,57322:0:0:0:0:
320,192,57473,128,2,57928:0:0:0:0:
64,192,57928,1,0,0:0:0:0:
448,192,58079,128,2,58382:0:0:0:0:
192,192,58382,1,8,0:0:0:0:
320,192,58534,1,8,0:0:0:0:
448,192,58685,1,4,1:0:0:0:
192,192,58837,1,2,0:0:0:0:
64,192,58988,1,8,0:0:0:0:
448,192,59140,1,2,0:0:0:0:
320,192,59443,1,2,0:0:0:0:
64,192,59594,1,8,0:0:0:0:
320,192,59897,1,2,0:0:0:0:
448,192,60049,1,2,0:0:0:0:
64,192,60200,1,8,0:0:0:0:
192,192,60352,1,2,0:0:0:0:
320,192,60655,1,2,0:0:0:0:
64,192,60806,1,8,0:0:0:0:
448,192,61109,1,2,0:0:0:0:
320,192,61261,1,0,0:0:0:0:
64,192,61412,1,8,0:0:0:0:
192,192,61564,1,2,0:0:0:0:
320,192,61867,1,2,0:0:0:0:
64,192,62019,128,8,62322:0:0:0:0:
448,192,62322,128,2,62625:0:0:0:0:
192,192,62625,1,8,0:0:0:0:
320,192,62928,128,8,63231:0:0:0:0:
192,192,63231,128,10,63534:0:0:0:0:
64,192,63534,1,4,1:0:0:0:
448,192,63534,1,2,0:0:0:0:
320,192,63837,1,8,0:0:0:0:
192,192,63988,1,2,0:0:0:0:
64,192,64291,1,2,0:0:0:0:
448,192,64443,1,8,0:0:0:0:
320,192,64746,1,2,0:0:0:0:
64,192,65049,1,8,0:0:0:0:
192,192,65352,1,2,0:0:0:0:
320,192,65655,1,8,0:0:0:0:
448,192,65958,128,2,66412:0:0:0:0:
320,192,66412,1,2,0:0:0:0:
192,192,66564,128,2,66867:0:0:0:0:
64,192,66867,1,8,0:0:0:0:
448,192,67019,1,0,0:0:0:0:
192,192,67170,1,2,0:0:0:0:
320,192,67322,128,2,67625:0:0:0:0:
192,192,67625,128,2,68079:0:0:0:0:
448,192,68079,1,8,0:0:0:0:
320,192,68382,1,4,1:0:0:0:
64,192,68685,1,8,0:0:0:0:
448,192,68837,1,2,0:0:0:0:
192,192,69140,1,2,0:0:0:0:
64,192,69291,1,8,0:0:0:0:
448,192,69443,1,8,0:0:0:0:
192,192,69594,1,2,0:0:0:0:
320,192,69746,1,2,0:0:0:0:
192,192,69897,1,8,0:0:0:0:
64,192,70049,1,2,0:0:0:0:
192,192,70352,1,2,0:0:0:0:
448,192,70503,1,8,0:0:0:0:
320,192,70806,128,2,71109:0:0:0:0:
64,192,71109,1,8,0:0:0:0:
192,192,71261,128,2,71564:0:0:0:0:
448,192,71564,1,2,0:0:0:0:
64,192,71715,1,8,0:0:0:0:
320,192,72019,128,8,72322:0:0:0:0:
192,192,72322,1,8,0:0:0:0:
64,192,72473,1,2,0:0:0:0:
448,192,72625,128,2,72928:0:0:0:0:
64,192,72928,128,2,73231:0:0:0:0:
320,192,73231,1,4,1:0:0:0:
448,192,73231,1,2,0:0:0:0:
192,192,73837,1,0,0:0:0:0:
64,192,73837,1,8,0:0:0:0:
448,192,74443,1,0,0:0:0:0:
320,192,74443,1,2,0:0:0:0:
192,192,75049,1,0,0:0:0:0:
64,192,75049,1,8,0:0:0:0:
448,192,75352,128,8,75655:0:0:0:0:
320,192,75655,1,2,0:0:0:0:
64,192,75655,1,4,1:0:0:0:
192,192,76261,1,4,1:0:0:0:
448,192,76261,1,2,0:0:0:0:
320,192,76867,1,8,0:0:0:0:
64,192,76867,1,4,1:0:0:0:
448,192,77170,1,8,0:0:0:0:
192,192,77473,1,0,0:0:0:0:
64,192,77473,128,2,78079:0:0:0:0:
448,192,78079,1,8,0:0:0:0:
192,192,78382,1,0,0:0:0:0:
320,192,78685,1,0,0:0:0:0:
64,192,78988,1,0,0:0:0:0:
448,192,79291,128,0,80503:0:0:0:0:
192,192,79291,1,8,0:0:0:0:
64,192,79746,1,8,0:0:0:0:
192,192,80200,1,8,0:0:0:0:
64,192,80503,1,10,0:0:0:0:
320,192,80503,1,4,1:0:0:0:
64,192,80806,1,10,0:0:0:0:
192,192,81109,1,10,0:0:0:0:
192,192,81412,1,10,0:0:0:0:
320,192,81715,1,10,0:0:0:0:
320,192,82019,1,10,0:0:0:0:
448,192,82322,1,10,0:0:0:0:
448,192,82625,1,10,0:0:0:0:
64,192,82928,128,2,83231:0:0:0:0:
320,192,83231,128,2,83534:0:0:0:0:
192,192,83534,128,2,83837:0:0:0:0:
448,192,83837,128,2,84140:0:0:0:0:
64,192,84140,128,4,84746:1:0:0:0:
320,192,84746,128,4,85352:1:0:0:0:
448,192,85352,128,4,89746:1:0:0:0:
64,192,85352,1,0,0:0:0:0:
