osu file format v14

[General]
AudioFilename: audio.mp3
AudioLeadIn: 0
PreviewTime: 42455
Countdown: 0
SampleSet: Soft
StackLeniency: 0.3
Mode: 0
LetterboxInBreaks: 0
WidescreenStoryboard: 0

[Editor]
Bookmarks: 23094,45420,67745,90071,112396,134722,157048,179373,201699,224024,249141,270071,291001,313327
DistanceSpacing: 1.4
BeatDivisor: 8
GridSize: 32
TimelineZoom: 1

[Metadata]
Title:L0V3 4RR0W 5H007
TitleUnicode:L0V3 4RR0W 5H007
Artist:E0ri4
ArtistUnicode:E0ri4
Creator:Strategas
Version:H4PP1N355
Source:
Tags:electronic instrumental japanese english happy hardcore j-core eoria ゑおりあ エオリア えおりあ love arrow shoot happiness emotional reality Eternal ZER0 zero umi sonoda
BeatmapID:3891073
BeatmapSetID:1889263

[Difficulty]
HPDrainRate:3.7
CircleSize:3.7
OverallDifficulty:9
ApproachRate:9.4
SliderMultiplier:2
SliderTickRate:1

[Events]
//Background and Video events
0,0,"sonoda umi.jpg",0,0
//Break Periods
2,201899,212322
//Storyboard Layer 0 (Background)
//Storyboard Layer 1 (Fail)
//Storyboard Layer 2 (Pass)
//Storyboard Layer 3 (Foreground)
//Storyboard Layer 4 (Overlay)
//Storyboard Sound Samples

[TimingPoints]
769,348.837209302326,4,2,25,70,1,0
769,-133.333333333333,4,2,25,65,0,0
10187,-66.6666666666667,4,2,25,65,0,0
10536,-133.333333333333,4,2,25,65,0,0
10885,-66.6666666666667,4,2,25,65,0,0
11931,-111.111111111111,4,2,25,70,0,0
21350,-55.5555555555556,4,2,25,70,0,0
23094,-100,4,2,25,75,0,0
32513,-50,4,2,25,75,0,0
32862,-100,4,2,25,75,0,0
33210,-50,4,2,25,75,0,0
34257,-100,4,2,25,75,0,0
43675,-50,4,2,25,75,0,0
44024,-303.030303030303,4,2,25,60,0,0
44373,-100,4,2,25,60,0,0
45420,-86.9565217391304,4,2,25,80,0,1
66350,-117.647058823529,4,2,25,70,0,0
67745,-133.333333333333,4,2,25,65,0,0
84489,-142.857142857143,4,2,25,65,0,0
87280,-153.846153846154,4,2,25,65,0,0
90071,-166.666666666667,4,2,25,60,0,0
111001,-185.185185185185,4,2,25,60,0,0
111350,-117.647058823529,4,2,25,60,0,0
111699,-87.719298245614,4,2,25,60,0,0
112048,-40,4,2,25,60,0,0
112396,-66.6666666666667,4,2,25,65,0,0
112571,-133.333333333333,4,2,25,65,0,0
123559,-100,4,2,25,70,0,0
134722,-68.9655172413793,4,2,25,80,0,1
143792,-50,4,2,25,80,0,1
144664,-68.9655172413793,4,2,25,80,0,1
154955,-50,4,2,25,80,0,1
155652,-80,4,2,25,80,0,0
157048,-66.6666666666667,4,2,25,85,0,1
166117,-50,4,2,25,85,0,1
166815,-66.6666666666667,4,2,25,85,0,1
179373,-86.9565217391304,4,2,25,80,0,0
188792,-43.4782608695652,4,2,25,80,0,0
189141,-86.9565217391304,4,2,25,80,0,0
189489,-43.4782608695652,4,2,25,80,0,0
190536,-86.9565217391304,4,2,25,80,0,0
199955,-43.4782608695652,4,2,25,80,0,0
200478,-133.333333333333,4,2,25,70,0,0
201699,-200,4,2,25,60,0,0
222629,-80,4,2,25,65,0,0
224024,-133.333333333333,4,2,25,65,0,0
228210,-66.6666666666667,4,2,25,75,0,0
229606,-133.333333333333,4,2,25,65,0,0
235187,-100,4,2,25,70,0,0
239373,-66.6666666666667,4,2,25,75,0,0
239896,-100,4,2,25,70,0,0
244955,-100,4,2,25,55,0,0
246524,-100,4,2,25,30,0,0
246873,-100,4,2,25,40,0,0
246960,-100,4,2,25,42,0,0
247048,-100,4,2,25,44,0,0
247135,-100,4,2,25,46,0,0
247222,-100,4,2,25,48,0,0
247309,-100,4,2,25,50,0,0
247396,-100,4,2,25,52,0,0
247484,-100,4,2,25,54,0,0
247571,-100,4,2,25,56,0,0
247658,-100,4,2,25,58,0,0
247745,-100,4,2,25,60,0,0
247832,-100,4,2,25,62,0,0
247920,-100,4,2,25,64,0,0
248007,-100,4,2,25,66,0,0
248094,-100,4,2,25,68,0,0
248181,-100,4,2,25,70,0,0
248269,-100,4,2,25,72,0,0
248356,-100,4,2,25,74,0,0
248443,-100,4,2,25,76,0,0
248792,-80,4,2,25,65,0,0
249141,-68.9655172413793,4,2,25,80,0,1
255420,-50,4,2,25,80,0,1
256292,-68.9655172413793,4,2,25,80,0,1
266582,-50,4,2,25,80,0,1
267280,-80,4,2,25,80,0,0
270071,-66.6666666666667,4,2,25,85,0,1
277745,-50,4,2,25,85,0,1
278443,-66.6666666666667,4,2,25,85,0,1
291001,-86.9565217391304,4,2,25,80,0,0
300420,-43.4782608695652,4,2,25,80,0,0
300769,-86.9565217391304,4,2,25,80,0,0
301117,-43.4782608695652,4,2,25,80,0,0
302164,-86.9565217391304,4,2,25,80,0,0
311582,-43.4782608695652,4,2,25,80,0,0
311931,-80,4,2,25,65,0,0
312280,-40,4,2,25,65,0,0
312803,-66.6666666666667,4,2,25,65,0,0

[Colours]
Combo1 : 117,112,165
Combo2 : 174,102,136
Combo3 : 128,127,165
Combo4 : 187,133,165
Combo5 : 211,214,240

[HitObjects]
42,62,769,6,0,B|81:43|81:43|152:52,2,112.500004291535,0|2|2,1:0|0:0|0:0,0:0:0:0:
81,299,1466,1,8,0:0:0:0:
90,214,1641,1,2,0:0:0:0:
98,129,1815,1,2,0:0:0:0:
267,299,1989,1,2,0:0:0:0:
267,299,2077,1,2,0:0:0:0:
267,299,2164,5,0,1:0:0:0:
258,214,2338,1,2,0:0:0:0:
249,129,2513,2,0,P|282:114|319:119,1,75.0000028610231,2|0,0:0|0:0,0:0:0:0:
81,299,2862,1,8,0:0:0:0:
90,214,3036,1,2,0:0:0:0:
98,129,3210,1,2,0:0:0:0:
11,249,3385,1,0,1:0:0:0:
186,268,3559,6,0,B|205:307|205:307|196:378,2,112.500004291535,0|2|2,1:0|0:0|0:0,0:0:0:0:
236,43,4257,1,8,0:0:0:0:
245,128,4431,1,2,0:0:0:0:
253,213,4606,1,2,0:0:0:0:
404,49,4780,1,2,1:2:0:0:
404,49,4867,1,2,0:0:0:0:
404,49,4955,6,0,L|397:126,1,75.0000028610231,0|0,1:0|0:0,0:0:0:0:
392,223,5216,1,0,1:0:0:0:
391,211,5303,1,2,0:0:0:0:
236,43,5478,1,2,1:2:0:0:
236,43,5565,1,2,0:0:0:0:
236,43,5652,1,8,0:0:0:0:
50,76,5827,1,0,1:0:0:0:
245,128,6001,1,0,1:0:0:0:
157,275,6175,1,0,1:0:0:0:
128,209,6263,1,0,1:0:0:0:
137,138,6350,6,0,B|176:119|176:119|247:128,2,112.500004291535,0|2|2,1:0|0:0|0:0,0:0:0:0:
480,167,7048,1,8,0:0:0:0:
395,176,7222,1,2,0:0:0:0:
310,184,7396,1,2,0:0:0:0:
491,332,7571,1,2,0:0:0:0:
491,332,7658,1,2,0:0:0:0:
491,332,7745,5,0,1:0:0:0:
406,323,7920,1,2,0:0:0:0:
321,314,8094,2,0,P|306:347|311:384,1,75.0000028610231,2|0,0:0|0:0,0:0:0:0:
480,167,8443,1,8,0:0:0:0:
395,176,8617,1,2,0:0:0:0:
310,184,8792,1,2,0:0:0:0:
445,246,8966,1,0,1:0:0:0:
316,85,9141,6,0,P|316:58|323:83,1,75.0000028610231,0|0,1:0|0:0,0:0:0:0:
324,83,9489,6,0,P|315:58|316:85,1,75.0000028610231,2|0,0:0|0:0,0:0:0:0:
316,85,9838,6,0,P|316:58|323:83,1,75.0000028610231,8|0,0:0|0:0,0:0:0:0:
217,75,10187,6,0,P|186:91|163:66,1,75.0000028610231,2|0,0:0|0:0,0:0:0:0:
163,66,10362,2,0,P|193:49|216:74,1,75.0000028610231,2|0,1:2|0:0,0:0:0:0:
83,122,10536,6,0,P|71:160|78:206,1,75.0000028610231,0|0,1:0|0:0,0:0:0:0:
82,205,10798,1,0,1:0:0:0:
170,259,10885,6,0,P|180:294|177:331,1,75.0000028610231,2|0,0:0|0:0,0:0:0:0:
177,333,11059,2,0,P|141:324|111:303,1,75.0000028610231,2|0,1:2|0:0,0:0:0:0:
111,303,11234,2,0,P|136:276|169:260,1,75.0000028610231,8|0,0:0|0:0,0:0:0:0:
325,288,11408,6,0,P|294:304|271:279,1,75.0000028610231,0|0,1:0|0:0,0:0:0:0:
271,278,11582,2,0,P|302:262|325:287,1,75.0000028610231,8|0,0:0|0:0,0:0:0:0:
435,255,11757,5,0,1:0:0:0:
464,189,11844,1,0,1:0:0:0:
455,118,11931,6,0,B|423:102|423:102|369:109,1,89.9999972534181,0|0,1:0|0:0,0:0:0:0:
280,140,12193,1,2,0:0:0:0:
293,149,12280,2,0,B|308:117|308:117|301:63,1,89.9999972534181,8|2,0:0|0:0,0:0:0:0:
33,83,12629,1,8,0:0:0:0:
203,100,12803,1,2,1:2:0:0:
118,92,12978,1,8,0:0:0:0:
124,261,13152,1,2,0:0:0:0:
124,261,13239,1,2,0:0:0:0:
124,261,13327,5,0,1:0:0:0:
39,269,13501,1,2,0:0:0:0:
209,252,13675,2,0,P|227:291|221:336,1,89.9999972534181,8|0,0:0|0:0,0:0:0:0:
33,83,14024,1,8,0:0:0:0:
203,100,14199,1,2,1:2:0:0:
118,92,14373,1,8,0:0:0:0:
107,111,14460,1,2,0:0:0:0:
101,133,14548,1,2,0:0:0:0:
103,155,14635,1,2,0:0:0:0:
110,176,14722,6,0,B|142:192|142:192|196:185,1,89.9999972534181,0|0,1:0|0:0,0:0:0:0:
285,154,14984,1,2,0:0:0:0:
272,145,15071,2,0,B|257:177|257:177|264:231,1,89.9999972534181,8|2,0:0|0:0,0:0:0:0:
507,297,15420,1,8,0:0:0:0:
337,280,15594,1,2,1:2:0:0:
422,288,15769,1,8,0:0:0:0:
413,74,15943,1,2,0:0:0:0:
413,74,16030,1,2,0:0:0:0:
413,74,16117,5,0,1:0:0:0:
328,82,16292,1,2,0:0:0:0:
498,65,16466,1,8,0:0:0:0:
265,22,16641,1,0,1:0:0:0:
265,22,16728,1,2,0:0:0:0:
265,22,16815,1,2,0:0:0:0:
287,159,16989,1,2,1:2:0:0:
183,55,17164,5,8,0:0:0:0:
164,44,17251,1,2,0:0:0:0:
142,38,17338,1,2,0:0:0:0:
120,40,17425,1,2,0:0:0:0:
99,47,17513,1,0,1:0:0:0:
125,214,17687,1,2,0:0:0:0:
0,129,17862,5,8,0:0:0:0:
21,122,17949,1,2,0:0:0:0:
43,120,18036,1,2,0:0:0:0:
65,126,18123,1,2,0:0:0:0:
84,137,18210,1,8,0:0:0:0:
69,281,18385,1,2,0:0:0:0:
209,222,18559,5,8,0:0:0:0:
190,211,18646,1,2,0:0:0:0:
168,205,18734,1,2,0:0:0:0:
146,207,18821,1,2,0:0:0:0:
125,214,18908,1,0,1:0:0:0:
307,147,19082,5,2,0:0:0:0:
304,124,19170,1,2,0:0:0:0:
301,101,19257,1,8,0:0:0:0:
376,199,19431,1,2,0:0:0:0:
399,196,19519,1,2,0:0:0:0:
422,193,19606,1,2,0:0:0:0:
324,268,19780,1,2,1:2:0:0:
327,291,19867,1,2,0:0:0:0:
330,314,19955,1,8,0:0:0:0:
255,216,20129,1,2,0:0:0:0:
232,219,20216,1,2,0:0:0:0:
209,222,20303,6,0,P|193:218|209:219,1,44.999998626709,0|0,1:0|0:0,0:0:0:0:
142,130,20478,5,2,0:0:0:0:
142,130,20565,1,2,0:0:0:0:
142,130,20652,2,0,P|138:146|139:130,1,44.999998626709,0|0,1:0|0:0,0:0:0:0:
64,216,20827,5,2,0:0:0:0:
64,216,20914,1,2,0:0:0:0:
64,216,21001,2,0,P|80:220|64:219,1,44.999998626709,0|0,1:0|0:0,0:0:0:0:
140,301,21175,5,2,0:0:0:0:
140,301,21263,1,2,0:0:0:0:
140,300,21350,6,0,P|170:328|146:361,1,89.9999972534181,8|0,0:0|0:0,0:0:0:0:
147,362,21524,2,0,P|116:334|140:301,1,89.9999972534181,0|2,1:0|0:0,0:0:0:0:
261,287,21699,6,0,P|304:279|347:292,1,89.9999972534181,0|0,1:0|0:0,0:0:0:0:
503,201,21873,1,0,0:0:0:0:
447,151,21960,1,0,1:0:0:0:
438,144,22048,6,0,P|393:138|350:150,1,89.9999972534181,2|0,0:0|0:0,0:0:0:0:
351,150,22222,2,0,P|367:191|400:222,1,89.9999972534181,2|0,1:2|0:0,0:0:0:0:
401,223,22396,2,0,P|428:187|438:144,1,89.9999972534181,2|0,1:2|0:0,0:0:0:0:
256,96,22571,6,0,P|225:68|250:35,1,89.9999972534181,2|0,1:2|0:0,0:0:0:0:
249,35,22745,2,0,P|280:63|255:96,2,89.9999972534181,2|0|0,1:2|1:0|1:0,0:0:0:0:
48,39,23094,6,0,B|30:74|30:74|37:134,1,100,4|0,1:2|0:0,0:0:0:0:
118,176,23356,1,2,0:0:0:0:
118,176,23443,2,0,L|122:228,1,50,8|0,0:0|0:0,0:0:0:0:
51,275,23617,1,2,0:0:0:0:
286,253,23792,1,2,1:2:0:0:
201,262,23966,1,2,0:0:0:0:
371,245,24141,1,8,0:0:0:0:
286,102,24315,1,2,0:0:0:0:
286,102,24402,1,2,0:0:0:0:
286,102,24489,5,2,1:2:0:0:
371,110,24664,1,2,0:0:0:0:
201,93,24838,2,0,P|181:49|187:0,1,100,8|0,0:0|0:0,0:0:0:0:
286,253,25187,1,2,1:2:0:0:
201,262,25362,1,2,0:0:0:0:
371,245,25536,2,0,P|390:288|384:338,1,100,8|0,0:0|0:0,0:0:0:0:
112,322,25885,6,0,B|94:287|94:287|101:227,1,100,0|0,1:2|0:0,0:0:0:0:
168,121,26146,1,2,0:0:0:0:
168,121,26234,2,0,L|164:170,1,50,8|0,0:0|0:0,0:0:0:0:
215,241,26408,1,2,0:0:0:0:
45,85,26582,1,2,1:2:0:0:
36,170,26757,1,2,0:0:0:0:
53,0,26931,1,8,0:0:0:0:
254,90,27106,1,2,0:0:0:0:
254,90,27193,1,2,0:0:0:0:
254,90,27280,5,2,1:2:0:0:
246,5,27455,1,2,0:0:0:0:
263,175,27629,1,8,0:0:0:0:
45,85,27803,1,2,0:0:0:0:
45,85,27891,1,2,0:0:0:0:
45,85,27978,2,0,P|26:128|32:178,1,100,2|2,1:2|0:0,0:0:0:0:
131,352,28327,5,8,1:2:0:0:
134,355,28501,1,0,1:0:0:0:
370,340,28675,6,0,B|388:305|388:305|381:245,1,100,0|0,1:2|0:0,0:0:0:0:
300,203,28937,1,2,0:0:0:0:
300,203,29024,2,0,L|296:151,1,50,8|0,0:0|0:0,0:0:0:0:
367,104,29199,1,2,0:0:0:0:
132,126,29373,1,2,1:2:0:0:
217,117,29548,1,2,0:0:0:0:
47,134,29722,1,8,0:0:0:0:
132,277,29896,1,2,0:0:0:0:
132,277,29984,1,2,0:0:0:0:
132,277,30071,5,2,1:2:0:0:
47,269,30245,1,2,0:0:0:0:
217,286,30420,2,0,P|237:330|231:379,1,100,8|0,0:0|0:0,0:0:0:0:
132,126,30769,1,2,1:2:0:0:
217,117,30943,1,2,0:0:0:0:
47,134,31117,1,8,0:0:0:0:
50,137,31292,1,0,1:0:0:0:
309,60,31466,6,0,P|325:62|309:62,1,50,0|0,1:2|0:0,0:0:0:0:
397,140,31641,5,2,0:0:0:0:
397,140,31815,2,0,P|399:124|399:140,1,50,8|0,0:0|0:0,0:0:0:0:
476,48,31989,5,2,0:0:0:0:
476,48,32077,1,2,0:0:0:0:
476,48,32164,2,0,P|459:44|475:44,1,50,2|0,1:2|0:0,0:0:0:0:
460,287,32338,5,2,0:0:0:0:
460,287,32425,1,0,1:0:0:0:
460,287,32513,6,0,P|493:256|467:219,1,100,8|0,0:0|0:0,0:0:0:0:
466,218,32687,2,0,P|433:249|459:286,1,100,2|0,1:2|0:0,0:0:0:0:
328,344,32862,6,0,P|284:358|232:350,1,100,2|0,1:2|0:0,0:0:0:0:
169,265,33123,1,2,0:0:0:0:
169,265,33210,6,0,P|121:251|72:260,1,100,2|0,0:0|0:0,0:0:0:0:
73,260,33385,2,0,P|86:309|118:347,1,100,2|0,0:0|0:0,0:0:0:0:
116,346,33559,2,0,P|152:312|169:265,1,100,2|0,1:2|0:0,0:0:0:0:
251,130,33734,6,0,P|284:161|258:198,1,100,2|0,1:2|0:0,0:0:0:0:
257,199,33908,2,0,P|224:168|250:131,1,100,2|0,0:2|0:0,0:0:0:0:
476,203,34082,1,0,1:0:0:0:
485,275,34170,1,0,1:0:0:0:
487,347,34257,6,0,B|452:365|452:365|392:358,1,100,4|0,1:2|0:0,0:0:0:0:
350,277,34519,1,2,0:0:0:0:
350,277,34606,2,0,L|298:273,1,50,8|0,0:0|0:0,0:0:0:0:
251,344,34780,1,2,0:0:0:0:
266,114,34955,1,2,1:2:0:0:
257,199,35129,1,2,0:0:0:0:
274,29,35303,1,8,0:0:0:0:
409,129,35478,1,2,0:0:0:0:
409,129,35565,1,2,0:0:0:0:
409,129,35652,5,2,1:2:0:0:
401,44,35827,1,2,0:0:0:0:
418,214,36001,2,0,P|462:234|511:228,1,100,8|0,0:0|0:0,0:0:0:0:
266,114,36350,1,2,1:2:0:0:
257,199,36524,1,2,0:0:0:0:
274,29,36699,1,8,0:0:0:0:
252,15,36786,1,2,0:0:0:0:
228,8,36873,1,2,0:0:0:0:
204,8,36960,1,2,0:0:0:0:
180,15,37048,6,0,B|162:50|162:50|169:110,1,100,0|0,1:2|0:0,0:0:0:0:
121,232,37309,1,2,0:0:0:0:
121,232,37396,2,0,L|117:183,1,50,8|0,0:0|0:0,0:0:0:0:
53,123,37571,1,2,0:0:0:0:
244,252,37745,1,2,1:2:0:0:
235,167,37920,1,2,0:0:0:0:
252,337,38094,1,8,0:0:0:0:
453,247,38269,1,2,0:0:0:0:
453,247,38356,1,2,0:0:0:0:
453,247,38443,5,2,1:2:0:0:
445,332,38617,1,2,0:0:0:0:
462,162,38792,1,8,0:0:0:0:
244,252,38966,1,2,0:0:0:0:
244,252,39053,1,2,0:0:0:0:
244,252,39141,1,2,1:2:0:0:
445,332,39315,1,2,0:0:0:0:
378,96,39489,5,8,1:2:0:0:
356,82,39577,1,2,0:0:0:0:
332,75,39664,1,0,1:0:0:0:
308,75,39751,1,2,0:0:0:0:
284,82,39838,1,0,1:2:0:0:
216,28,40013,1,0,0:0:0:0:
82,184,40187,5,8,0:0:0:0:
104,198,40274,1,2,0:0:0:0:
128,205,40362,1,2,0:0:0:0:
152,205,40449,1,2,0:0:0:0:
176,198,40536,1,2,1:2:0:0:
244,252,40710,1,2,0:0:0:0:
472,110,40885,5,8,0:0:0:0:
450,96,40972,1,2,0:0:0:0:
426,89,41059,1,2,0:0:0:0:
402,89,41146,1,2,0:0:0:0:
378,96,41234,1,2,1:2:0:0:
244,252,41408,5,2,0:0:0:0:
248,280,41495,1,2,0:0:0:0:
252,308,41582,1,8,0:0:0:0:
182,195,41757,1,2,0:0:0:0:
155,199,41844,1,2,0:0:0:0:
127,203,41931,1,2,1:2:0:0:
231,124,42106,1,2,0:0:0:0:
228,97,42193,1,2,0:0:0:0:
224,69,42280,1,8,0:0:0:0:
296,182,42455,1,0,1:0:0:0:
324,178,42542,1,2,0:0:0:0:
365,176,42629,6,0,P|381:178|364:179,1,50,0|0,1:2|0:0,0:0:0:0:
429,270,42803,5,2,0:0:0:0:
429,270,42891,1,2,0:0:0:0:
429,270,42978,2,0,P|433:252|432:270,1,50,8|0,0:0|0:0,0:0:0:0:
498,180,43152,5,2,0:0:0:0:
498,180,43239,1,0,0:0:0:0:
498,180,43327,2,0,P|480:175|498:176,1,50,2|0,1:2|0:0,0:0:0:0:
423,107,43501,5,2,0:0:0:0:
423,107,43588,1,0,1:0:0:0:
423,108,43675,6,0,P|389:76|416:39,1,100,8|0,0:0|0:0,0:0:0:0:
416,39,43850,2,0,P|450:70|423:107,1,100,2|0,1:2|0:0,0:0:0:0:
290,20,44024,6,0,P|266:12|242:17,1,49.499999848938,2|0,1:2|0:0,0:0:0:0:
132,44,44373,6,0,P|128:68|135:92,1,50,2|0,0:0|0:0,0:0:0:0:
135,93,44548,2,0,P|157:83|175:65,1,50,2|0,0:0|0:0,0:0:0:0:
175,66,44722,2,0,P|155:50|131:44,1,50,2|0,0:2|0:0,0:0:0:0:
220,177,44896,6,0,P|203:162|220:148,1,50,2|0,0:2|0:0,0:0:0:0:
220,148,45071,2,0,P|237:163|220:177,1,50,2|0,0:2|0:0,0:0:0:0:
265,269,45245,5,0,1:0:0:0:
512,122,45420,6,0,B|458:103|458:103|400:116,1,115.000002193451,4|0,1:2|0:0,0:0:0:0:
390,305,45769,2,0,B|444:324|444:324|502:311,1,115.000002193451,8|0,0:0|0:0,0:0:0:0:
403,11,46117,1,0,1:0:0:0:
313,62,46292,2,0,B|294:116|294:116|307:174,1,115.000002193451,2|8,0:0|0:0,0:0:0:0:
231,360,46641,2,0,B|250:306|250:306|238:250,1,115.000002193451,2|0,0:0|1:0,0:0:0:0:
36,159,46989,6,0,L|149:169,1,115.000002193451,2|8,0:0|0:0,0:0:0:0:
79,267,47338,1,2,0:0:0:0:
107,61,47513,1,0,1:0:0:0:
154,173,47687,1,2,0:0:0:0:
391,50,47862,1,8,0:0:0:0:
438,162,48036,1,2,0:0:0:0:
289,0,48210,6,0,B|270:54|270:54|283:112,1,115.000002193451,0|0,1:0|0:0,0:0:0:0:
310,375,48559,2,0,B|329:321|329:321|316:263,1,115.000002193451,8|0,0:0|0:0,0:0:0:0:
47,261,48908,1,0,1:0:0:0:
222,318,49082,1,2,0:0:0:0:
4,167,49257,1,8,0:0:0:0:
179,110,49431,2,0,B|198:56|198:56|185:-2,1,115.000002193451,2|0,0:0|1:0,0:0:0:0:
282,110,49780,6,0,L|292:223,1,115.000002193451,2|8,0:0|0:0,0:0:0:0:
188,218,50129,1,2,0:0:0:0:
385,118,50303,1,0,1:0:0:0:
389,285,50478,1,2,0:0:0:0:
389,285,50565,1,2,0:0:0:0:
389,285,50652,2,0,L|394:341,1,57.5000010967255,8|0,0:0|0:0,0:0:0:0:
289,325,50827,2,0,L|294:382,1,57.5000010967255,0|0,1:0|0:0,0:0:0:0:
75,282,51001,6,0,B|34:147|111:195|75:58,1,230.000004386902,0|8,1:0|0:0,0:0:0:0:
172,228,51524,1,2,0:0:0:0:
172,228,51612,1,2,0:0:0:0:
172,228,51699,1,0,1:0:0:0:
259,172,51873,2,0,P|276:226|261:281,1,115.000002193451,2|8,0:0|0:0,0:0:0:0:
364,100,52222,6,0,L|477:110,1,115.000002193451,2|0,0:0|1:0,0:0:0:0:
414,209,52571,1,2,0:0:0:0:
432,2,52745,1,8,0:0:0:0:
499,269,52920,1,2,0:0:0:0:
234,193,53094,1,0,1:0:0:0:
325,261,53269,1,2,0:0:0:0:
325,261,53356,1,2,0:0:0:0:
325,261,53443,2,0,L|315:374,1,115.000002193451,8|0,0:0|0:0,0:0:0:0:
32,253,53792,6,0,B|88:240|88:240|142:259,1,115.000002193451,4|0,1:2|0:0,0:0:0:0:
414,209,54141,5,0,1:0:0:0:
412,128,54228,1,0,1:0:0:0:
407,47,54315,2,0,L|404:18,3,28.7500005483627,0|0|0|0,1:0|0:0|0:0|0:0,0:0:0:0:
399,12,54489,6,0,B|342:0|342:0|288:18,1,115.000002193451,0|0,1:0|0:0,0:0:0:0:
223,98,54751,1,0,1:0:0:0:
214,109,54838,2,0,L|158:114,1,57.5000010967255,8|0,0:0|0:0,0:0:0:0:
29,42,55013,2,0,L|87:37,1,57.5000010967255,0|0,1:0|0:0,0:0:0:0:
296,182,55187,5,0,1:0:0:0:
253,281,55362,1,2,0:0:0:0:
253,281,55449,1,2,0:0:0:0:
253,281,55536,1,2,0:0:0:0:
308,379,55710,1,2,0:0:0:0:
308,379,55798,1,2,0:0:0:0:
308,379,55885,6,0,L|364:374,1,57.5000010967255,0|0,1:0|0:0,0:0:0:0:
103,351,56059,2,0,L|45:356,1,57.5000010967255,0|0,1:0|0:0,0:0:0:0:
204,365,56234,1,2,0:0:0:0:
154,195,56408,5,0,1:0:0:0:
156,114,56495,1,0,1:0:0:0:
161,33,56582,6,0,B|217:20|217:20|271:39,1,115.000002193451,0|0,1:0|0:0,0:0:0:0:
463,194,56931,2,0,B|407:207|407:207|353:188,1,115.000002193451,8|0,0:0|0:0,0:0:0:0:
367,0,57280,1,0,1:0:0:0:
259,141,57455,2,0,B|246:197|246:197|265:251,1,115.000002193451,2|8,0:0|0:0,0:0:0:0:
469,304,57803,2,0,B|482:248|482:248|463:194,1,115.000002193451,0|0,0:0|1:0,0:0:0:0:
281,382,58152,6,0,L|166:371,1,115.000002193451,2|8,0:0|0:0,0:0:0:0:
77,320,58501,1,2,0:0:0:0:
372,333,58675,1,0,1:0:0:0:
166,268,58850,1,2,0:0:0:0:
299,260,59024,1,8,0:0:0:0:
301,231,59112,1,2,0:0:0:0:
304,202,59199,1,2,0:0:0:0:
306,174,59286,1,2,0:0:0:0:
309,145,59373,6,0,B|255:126|255:126|197:139,1,115.000002193451,0|0,1:0|0:0,0:0:0:0:
0,283,59722,2,0,B|54:302|54:302|112:289,1,115.000002193451,8|0,0:0|0:0,0:0:0:0:
120,22,60071,1,0,1:0:0:0:
63,197,60245,1,2,0:0:0:0:
271,23,60420,1,8,0:0:0:0:
328,198,60594,2,0,B|382:217|382:217|440:204,1,115.000002193451,2|0,0:0|1:0,0:0:0:0:
228,262,60943,6,0,L|238:375,1,115.000002193451,2|8,0:0|0:0,0:0:0:0:
340,384,61292,1,2,0:0:0:0:
127,245,61466,2,0,L|117:132,1,115.000002193451,0|0,1:0|0:0,0:0:0:0:
343,26,61815,5,8,0:0:0:0:
340,69,61902,1,2,0:0:0:0:
335,113,61989,1,2,1:2:0:0:
332,155,62077,1,2,0:0:0:0:
328,198,62164,2,0,B|382:217|382:217|440:204,1,115.000002193451,0|0,1:0|0:0,0:0:0:0:
241,255,62513,5,8,0:0:0:0:
243,284,62600,1,2,0:0:0:0:
246,313,62687,1,2,0:0:0:0:
248,341,62774,1,2,0:0:0:0:
251,370,62862,1,0,1:0:0:0:
350,311,63036,1,2,0:0:0:0:
172,181,63210,5,8,0:0:0:0:
174,152,63298,1,2,0:0:0:0:
177,123,63385,1,2,0:0:0:0:
179,95,63472,1,2,0:0:0:0:
183,66,63559,1,0,1:0:0:0:
370,200,63734,5,2,0:0:0:0:
399,202,63821,1,2,0:0:0:0:
428,205,63908,1,8,0:0:0:0:
230,186,64082,1,2,0:0:0:0:
201,184,64170,1,2,0:0:0:0:
172,181,64257,1,0,1:0:0:0:
309,117,64431,1,2,0:0:0:0:
311,88,64519,1,2,0:0:0:0:
314,59,64606,1,8,0:0:0:0:
292,268,64780,1,2,0:0:0:0:
290,297,64867,1,2,0:0:0:0:
287,326,64955,5,0,1:0:0:0:
261,338,65042,1,2,0:0:0:0:
232,342,65129,1,2,0:0:0:0:
204,339,65216,1,2,0:0:0:0:
178,328,65303,5,8,0:0:0:0:
147,280,65391,1,0,1:0:0:0:
94,258,65478,1,0,1:0:0:0:
39,270,65565,1,0,1:0:0:0:
0,310,65652,6,0,P|27:318|54:311,1,57.5000010967255,0|0,1:0|0:0,0:0:0:0:
172,164,65827,1,2,0:0:0:0:
197,87,65914,1,2,1:2:0:0:
181,8,66001,6,0,P|154:0|126:7,1,57.5000010967255,8|0,0:0|0:0,0:0:0:0:
217,231,66175,2,0,P|244:239|271:232,1,57.5000010967255,0|0,1:0|0:0,0:0:0:0:
398,69,66350,5,0,1:0:0:0:
485,126,66524,1,2,0:0:0:0:
494,135,66612,1,2,0:0:0:0:
503,144,66699,2,0,P|513:185|507:227,1,85.0000016212464,2|0,0:0|0:0,0:0:0:0:
449,312,67048,1,2,0:0:0:0:
362,259,67222,1,2,0:0:0:0:
352,251,67309,2,0,P|331:248|310:253,1,42.5000008106232,2|0,0:0|0:0,0:0:0:0:
242,330,67484,1,2,0:0:0:0:
230,334,67571,2,0,P|209:336|188:331,1,42.5000008106232,2|0,1:2|0:0,0:0:0:0:
102,224,67745,6,0,P|65:219|27:231,1,75.0000028610231,2|0,1:2|0:0,0:0:0:0:
0,310,68094,2,0,P|36:315|72:305,1,75.0000028610231,2|0,0:0|0:0,0:0:0:0:
176,181,68443,1,2,0:0:0:0:
179,178,68617,2,0,P|242:164|323:198,1,150.000005722046,2|0,0:0|0:0,0:0:0:0:
330,372,69141,5,2,0:0:0:0:
494,306,69315,2,0,P|426:276|353:289,1,150.000005722046,2|2,0:0|0:0,0:0:0:0:
248,349,69838,1,2,0:0:0:0:
189,286,70013,1,2,0:0:0:0:
165,369,70187,1,2,0:0:0:0:
272,265,70362,1,2,0:0:0:0:
140,199,70536,6,0,L|65:205,1,75.0000028610231,2|0,0:0|0:0,0:0:0:0:
135,112,70885,2,0,L|60:118,1,75.0000028610231,2|0,0:0|0:0,0:0:0:0:
212,152,71234,1,2,0:0:0:0:
209,66,71408,1,2,0:0:0:0:
280,207,71582,1,2,0:0:0:0:
352,42,71757,6,0,P|387:31|424:36,1,75.0000028610231,2|0,0:0|0:0,0:0:0:0:
321,123,72106,2,0,P|357:128|393:117,1,75.0000028610231,2|0,0:0|0:0,0:0:0:0:
273,13,72455,1,2,0:0:0:0:
270,10,72629,2,0,P|233:4|197:15,1,75.0000028610231,2|0,0:0|0:0,0:0:0:0:
138,78,72978,1,2,0:0:0:0:
53,95,73152,1,2,0:0:0:0:
220,152,73327,6,0,L|233:302,2,150.000005722046,2|2|2,0:0|0:0|0:0,0:0:0:0:
309,180,74199,2,0,L|315:254,1,75.0000028610231,2|0,0:0|0:0,0:0:0:0:
368,25,74548,1,2,0:0:0:0:
38,82,74896,5,2,0:0:0:0:
116,118,75071,1,2,0:0:0:0:
0,159,75245,1,2,0:0:0:0:
186,68,75420,2,0,P|221:57|258:62,1,75.0000028610231,2|0,0:0|0:0,0:0:0:0:
388,122,75769,2,0,P|352:133|316:128,1,75.0000028610231,2|0,0:0|0:0,0:0:0:0:
478,175,76117,6,0,P|488:210|483:247,1,75.0000028610231,2|0,0:0|0:0,0:0:0:0:
401,268,76466,2,0,P|390:303|395:340,1,75.0000028610231,2|0,0:0|0:0,0:0:0:0:
482,384,76815,1,2,0:0:0:0:
314,367,76989,1,2,0:0:0:0:
402,350,77164,1,2,0:0:0:0:
247,253,77338,6,0,L|172:246,1,75.0000028610231,2|0,0:0|0:0,0:0:0:0:
172,246,77687,2,0,L|97:239,1,75.0000028610231,2|0,0:0|0:0,0:0:0:0:
97,239,78036,1,2,0:0:0:0:
73,155,78210,1,2,0:0:0:0:
165,23,78385,1,2,0:0:0:0:
141,107,78559,1,2,0:0:0:0:
82,44,78734,1,2,0:0:0:0:
246,144,78908,6,0,P|283:149|321:137,1,75.0000028610231,2|0,0:0|0:0,0:0:0:0:
348,58,79257,2,0,P|312:53|276:63,1,75.0000028610231,2|0,0:0|0:0,0:0:0:0:
102,130,79606,1,2,0:0:0:0:
105,127,79780,2,0,P|168:113|249:147,1,150.000005722046,2|0,0:0|0:0,0:0:0:0:
271,349,80303,5,2,0:0:0:0:
167,253,80478,2,0,P|239:240|307:270,1,150.000005722046,2|0,0:0|0:0,0:0:0:0:
454,307,81001,1,2,0:0:0:0:
391,248,81175,1,2,0:0:0:0:
474,224,81350,1,2,0:0:0:0:
370,331,81524,1,2,0:0:0:0:
324,156,81699,6,0,L|318:81,1,75.0000028610231,2|0,0:0|0:0,0:0:0:0:
411,151,82048,2,0,L|405:76,1,75.0000028610231,2|0,0:0|0:0,0:0:0:0:
457,225,82396,1,2,0:0:0:0:
371,228,82571,1,2,0:0:0:0:
417,302,82745,1,2,0:0:0:0:
285,185,82920,6,0,P|250:174|213:179,1,75.0000028610231,2|0,0:0|0:0,0:0:0:0:
244,261,83269,2,0,P|208:266|172:255,1,75.0000028610231,2|0,0:0|0:0,0:0:0:0:
301,354,83617,1,2,0:0:0:0:
298,351,83792,2,0,P|261:345|225:356,1,75.0000028610231,2|0,0:0|0:0,0:0:0:0:
142,377,84141,1,2,0:0:0:0:
145,380,84315,1,2,0:0:0:0:
57,310,84489,6,0,L|44:164,1,139.999995727539,2|2,0:0|0:0,0:0:0:0:
215,38,85187,1,2,0:0:0:0:
218,41,85362,2,0,L|224:115,1,69.9999978637696,2|0,0:0|0:0,0:0:0:0:
158,171,85710,6,0,L|297:158,1,139.999995727539,2|2,0:0|0:0,0:0:0:0:
383,154,86234,1,2,0:0:0:0:
386,157,86408,1,2,0:0:0:0:
446,220,86582,2,0,L|452:294,1,69.9999978637696,2|0,0:0|0:0,0:0:0:0:
340,380,86931,1,2,0:0:0:0:
142,83,87280,5,2,0:0:0:0:
140,72,87629,1,2,0:0:0:0:
370,83,87978,5,2,0:0:0:0:
372,72,88327,1,2,0:0:0:0:
256,192,88675,5,2,0:0:0:0:
281,266,89024,5,2,0:0:0:0:
194,237,89199,1,2,0:0:0:0:
194,148,89373,1,2,0:0:0:0:
281,119,89548,1,2,0:0:0:0:
333,193,89722,1,2,0:0:0:0:
116,283,90071,6,0,B|96:226|96:226|111:169,1,119.999996337891,2|0,1:2|0:0,0:0:0:0:
194,148,90594,1,2,0:0:0:0:
198,144,90769,2,0,L|192:79,1,59.9999981689454,2|0,0:0|0:0,0:0:0:0:
281,114,91117,2,0,L|276:54,1,59.9999981689454,2|0,0:0|0:0,0:0:0:0:
410,120,91466,6,0,B|442:226|381:188|410:297,2,179.999994506836,2|0|0,0:0|0:0|0:0,0:0:0:0:
282,284,92862,6,0,P|237:293|166:263,1,119.999996337891,2|0,0:0|0:0,0:0:0:0:
112,202,93385,1,2,0:0:0:0:
109,199,93559,2,0,P|79:189|47:193,1,59.9999981689454,2|0,0:0|0:0,0:0:0:0:
173,102,93908,2,0,P|143:98|115:108,1,59.9999981689454,2|0,0:0|0:0,0:0:0:0:
283,45,94257,5,2,0:0:0:0:
271,240,94606,5,2,0:0:0:0:
213,221,94780,1,2,0:0:0:0:
213,161,94955,1,2,0:0:0:0:
271,142,95129,1,2,0:0:0:0:
306,191,95303,1,2,0:0:0:0:
472,188,95652,6,0,P|497:134|489:75,1,119.999996337891,2|0,0:0|0:0,0:0:0:0:
422,23,96175,1,2,0:0:0:0:
419,20,96350,2,0,P|389:10|357:14,1,59.9999981689454,2|0,0:0|0:0,0:0:0:0:
295,69,96699,2,0,P|265:78|233:74,1,59.9999981689454,2|0,0:0|0:0,0:0:0:0:
119,19,97048,6,0,L|109:137,1,119.999996337891,2|0,0:0|0:0,0:0:0:0:
99,312,97571,1,2,0:0:0:0:
104,225,97745,1,2,0:0:0:0:
181,185,97920,2,0,B|210:179|210:179|239:187,1,59.9999981689454,2|0,0:0|0:0,0:0:0:0:
368,351,98269,6,0,B|421:174|320:237|368:58,1,299.999990844727,2|0,0:0|0:0,0:0:0:0:
372,52,99489,1,2,0:0:0:0:
142,83,99838,5,2,0:0:0:0:
271,240,100187,5,2,0:0:0:0:
213,221,100362,1,2,0:0:0:0:
213,161,100536,1,2,0:0:0:0:
271,142,100710,1,2,0:0:0:0:
306,191,100885,1,2,0:0:0:0:
265,354,101234,6,0,B|208:374|208:374|151:359,1,119.999996337891,2|0,0:0|0:0,0:0:0:0:
102,288,101757,1,2,0:0:0:0:
98,284,101931,2,0,L|33:289,1,59.9999981689454,2|0,0:0|0:0,0:0:0:0:
120,197,102280,2,0,L|61:202,1,59.9999981689454,2|0,0:0|0:0,0:0:0:0:
182,79,102629,6,0,B|288:46|250:107|359:79,2,179.999994506836,2|0|0,0:0|0:0|0:0,0:0:0:0:
457,149,104024,6,0,P|466:194|436:265,1,119.999996337891,2|0,0:0|0:0,0:0:0:0:
372,384,104548,1,2,0:0:0:0:
374,380,104722,2,0,P|384:352|381:323,1,59.9999981689454,2|0,0:0|0:0,0:0:0:0:
285,381,105071,2,0,P|275:353|278:324,1,59.9999981689454,2|0,0:0|0:0,0:0:0:0:
439,261,105420,5,2,0:0:0:0:
271,240,105769,5,2,0:0:0:0:
213,221,105943,1,2,0:0:0:0:
213,161,106117,1,2,0:0:0:0:
271,142,106292,1,2,0:0:0:0:
306,191,106466,1,2,0:0:0:0:
238,29,106815,6,0,P|184:3|125:11,1,119.999996337891,2|0,0:0|0:0,0:0:0:0:
73,79,107338,1,2,0:0:0:0:
70,82,107513,2,0,P|60:111|64:143,1,59.9999981689454,2|0,0:0|0:0,0:0:0:0:
119,206,107862,2,0,P|128:235|124:267,1,59.9999981689454,2|0,0:0|0:0,0:0:0:0:
218,152,108210,6,0,L|336:161,1,119.999996337891,2|0,0:0|0:0,0:0:0:0:
510,172,108734,1,2,0:0:0:0:
424,167,108908,1,2,0:0:0:0:
288,72,109082,2,0,B|282:42|282:42|290:13,1,59.9999981689454,2|0,0:0|0:0,0:0:0:0:
392,267,109431,6,0,B|215:320|278:219|99:267,1,299.999990844727,2|0,0:0|0:0,0:0:0:0:
92,274,110652,1,2,0:0:0:0:
298,177,111001,6,0,B|265:104|265:104|277:113,1,81.0000019775391,2|0,1:2|0:0,0:0:0:0:
298,177,111350,2,0,B|265:104|265:104|301:133|301:133|306:130,1,127.50000243187,2|0,0:0|0:0,0:0:0:0:
298,177,111699,2,0,B|265:104|265:104|301:133|301:133|337:107|337:107|333:118,1,170.999997912598,10|0,0:0|0:0,0:0:0:0:
298,177,112048,6,0,B|265:104|265:104|301:133|301:133|337:107|337:107|298:176,1,250,10|0,0:0|1:0,0:0:0:0:
435,294,112396,6,0,B|374:280|374:280|286:299,1,150.000005722046,4|0,0:0|0:0,0:0:0:0:
279,304,112658,1,2,0:0:0:0:
196,262,112832,1,2,0:0:0:0:
196,251,112920,1,2,0:0:0:0:
149,334,113094,2,0,L|0:322,1,150.000005722046,2|0,0:0|0:0,0:0:0:0:
46,242,113617,1,0,0:0:0:0:
11,131,113792,6,0,P|47:116|85:119,1,75.0000028610231,2|0,0:0|0:0,0:0:0:0:
93,122,114053,1,2,0:0:0:0:
165,76,114228,1,2,0:0:0:0:
176,76,114315,1,2,0:0:0:0:
237,136,114489,2,0,P|306:106|380:112,1,150.000005722046,2|0,0:0|0:0,0:0:0:0:
449,320,115187,6,0,L|370:314,1,75.0000028610231,2|0,0:0|0:0,0:0:0:0:
365,321,115449,1,2,0:0:0:0:
299,268,115623,1,2,0:0:0:0:
290,262,115710,1,2,0:0:0:0:
223,316,115885,2,0,L|144:310,1,75.0000028610231,2|0,0:0|0:0,0:0:0:0:
29,229,116234,2,0,L|104:235,1,75.0000028610231
256,142,116582,6,0,P|220:127|182:130,1,75.0000028610231,2|0,0:0|0:0,0:0:0:0:
174,133,116844,1,2,0:0:0:0:
114,71,117019,1,2,0:0:0:0:
105,65,117106,1,2,0:0:0:0:
189,27,117280,2,0,P|226:28|260:14,1,75.0000028610231,2|0,0:0|0:0,0:0:0:0:
333,61,117629,1,0,0:0:0:0:
415,36,117803,1,0,0:0:0:0:
507,121,117978,6,0,B|516:158|516:158|508:194,1,75.0000028610231,2|0,0:0|0:0,0:0:0:0:
501,204,118239,1,2,0:0:0:0:
415,156,118414,1,2,0:0:0:0:
426,156,118501,1,2,0:0:0:0:
447,271,118675,2,0,L|297:259,1,150.000005722046,2|0,0:0|0:0,0:0:0:0:
233,319,119199,1,0,0:0:0:0:
100,285,119373,6,0,P|85:249|88:211,1,75.0000028610231,2|0,0:0|0:0,0:0:0:0:
91,203,119635,1,2,0:0:0:0:
45,131,119809,1,2,0:0:0:0:
45,120,119896,1,2,0:0:0:0:
99,52,120071,2,0,P|168:22|242:28,1,150.000005722046,2|0,0:0|0:0,0:0:0:0:
427,73,120769,6,0,L|421:151,1,75.0000028610231,2|0,0:0|0:0,0:0:0:0:
428,157,121030,1,2,0:0:0:0:
375,223,121205,1,2,0:0:0:0:
369,232,121292,1,2,0:0:0:0:
428,365,121466,2,0,L|434:291,1,75.0000028610231,2|0,0:0|0:0,0:0:0:0:
295,276,121815,2,0,L|289:350,1,75.0000028610231,0|0,0:0|0:0,0:0:0:0:
171,353,122164,6,0,P|135:368|97:365,1,75.0000028610231,2|0,0:0|0:0,0:0:0:0:
89,362,122425,1,2,0:0:0:0:
33,295,122600,1,2,0:0:0:0:
24,301,122687,1,2,0:0:0:0:
80,222,122862,2,0,P|117:220|151:234,2,75.0000028610231,2|0|0,0:0|0:0|0:0,0:0:0:0:
284,216,123385,5,0,0:0:0:0:
214,16,123559,6,0,B|165:5|165:5|115:17,1,100,12|0,1:2|0:0,0:0:0:0:
154,151,123821,1,2,0:0:0:0:
163,143,123908,2,0,L|167:94,1,50,8|2,0:0|0:0,0:0:0:0:
44,63,124082,1,2,0:0:0:0:
105,228,124257,2,0,B|154:239|154:239|204:227,1,100,10|0,0:0|0:0,0:0:0:0:
296,44,124606,1,10,0:0:0:0:
373,277,124780,1,2,0:0:0:0:
373,277,124867,1,2,0:0:0:0:
373,277,124955,6,0,P|328:297|280:288,1,100,10|0,0:2|0:0,0:0:0:0:
306,154,125216,1,2,0:0:0:0:
315,162,125303,2,0,L|319:211,1,50,8|2,0:0|0:0,0:0:0:0:
332,384,125478,1,2,0:0:0:0:
110,308,125652,1,10,0:0:0:0:
280,288,125827,1,2,0:0:0:0:
152,233,126001,1,8,0:0:0:0:
138,212,126088,1,2,0:0:0:0:
131,188,126175,1,2,1:2:0:0:
132,163,126263,1,2,0:0:0:0:
141,139,126350,6,0,B|190:128|190:128|240:140,1,100,14|0,1:2|0:0,0:0:0:0:
304,197,126612,1,2,0:0:0:0:
320,195,126699,1,8,0:0:0:0:
337,194,126786,1,2,0:0:0:0:
353,192,126873,1,2,0:0:0:0:
512,126,127048,2,0,B|463:114|463:114|414:125,1,100,10|0,0:0|0:0,0:0:0:0:
247,266,127396,1,8,0:0:0:0:
461,301,127571,1,2,1:2:0:0:
461,301,127658,1,2,0:0:0:0:
461,301,127745,6,0,P|481:256|472:208,1,100,10|0,0:2|0:0,0:0:0:0:
421,142,128007,1,2,0:0:0:0:
414,125,128094,1,8,0:0:0:0:
410,108,128181,1,2,0:0:0:0:
411,91,128269,1,2,0:0:0:0:
211,73,128443,1,10,0:0:0:0:
352,28,128617,1,2,0:0:0:0:
241,154,128792,1,8,0:0:0:0:
220,168,128879,1,2,0:0:0:0:
196,175,128966,1,2,1:2:0:0:
171,174,129053,1,2,0:0:0:0:
147,165,129141,6,0,P|102:145|54:154,1,100,14|0,1:2|0:0,0:0:0:0:
32,317,129489,1,8,0:0:0:0:
53,331,129577,1,2,0:0:0:0:
77,338,129664,1,2,0:0:0:0:
102,337,129751,1,2,0:0:0:0:
126,328,129838,6,0,P|171:308|219:317,1,100,10|2,0:0|0:0,0:0:0:0:
440,355,130187,1,8,0:0:0:0:
419,369,130274,1,2,0:0:0:0:
395,376,130362,1,2,1:2:0:0:
370,375,130449,1,2,0:0:0:0:
346,366,130536,1,14,1:2:0:0:
376,185,130710,5,2,0:0:0:0:
351,187,130798,1,2,0:0:0:0:
326,190,130885,1,8,0:0:0:0:
254,85,131059,1,2,1:2:0:0:
256,110,131146,1,2,0:0:0:0:
259,135,131234,1,10,1:2:0:0:
144,198,131408,1,2,0:0:0:0:
169,196,131495,1,2,0:0:0:0:
194,193,131582,1,8,0:0:0:0:
266,298,131757,1,2,1:2:0:0:
264,273,131844,1,0,0:0:0:0:
261,248,131931,5,0,1:0:0:0:
271,240,132019,1,2,0:0:0:0:
281,234,132106,1,0,1:0:0:0:
293,230,132193,1,2,0:0:0:0:
306,228,132280,1,0,1:0:0:0:
318,227,132367,1,2,0:0:0:0:
330,228,132455,1,0,1:0:0:0:
342,232,132542,1,2,0:0:0:0:
354,237,132629,5,0,1:0:0:0:
381,195,132716,1,0,1:0:0:0:
385,146,132803,1,0,1:0:0:0:
364,101,132891,1,0,1:0:0:0:
324,72,132978,1,0,1:0:0:0:
275,66,133065,1,0,1:0:0:0:
229,85,133152,1,0,1:0:0:0:
199,124,133239,1,0,1:0:0:0:
191,173,133327,6,0,P|167:185|140:182,1,50,0|0,1:0|0:0,0:0:0:0:
77,131,133501,2,0,P|53:118|26:121,3,50,2|0|0|0,0:0|0:0|0:0|0:0,0:0:0:0:
20,127,133850,6,0,L|24:176,1,50,2|0,0:0|0:0,0:0:0:0:
80,241,134024,2,0,L|84:290,1,50,8|0,0:0|0:0,0:0:0:0:
28,357,134199,1,2,0:0:0:0:
319,326,134373,6,0,L|270:330,1,50,8|0,0:0|0:0,0:0:0:0:
184,338,134548,1,0,1:0:0:0:
260,42,134722,6,0,P|325:8|394:25,1,145.000004425049,4|0,1:2|0:0,0:0:0:0:
362,189,134984,1,2,0:0:0:0:
350,180,135071,2,0,P|335:147|336:111,1,72.5000022125245,8|0,0:0|0:0,0:0:0:0:
100,48,135245,5,2,0:0:0:0:
59,107,135332,1,2,0:0:0:0:
46,177,135420,1,2,1:2:0:0:
63,247,135507,1,2,0:0:0:0:
107,304,135594,1,2,0:0:0:0:
171,337,135681,1,2,0:0:0:0:
243,341,135769,1,10,0:0:0:0:
263,270,135856,1,2,0:0:0:0:
256,199,135943,1,2,0:0:0:0:
221,135,136030,1,2,0:0:0:0:
162,94,136117,6,0,P|225:57|295:70,1,145.000004425049,0|0,1:0|0:0,0:0:0:0:
459,149,136379,1,2,0:0:0:0:
449,136,136466,2,0,P|416:121|381:123,1,72.5000022125245,8|0,0:0|0:0,0:0:0:0:
372,287,136641,5,2,0:0:0:0:
313,328,136728,1,2,0:0:0:0:
243,341,136815,1,2,1:2:0:0:
173,324,136902,1,2,0:0:0:0:
116,280,136989,1,2,0:0:0:0:
83,216,137077,1,2,0:0:0:0:
79,144,137164,6,0,B|149:125|149:125|219:141,1,145.000004425049,10|0,0:0|0:0,0:0:0:0:
317,85,137425,1,2,0:0:0:0:
302,78,137513,6,0,P|265:141|278:211,1,145.000004425049,0|0,1:0|0:0,0:0:0:0:
431,187,137774,1,2,0:0:0:0:
435,169,137862,2,0,P|402:154|367:157,1,72.5000022125245,8|0,0:0|0:0,0:0:0:0:
177,229,138036,1,2,0:0:0:0:
177,229,138123,1,2,0:0:0:0:
177,229,138210,2,0,P|116:265|46:254,1,145.000004425049,2|0,1:2|0:0,0:0:0:0:
68,100,138472,1,2,0:0:0:0:
83,93,138559,2,0,P|97:127|97:163,1,72.5000022125245,10|0,0:0|0:0,0:0:0:0:
274,349,138734,1,2,0:0:0:0:
274,349,138821,1,2,0:0:0:0:
274,349,138908,6,0,B|293:279|293:279|277:209,1,145.000004425049,0|0,1:0|0:0,0:0:0:0:
382,119,139170,1,2,0:0:0:0:
389,132,139257,2,0,L|383:205,1,72.5000022125245,8|0,0:0|0:0,0:0:0:0:
177,229,139431,1,2,0:0:0:0:
177,229,139519,1,2,0:0:0:0:
177,229,139606,2,0,L|189:80,1,145.000004425049,2|0,1:2|0:0,0:0:0:0:
263,12,139867,1,2,0:0:0:0:
263,12,139955,5,10,0:0:0:0:
382,365,140129,1,0,1:0:0:0:
97,162,140303,6,0,P|162:128|231:145,1,145.000004425049,4|0,1:2|0:0,0:0:0:0:
199,309,140565,1,2,0:0:0:0:
187,300,140652,2,0,P|172:267|173:231,1,72.5000022125245,8|0,0:0|0:0,0:0:0:0:
189,84,140827,5,2,0:0:0:0:
248,43,140914,1,2,0:0:0:0:
318,30,141001,1,2,1:2:0:0:
388,47,141088,1,2,0:0:0:0:
445,91,141175,1,2,0:0:0:0:
478,155,141263,1,2,0:0:0:0:
483,227,141350,1,10,0:0:0:0:
419,260,141437,1,2,0:0:0:0:
347,270,141524,1,2,0:0:0:0:
278,246,141612,1,2,0:0:0:0:
225,197,141699,6,0,P|155:185|93:220,1,145.000004425049,0|0,1:0|0:0,0:0:0:0:
171,368,141960,1,2,0:0:0:0:
185,357,142048,2,0,P|185:320|172:286,1,72.5000022125245,8|0,0:0|0:0,0:0:0:0:
371,176,142222,5,2,0:0:0:0:
325,120,142309,1,2,0:0:0:0:
261,86,142396,1,2,1:2:0:0:
189,84,142484,1,2,0:0:0:0:
121,111,142571,1,2,0:0:0:0:
72,163,142658,1,2,0:0:0:0:
49,231,142745,6,0,B|119:250|119:250|189:234,1,145.000004425049,10|0,0:0|0:0,0:0:0:0:
487,272,143094,6,0,B|417:253|417:253|347:269,1,145.000004425049,0|0,1:0|0:0,0:0:0:0:
185,331,143443,5,0,1:0:0:0:
189,233,143530,1,0,1:0:0:0:
192,134,143617,2,0,L|194:90,3,36.2500011062622,0|0|0|0,1:0|0:0|0:0|0:0,0:0:0:0:
188,86,143792,6,0,P|237:20|274:93,1,200,0|0,1:0|0:0,0:0:0:0:
428,179,144053,2,0,P|379:246|342:172,1,200,0|0,1:0|0:0,0:0:0:0:
416,40,144315,6,0,P|378:58|412:82,1,100,0|0,1:0|0:0,0:0:0:0:
189,233,144489,2,0,P|226:214|192:190,1,100,4|0,1:2|0:0,0:0:0:0:
98,160,144664,5,2,0:0:0:0:
98,160,144751,1,2,0:0:0:0:
98,160,144838,1,2,0:0:0:0:
27,235,145013,1,2,0:0:0:0:
27,235,145100,1,2,0:0:0:0:
27,235,145187,6,0,P|19:271|26:307,1,72.5000022125245,2|2,1:2|0:0,0:0:0:0:
339,268,145362,2,0,P|346:231|339:195,1,72.5000022125245,2|2,1:2|0:0,0:0:0:0:
230,221,145536,5,2,0:0:0:0:
215,244,145623,1,2,0:0:0:0:
239,280,145710,1,2,1:2:0:0:
199,319,145798,1,2,1:2:0:0:
263,364,145885,6,0,P|332:379|394:345,1,145.000004425049,0|0,1:0|0:0,0:0:0:0:
341,198,146146,1,2,0:0:0:0:
328,206,146234,2,0,P|315:240|319:276,1,72.5000022125245,8|0,0:0|0:0,0:0:0:0:
495,86,146408,1,2,0:0:0:0:
495,86,146495,1,2,0:0:0:0:
495,86,146582,2,0,P|425:70|363:104,1,145.000004425049,2|0,1:2|0:0,0:0:0:0:
417,252,146844,1,2,0:0:0:0:
429,243,146931,2,0,P|441:209|438:173,1,72.5000022125245,10|0,0:0|0:0,0:0:0:0:
288,41,147106,1,2,0:0:0:0:
288,41,147193,1,2,0:0:0:0:
288,41,147280,6,0,L|139:29,1,145.000004425049,0|0,1:2|0:0,0:0:0:0:
24,128,147542,1,2,0:0:0:0:
37,135,147629,2,0,L|110:129,1,72.5000022125245,8|0,0:0|0:0,0:0:0:0:
78,247,147803,5,2,0:0:0:0:
137,290,147891,1,2,0:0:0:0:
208,302,147978,1,2,1:2:0:0:
278,286,148065,1,2,0:0:0:0:
335,242,148152,1,2,0:0:0:0:
368,178,148239,1,2,0:0:0:0:
372,106,148327,6,0,B|442:87|442:87|512:103,1,145.000004425049,10|2,0:0|0:0,0:0:0:0:
477,251,148588,1,2,0:0:0:0:
466,261,148675,6,0,P|397:276|335:242,1,145.000004425049,0|0,1:0|0:0,0:0:0:0:
260,167,148937,1,2,0:0:0:0:
249,156,149024,2,0,P|213:152|179:165,1,72.5000022125245,8|0,0:0|0:0,0:0:0:0:
132,259,149199,1,2,0:0:0:0:
132,259,149286,1,2,0:0:0:0:
132,259,149373,2,0,P|63:274|1:240,1,145.000004425049,2|0,1:2|0:0,0:0:0:0:
44,46,149635,1,2,0:0:0:0:
89,102,149722,2,0,P|92:138|80:172,1,72.5000022125245,10|0,0:0|0:0,0:0:0:0:
183,362,149896,1,2,0:0:0:0:
183,362,149984,1,2,0:0:0:0:
183,362,150071,6,0,B|253:381|253:381|323:365,1,145.000004425049,0|0,1:0|0:0,0:0:0:0:
506,353,150332,1,2,0:0:0:0:
466,290,150420,2,0,B|430:282|430:282|396:292,1,72.5000022125245,8|0,0:0|0:0,0:0:0:0:
306,243,150594,1,2,0:0:0:0:
299,171,150681,1,2,0:0:0:0:
292,99,150769,5,2,1:2:0:0:
255,55,150856,1,2,0:0:0:0:
211,92,150943,1,2,0:0:0:0:
174,48,151030,1,2,0:0:0:0:
130,85,151117,6,0,B|122:120|122:120|131:155,1,72.5000022125245,10|0,0:0|0:0,0:0:0:0:
340,70,151292,2,0,B|349:35|349:35|341:0,1,72.5000022125245,2|2,1:2|0:0,0:0:0:0:
60,231,151466,6,0,P|45:300|79:362,1,145.000004425049,0|0,1:0|0:0,0:0:0:0:
226,309,151728,1,2,0:0:0:0:
218,296,151815,2,0,P|184:283|148:287,1,72.5000022125245,8|0,0:0|0:0,0:0:0:0:
346,328,151989,5,2,0:0:0:0:
388,268,152077,1,2,0:0:0:0:
400,197,152164,1,2,1:2:0:0:
383,128,152251,1,2,0:0:0:0:
340,70,152338,1,2,0:0:0:0:
276,37,152425,1,2,0:0:0:0:
204,33,152513,6,0,B|185:103|185:103|201:173,1,145.000004425049,10|0,0:0|0:0,0:0:0:0:
96,348,152774,1,2,0:0:0:0:
88,335,152862,6,0,L|100:186,1,145.000004425049,4|0,1:2|0:0,0:0:0:0:
37,22,153123,1,2,0:0:0:0:
30,35,153210,2,0,L|36:108,1,72.5000022125245,8|0,0:0|0:0,0:0:0:0:
194,276,153385,5,2,0:0:0:0:
252,319,153472,1,2,0:0:0:0:
323,331,153559,1,2,1:2:0:0:
392,314,153646,1,2,0:0:0:0:
450,271,153734,1,2,0:0:0:0:
483,207,153821,1,2,0:0:0:0:
487,135,153908,6,0,B|417:116|417:116|347:132,1,145.000004425049,10|2,0:0|0:0,0:0:0:0:
88,335,154257,5,0,1:0:0:0:
221,29,154431,1,0,1:0:0:0:
372,344,154606,5,0,1:0:0:0:
248,340,154693,1,0,1:0:0:0:
124,336,154780,2,0,L|69:333,3,36.2500011062622,0|0|0|0,1:0|0:0|0:0|0:0,0:0:0:0:
77,344,154955,6,0,P|11:295|84:258,1,200,0|0,1:0|0:0,0:0:0:0:
190,126,155216,2,0,P|256:176|180:210,1,200,0|0,1:0|0:0,0:0:0:0:
108,26,155478,2,0,P|70:42|103:67,1,100,0|0,1:0|0:0,0:0:0:0:
270,15,155652,6,0,B|330:1|330:1|391:17,1,125,0|0,1:0|0:0,0:0:0:0:
458,79,155914,1,2,0:0:0:0:
458,79,156001,1,2,0:0:0:0:
409,286,156175,2,0,L|403:223,1,62.5,0|0,1:0|0:0,0:0:0:0:
396,138,156350,1,2,0:0:0:0:
180,210,156524,5,0,1:0:0:0:
173,282,156612,1,0,1:0:0:0:
166,354,156699,1,0,1:0:0:0:
187,138,156873,1,0,1:0:0:0:
338,358,157048,6,0,B|409:374|409:374|482:354,1,150.000005722046,0|2,1:0|0:0,0:0:0:0:
505,253,157309,1,2,0:0:0:0:
512,178,157396,1,8,0:0:0:0:
487,107,157484,1,2,0:0:0:0:
436,52,157571,1,2,0:0:0:0:
367,23,157658,1,2,0:0:0:0:
292,25,157745,2,0,B|220:41|220:41|147:21,1,150.000005722046,2|0,1:2|0:0,0:0:0:0:
64,81,158007,1,2,0:0:0:0:
54,92,158094,6,0,L|61:166,1,75.0000028610231,10|0,0:0|0:0,0:0:0:0:
146,311,158269,2,0,L|139:237,1,75.0000028610231,2|0,0:0|0:0,0:0:0:0:
220,96,158443,5,0,1:0:0:0:
385,160,158617,1,2,0:0:0:0:
373,169,158705,2,0,L|299:162,1,75.0000028610231,2|8,0:0|0:0,0:0:0:0:
139,237,158879,1,2,0:0:0:0:
150,227,158966,2,0,L|224:234,1,75.0000028610231,2|0,0:0|0:0,0:0:0:0:
440,307,159141,2,0,B|369:291|369:291|296:311,1,150.000005722046,2|0,1:2|0:0,0:0:0:0:
204,360,159402,1,2,0:0:0:0:
193,370,159489,2,0,B|121:386|121:386|48:366,1,150.000005722046,10|0,0:0|0:0,0:0:0:0:
57,81,159838,6,0,B|102:60|102:60|206:75,1,150.000005722046,0|0,1:0|0:0,0:0:0:0:
274,147,160100,1,2,0:0:0:0:
347,164,160187,1,8,0:0:0:0:
421,151,160274,1,2,0:0:0:0:
484,109,160362,2,0,B|493:73|493:73|484:37,1,75.0000028610231,2|2,0:0|0:0,0:0:0:0:
272,2,160536,1,2,1:2:0:0:
201,74,160710,1,2,0:0:0:0:
201,74,160798,1,2,0:0:0:0:
201,74,160885,6,0,L|193:148,1,75.0000028610231,10|0,0:0|0:0,0:0:0:0:
115,299,161059,2,0,L|123:225,1,75.0000028610231,2|0,0:0|0:0,0:0:0:0:
96,7,161234,5,0,1:0:0:0:
0,110,161408,1,2,0:0:0:0:
10,118,161495,2,0,L|85:111,1,75.0000028610231,2|8,0:0|0:0,0:0:0:0:
122,225,161670,1,2,0:0:0:0:
111,215,161757,2,0,L|36:222,1,75.0000028610231,2|2,0:0|0:0,0:0:0:0:
169,318,161931,2,0,B|242:338|242:338|313:321,1,150.000005722046,2|0,1:2|0:0,0:0:0:0:
402,34,162280,5,10,0:0:0:0:
122,225,162455,1,2,1:2:0:0:
459,271,162629,6,0,B|475:199|475:199|455:126,1,150.000005722046,0|2,1:0|0:0,0:0:0:0:
402,34,162891,1,2,0:0:0:0:
327,27,162978,1,8,0:0:0:0:
256,52,163065,1,2,0:0:0:0:
201,103,163152,1,2,0:0:0:0:
172,171,163239,1,2,0:0:0:0:
174,247,163327,2,0,B|245:263|245:263|318:243,1,150.000005722046,2|0,1:2|0:0,0:0:0:0:
420,261,163588,1,2,0:0:0:0:
430,272,163675,6,0,L|422:346,1,75.0000028610231,10|0,0:0|0:0,0:0:0:0:
512,208,163850,2,0,L|504:133,1,75.0000028610231,2|0,0:0|0:0,0:0:0:0:
406,0,164024,5,0,1:0:0:0:
339,81,164199,1,2,0:0:0:0:
327,90,164286,2,0,L|252:82,1,75.0000028610231,2|8,0:0|0:0,0:0:0:0:
93,15,164460,1,2,0:0:0:0:
103,4,164548,2,0,L|178:12,1,75.0000028610231,2|2,0:0|0:0,0:0:0:0:
211,178,164722,2,0,B|227:249|227:249|207:322,1,150.000005722046,2|2,1:2|0:0,0:0:0:0:
105,327,164984,1,2,0:0:0:0:
95,316,165071,2,0,B|78:244|78:244|98:171,1,150.000005722046,10|0,0:0|0:0,0:0:0:0:
414,21,165420,6,0,B|433:93|433:93|417:165,1,150.000005722046,0|0,1:0|0:0,0:0:0:0:
456,338,165769,5,0,1:0:0:0:
356,334,165856,1,0,1:0:0:0:
257,331,165943,2,0,L|220:329,3,37.5000014305115,0|0|0|0,1:0|0:0|0:0|0:0,0:0:0:0:
206,323,166117,6,0,P|129:289|195:239,1,200,0|0,1:0|0:0,0:0:0:0:
316,144,166379,1,0,1:0:0:0:
321,187,166466,6,0,P|283:169|317:145,1,100,8|0,0:0|0:0,0:0:0:0:
427,114,166641,2,0,P|465:96|432:72,1,100,0|0,1:0|0:0,0:0:0:0:
207,3,166815,5,2,1:2:0:0:
149,66,166989,1,2,0:0:0:0:
153,81,167077,1,2,0:0:0:0:
99,150,167251,1,2,0:0:0:0:
103,165,167338,1,2,0:0:0:0:
252,331,167513,5,2,1:2:0:0:
207,3,167687,1,2,1:2:0:0:
315,107,167862,5,2,0:0:0:0:
338,92,167949,1,2,0:0:0:0:
374,116,168036,1,2,1:2:0:0:
413,76,168123,1,2,1:2:0:0:
458,140,168210,6,0,B|479:185|479:185|464:289,1,150.000005722046,0|2,1:0|0:0,0:0:0:0:
384,350,168472,1,2,0:0:0:0:
311,367,168559,1,8,0:0:0:0:
237,354,168646,1,2,0:0:0:0:
175,311,168734,2,0,B|166:275|166:275|175:239,1,75.0000028610231,2|2,0:0|0:0,0:0:0:0:
210,35,168908,1,2,1:2:0:0:
231,143,169082,1,2,0:0:0:0:
231,143,169170,1,2,0:0:0:0:
231,143,169257,6,0,L|157:135,1,75.0000028610231,10|0,0:0|0:0,0:0:0:0:
6,57,169431,2,0,L|80:65,1,75.0000028610231,2|0,0:0|0:0,0:0:0:0:
325,75,169606,5,0,1:0:0:0:
417,151,169780,1,2,0:0:0:0:
425,161,169867,2,0,L|418:236,1,75.0000028610231,2|8,0:0|0:0,0:0:0:0:
327,365,170042,1,2,0:0:0:0:
317,354,170129,2,0,L|324:279,1,75.0000028610231,2|0,0:0|0:0,0:0:0:0:
233,0,170303,2,0,B|213:73|213:73|230:144,1,150.000005722046,2|0,1:2|0:0,0:0:0:0:
166,362,170652,1,10,0:0:0:0:
163,325,170739,1,2,0:0:0:0:
159,288,170827,1,2,0:0:0:0:
155,251,170914,1,2,0:0:0:0:
151,213,171001,6,0,B|80:197|80:197|7:217,1,150.000005722046,0|0,1:0|0:0,0:0:0:0:
77,142,171263,1,2,0:0:0:0:
152,135,171350,1,8,0:0:0:0:
223,160,171437,1,2,0:0:0:0:
278,211,171524,1,2,0:0:0:0:
307,280,171612,1,2,0:0:0:0:
305,355,171699,2,0,B|376:371|376:371|449:351,1,150.000005722046,2|2,1:2|0:0,0:0:0:0:
479,251,171960,1,2,0:0:0:0:
469,240,172048,6,0,L|477:166,1,75.0000028610231,10|0,0:0|0:0,0:0:0:0:
389,23,172222,2,0,L|397:98,1,75.0000028610231,2|0,0:0|0:0,0:0:0:0:
307,279,172396,5,0,1:0:0:0:
243,112,172571,1,2,0:0:0:0:
234,124,172658,2,0,L|242:199,1,75.0000028610231,2|8,0:0|0:0,0:0:0:0:
134,274,172832,1,2,0:0:0:0:
145,264,172920,2,0,L|137:189,1,75.0000028610231,2|2,0:0|0:0,0:0:0:0:
57,60,173094,5,2,1:2:0:0:
14,314,173269,1,0,1:0:0:0:
241,198,173443,5,10,0:0:0:0:
278,201,173530,1,2,0:0:0:0:
315,205,173617,1,2,1:2:0:0:
352,209,173705,1,2,0:0:0:0:
390,213,173792,1,0,1:0:0:0:
307,309,173966,1,2,0:0:0:0:
297,99,174141,5,8,0:0:0:0:
260,96,174228,1,2,0:0:0:0:
223,92,174315,1,2,0:0:0:0:
186,88,174402,1,2,0:0:0:0:
148,84,174489,1,2,1:2:0:0:
350,9,174664,1,2,0:0:0:0:
484,167,174838,5,10,0:0:0:0:
481,204,174925,1,2,0:0:0:0:
477,241,175013,1,2,0:0:0:0:
473,278,175100,1,2,0:0:0:0:
469,316,175187,1,0,1:0:0:0:
288,372,175362,5,2,0:0:0:0:
282,310,175449,1,2,0:0:0:0:
275,249,175536,1,8,0:0:0:0:
193,39,175710,1,2,0:0:0:0:
199,101,175798,1,2,0:0:0:0:
206,162,175885,1,2,1:2:0:0:
16,255,176059,1,2,0:0:0:0:
78,249,176146,1,2,0:0:0:0:
139,242,176234,1,10,0:0:0:0:
464,158,176408,1,2,0:0:0:0:
402,164,176495,1,2,0:0:0:0:
341,171,176582,5,0,1:0:0:0:
331,158,176670,1,2,0:0:0:0:
323,146,176757,1,2,0:0:0:0:
318,131,176844,1,2,0:0:0:0:
316,114,176931,1,0,1:0:0:0:
314,99,177019,1,0,1:0:0:0:
316,84,177106,1,0,1:0:0:0:
321,69,177193,1,0,1:0:0:0:
327,54,177280,5,0,1:0:0:0:
263,13,177367,1,2,0:0:0:0:
188,6,177455,1,2,0:0:0:0:
119,39,177542,1,0,1:0:0:0:
74,100,177629,1,8,0:0:0:0:
65,175,177716,1,2,0:0:0:0:
94,245,177803,1,0,1:0:0:0:
154,291,177891,1,2,0:0:0:0:
229,303,177978,6,0,P|266:303|299:287,1,75.0000028610231,2|0,1:2|0:0,0:0:0:0:
363,206,178152,1,2,0:0:0:0:
377,193,178239,2,0,P|414:192|447:208,1,75.0000028610231,2|0,0:0|0:0,0:0:0:0:
314,113,178414,1,2,0:0:0:0:
300,100,178501,2,0,P|262:99|229:115,1,75.0000028610231,2|0,0:0|0:0,0:0:0:0:
186,208,178675,1,2,0:2:0:0:
438,37,178850,6,0,B|447:73|447:73|438:109,1,75.0000028610231,2|0,1:2|0:0,0:0:0:0:
377,193,179024,1,2,0:2:0:0:
122,48,179199,2,0,B|113:84|113:84|122:120,1,75.0000028610231,2|0,1:2|0:2,0:0:0:0:
186,208,179373,6,0,B|206:248|206:248|198:316,1,115.000002193451,4|0,1:2|0:0,0:0:0:0:
95,321,179635,1,2,0:0:0:0:
95,321,179722,2,0,L|100:265,1,57.5000010967255,8|0,0:0|0:0,0:0:0:0:
30,188,179896,1,2,0:0:0:0:
304,246,180071,1,2,1:2:0:0:
292,136,180245,1,2,0:0:0:0:
314,355,180420,1,8,0:0:0:0:
501,227,180594,1,2,0:0:0:0:
501,227,180681,1,2,0:0:0:0:
501,227,180769,5,2,1:2:0:0:
490,336,180943,1,2,0:0:0:0:
512,117,181117,2,0,P|455:91|391:98,1,115.000002193451,8|0,0:0|0:0,0:0:0:0:
304,246,181466,1,2,1:2:0:0:
292,136,181641,1,2,0:0:0:0:
314,355,181815,2,0,P|258:379|193:371,1,115.000002193451,8|0,0:0|0:0,0:0:0:0:
66,180,182164,6,0,B|107:158|107:158|178:166,1,115.000002193451,0|0,1:2|0:0,0:0:0:0:
304,246,182425,1,2,0:0:0:0:
304,246,182513,2,0,L|245:241,1,57.5000010967255,8|0,0:0|0:0,0:0:0:0:
124,265,182687,1,2,0:0:0:0:
359,115,182862,1,2,1:2:0:0:
259,104,183036,1,2,0:0:0:0:
460,124,183210,1,8,0:0:0:0:
369,340,183385,1,2,0:0:0:0:
369,340,183472,1,2,0:0:0:0:
369,340,183559,5,2,1:2:0:0:
469,330,183734,1,2,0:0:0:0:
268,350,183908,1,8,0:0:0:0:
359,115,184082,1,2,0:0:0:0:
359,115,184170,1,2,0:0:0:0:
359,115,184257,2,0,P|365:58|342:6,1,115.000002193451,2|2,1:2|0:0,0:0:0:0:
113,76,184606,5,8,1:2:0:0:
116,79,184780,1,0,1:0:0:0:
36,296,184955,6,0,B|79:318|79:318|155:309,1,115.000002193451,0|0,1:2|0:0,0:0:0:0:
205,229,185216,1,2,0:0:0:0:
205,229,185303,2,0,L|270:223,1,57.5000010967255,8|0,0:0|0:0,0:0:0:0:
340,292,185478,1,2,0:0:0:0:
399,108,185652,1,2,1:2:0:0:
409,214,185827,1,2,0:0:0:0:
387,1,186001,1,8,0:0:0:0:
215,128,186175,1,2,0:0:0:0:
215,128,186263,1,2,0:0:0:0:
215,128,186350,5,2,1:2:0:0:
205,229,186524,1,2,0:0:0:0:
227,21,186699,2,0,P|171:-4|110:3,1,115.000002193451,8|0,0:0|0:0,0:0:0:0:
413,122,187048,1,2,1:2:0:0:
401,15,187222,1,2,0:0:0:0:
423,228,187396,2,0,P|367:253|306:245,1,115.000002193451,8|0,0:0|0:0,0:0:0:0:
142,97,187745,6,0,P|140:116|140:97,1,57.5000010967255,0|0,1:2|0:0,0:0:0:0:
42,196,187920,5,2,0:0:0:0:
42,196,188094,2,0,P|62:198|42:198,1,57.5000010967255,8|0,0:0|0:0,0:0:0:0:
145,295,188269,5,2,0:0:0:0:
145,295,188356,1,2,0:0:0:0:
145,295,188443,2,0,P|149:276|149:293,1,57.5000010967255,2|0,1:2|0:0,0:0:0:0:
230,197,188617,5,2,0:0:0:0:
230,197,188705,1,0,1:0:0:0:
230,198,188792,6,0,P|267:159|310:190,1,115.000002193451,8|0,0:0|0:0,0:0:0:0:
309,189,188966,2,0,P|273:228|230:197,1,115.000002193451,2|0,1:2|0:0,0:0:0:0:
365,87,189141,6,0,P|416:71|476:81,1,115.000002193451,2|0,1:2|0:0,0:0:0:0:
498,187,189402,1,2,0:0:0:0:
498,187,189489,6,0,P|514:242|504:298,1,115.000002193451,2|0,0:0|0:0,0:0:0:0:
504,298,189664,2,0,P|449:285|406:248,1,115.000002193451,2|0,0:0|0:0,0:0:0:0:
406,248,189838,2,0,P|446:207|500:189,1,115.000002193451,2|0,1:2|0:0,0:0:0:0:
326,334,190013,6,0,P|289:373|246:342,1,115.000002193451,2|0,1:2|0:0,0:0:0:0:
247,343,190187,2,0,P|283:304|326:335,1,115.000002193451,2|0,0:2|0:0,0:0:0:0:
112,198,190362,5,0,1:0:0:0:
103,126,190449,1,0,1:0:0:0:
101,54,190536,6,0,B|141:33|141:33|209:41,1,115.000002193451,4|0,1:2|0:0,0:0:0:0:
302,100,190798,1,2,0:0:0:0:
302,100,190885,2,0,L|297:162,1,57.5000010967255,8|0,0:0|0:0,0:0:0:0:
389,36,191059,1,2,0:0:0:0:
291,261,191234,1,2,1:2:0:0:
393,271,191408,1,2,0:0:0:0:
189,251,191582,1,8,0:0:0:0:
398,147,191757,1,2,0:0:0:0:
398,147,191844,1,2,0:0:0:0:
398,147,191931,5,2,1:2:0:0:
297,157,192106,1,2,0:0:0:0:
501,136,192280,2,0,P|506:79|482:27,1,115.000002193451,8|0,0:0|0:0,0:0:0:0:
291,261,192629,1,2,1:2:0:0:
393,271,192803,1,2,0:0:0:0:
189,251,192978,1,8,0:0:0:0:
172,225,193065,1,2,0:0:0:0:
163,196,193152,1,2,0:0:0:0:
163,168,193239,1,2,0:0:0:0:
172,139,193327,6,0,B|130:117|130:117|58:125,1,115.000002193451,0|0,1:2|0:0,0:0:0:0:
28,27,193588,1,2,0:0:0:0:
28,27,193675,2,0,L|87:20,1,57.5000010967255,8|0,0:0|0:0,0:0:0:0:
188,14,193850,1,2,0:0:0:0:
71,227,194024,1,2,1:2:0:0:
62,125,194199,1,2,0:0:0:0:
82,329,194373,1,8,0:0:0:0:
294,258,194548,1,2,0:0:0:0:
294,258,194635,1,2,0:0:0:0:
294,258,194722,5,2,1:2:0:0:
285,360,194896,1,2,0:0:0:0:
305,156,195071,1,8,0:0:0:0:
71,227,195245,1,2,0:0:0:0:
71,227,195332,1,2,0:0:0:0:
71,227,195420,1,2,1:2:0:0:
62,125,195594,1,2,0:0:0:0:
294,258,195769,5,8,1:2:0:0:
322,267,195856,1,2,0:0:0:0:
351,267,195943,1,0,1:0:0:0:
380,258,196030,1,2,0:0:0:0:
406,241,196117,1,0,1:2:0:0:
452,333,196292,1,0,0:0:0:0:
283,154,196466,5,8,0:0:0:0:
255,145,196553,1,2,0:0:0:0:
226,145,196641,1,2,0:0:0:0:
197,154,196728,1,2,0:0:0:0:
171,171,196815,1,2,1:2:0:0:
125,79,196989,1,2,0:0:0:0:
51,292,197164,5,8,0:0:0:0:
79,301,197251,1,2,0:0:0:0:
108,301,197338,1,2,0:0:0:0:
137,292,197425,1,2,0:0:0:0:
163,275,197513,1,2,1:2:0:0:
283,154,197687,5,2,0:0:0:0:
279,121,197774,1,2,0:0:0:0:
274,87,197862,1,8,0:0:0:0:
366,218,198036,1,2,0:0:0:0:
399,214,198123,1,2,0:0:0:0:
433,209,198210,1,2,1:2:0:0:
302,299,198385,1,2,0:0:0:0:
306,332,198472,1,2,0:0:0:0:
311,366,198559,1,8,0:0:0:0:
218,236,198734,1,0,1:0:0:0:
185,240,198821,1,2,0:0:0:0:
150,245,198908,6,0,P|131:243|150:243,1,57.5000010967255,0|0,1:2|0:0,0:0:0:0:
73,141,199082,5,2,0:0:0:0:
73,141,199170,1,2,0:0:0:0:
73,141,199257,2,0,P|56:150|68:139,1,57.5000010967255,8|0,0:0|0:0,0:0:0:0:
59,345,199431,5,2,0:0:0:0:
59,345,199519,1,2,0:0:0:0:
59,345,199606,2,0,P|70:336|61:345,1,57.5000010967255,2|0,1:2|0:0,0:0:0:0:
308,308,199780,5,2,0:0:0:0:
308,308,199867,1,0,1:0:0:0:
308,308,199955,6,0,P|345:269|388:300,1,115.000002193451,8|0,0:0|0:0,0:0:0:0:
387,299,200129,2,0,P|351:338|308:307,1,115.000002193451,2|0,1:2|0:0,0:0:0:0:
303,157,200303,6,0,B|272:90|272:90|305:116|305:116|338:92|338:92|303:156,1,230.000004386902,2|0,1:2|0:0,0:0:0:0:
393,170,200565,1,2,0:0:0:0:
404,178,200652,6,0,L|478:172,1,75.0000028610231,2|0,0:0|0:0,0:0:0:0:
512,250,201001,1,2,0:2:0:0:
512,93,201175,1,2,0:2:0:0:
501,85,201263,2,0,L|427:91,1,75.0000028610231,2|0,0:2|0:0,0:0:0:0:
414,83,201524,1,0,1:0:0:0:
381,375,201699,5,4,1:2:0:0:
285,76,212862,6,0,B|372:55|347:97|432:74,2,150,2|2|2,0:0|0:0|0:0,0:0:0:0:
218,131,214257,2,0,B|131:152|156:110|71:133,2,150,2|2|2,0:0|0:0|0:0,0:0:0:0:
306,187,215652,5,2,0:0:0:0:
306,187,216175,1,2,0:0:0:0:
306,187,216699,1,2,0:0:0:0:
202,249,217048,5,2,0:0:0:0:
202,249,217571,1,2,0:0:0:0:
202,249,218094,1,2,0:0:0:0:
80,184,218443,5,2,0:0:0:0:
78,169,218966,1,2,0:0:0:0:
76,154,219489,1,2,0:0:0:0:
218,94,219838,5,2,0:0:0:0:
220,79,220362,1,2,0:0:0:0:
222,64,220885,1,2,0:0:0:0:
61,17,221234,5,2,0:0:0:0:
147,21,221582,1,2,0:0:0:0:
389,20,221931,5,2,0:0:0:0:
303,24,222280,1,2,0:0:0:0:
298,177,222629,6,0,B|281:140|281:140|299:154|299:154|317:142|317:142|298:176,1,125,2|0,0:0|0:0,0:0:0:0:
185,261,222978,6,0,B|168:224|168:224|186:238|186:238|204:226|204:226|185:260,1,125,2|0,0:0|0:0,0:0:0:0:
288,367,223327,6,0,B|271:330|271:330|289:344|289:344|307:332|307:332|288:366,1,125,2|0,0:0|0:0,0:0:0:0:
397,272,223675,6,0,B|380:235|380:235|398:249|398:249|416:237|416:237|397:271,1,125,2|0,0:0|1:0,0:0:0:0:
477,103,224024,6,0,P|441:88|403:91,1,75.0000028610231,4|0,0:0|0:0,0:0:0:0:
395,94,224286,1,2,0:0:0:0:
323,48,224460,1,2,0:0:0:0:
312,48,224548,1,2,0:0:0:0:
251,108,224722,2,0,P|182:78|108:84,1,150.000005722046,2|0,0:0|0:0,0:0:0:0:
27,301,225420,6,0,L|106:295,1,75.0000028610231,2|0,0:0|0:0,0:0:0:0:
111,302,225681,1,2,0:0:0:0:
177,249,225856,1,2,0:0:0:0:
186,243,225943,1,2,0:0:0:0:
253,297,226117,2,0,L|332:291,1,75.0000028610231,2|0,0:0|0:0,0:0:0:0:
396,239,226466,1,2,0:0:0:0:
295,376,226641,1,0,1:0:0:0:
219,110,226815,5,6,0:0:0:0:
295,150,226989,1,0,0:0:0:0:
304,156,227077,1,2,0:0:0:0:
377,110,227251,1,2,0:0:0:0:
386,104,227338,1,2,0:0:0:0:
263,36,227513,2,0,P|188:30|120:60,1,150.000005722046,2|0,0:0|0:0,0:0:0:0:
39,212,228036,1,0,1:0:0:0:
201,272,228210,6,0,B|231:241|206:186|150:159|95:218|98:288|113:339|162:367,1,300.000011444092,4|0,0:0|0:0,0:0:0:0:
373,281,228734,2,0,B|342:251|287:276|260:332|319:386|389:383|440:368|468:319,1,300.000011444092,4|0,0:0|0:0,0:0:0:0:
473,82,229257,5,4,1:2:0:0:
447,197,229431,1,0,1:0:0:0:
255,62,229606,6,0,B|218:53|218:53|182:61,1,75.0000028610231,6|0,1:2|0:0,0:0:0:0:
172,68,229867,1,2,0:0:0:0:
220,154,230042,1,2,0:0:0:0:
220,143,230129,1,2,0:0:0:0:
105,122,230303,2,0,L|117:272,1,150.000005722046,2|0,0:0|0:0,0:0:0:0:
396,319,231001,6,0,P|411:283|408:245,1,75.0000028610231,2|0,0:0|0:0,0:0:0:0:
405,237,231263,1,2,0:0:0:0:
451,165,231437,1,2,0:0:0:0:
451,154,231524,1,2,0:0:0:0:
403,82,231699,2,0,P|367:67|329:70,1,75.0000028610231,2|0,0:0|0:0,0:0:0:0:
269,297,232048,1,4,1:2:0:0:
356,153,232222,1,0,1:0:0:0:
109,156,232396,5,6,1:2:0:0:
74,234,232571,1,0,0:0:0:0:
80,243,232658,1,2,0:0:0:0:
137,321,232832,1,2,0:0:0:0:
143,312,232920,2,0,L|180:315,1,37.5000014305115,2|0,1:2|0:0,0:0:0:0:
398,246,233094,2,0,L|248:258,1,150.000005722046,6|0,1:2|0:0,0:0:0:0:
459,308,233617,1,0,1:0:0:0:
384,69,233792,5,6,1:2:0:0:
309,110,233966,1,0,0:0:0:0:
300,104,234053,1,2,0:0:0:0:
232,52,234228,1,2,0:0:0:0:
223,58,234315,1,2,0:0:0:0:
163,121,234489,2,0,P|88:127|20:97,1,150.000005722046,2|2,0:0|0:0,0:0:0:0:
13,107,234925,1,2,0:0:0:0:
7,117,235013,2,0,P|6:135|12:152,1,37.5000014305115,0|0,1:0|0:0,0:0:0:0:
151,332,235187,6,0,B|200:343|200:343|250:331,1,100,12|0,1:2|0:0,0:0:0:0:
211,197,235449,1,2,0:0:0:0:
202,205,235536,2,0,L|198:254,1,50,8|2,0:0|0:0,0:0:0:0:
321,285,235710,1,2,0:0:0:0:
260,120,235885,2,0,B|211:109|211:109|161:121,1,100,10|0,0:0|0:0,0:0:0:0:
76,292,236234,1,10,0:0:0:0:
211,197,236408,1,0,1:0:0:0:
39,53,236582,6,0,P|19:98|28:146,1,100,12|0,1:2|0:0,0:0:0:0:
162,120,236844,1,2,0:0:0:0:
154,111,236931,2,0,L|105:107,1,50,8|2,0:0|0:0,0:0:0:0:
89,207,237106,1,2,0:0:0:0:
250,116,237280,1,10,0:0:0:0:
116,20,237455,1,2,0:0:0:0:
207,246,237629,6,0,L|211:197,1,50,8|0,0:0|0:0,0:0:0:0:
319,10,237803,2,0,L|315:59,1,50,2|0,1:2|0:0,0:0:0:0:
512,245,237978,6,0,B|463:256|463:256|413:244,1,100,12|0,1:2|0:0,0:0:0:0:
349,187,238239,1,2,0:0:0:0:
333,189,238327,1,8,0:0:0:0:
316,190,238414,1,2,0:0:0:0:
300,192,238501,1,2,0:0:0:0:
413,341,238675,2,0,B|425:292|425:292|414:243,1,100,10|2,0:0|0:0,0:0:0:0:
374,104,239024,1,8,0:0:0:0:
342,293,239199,1,2,1:2:0:0:
205,152,239373,6,0,B|174:122|119:147|92:203|151:257|221:254|272:239|300:190,1,300.000011444092,8|8,1:2|0:0,0:0:0:0:
72,282,239896,6,0,P|70:306|79:328,1,50,2|0,1:2|0:0,0:0:0:0:
157,369,240071,1,10,1:2:0:0:
373,343,240245,1,2,1:2:0:0:
352,328,240332,1,0,1:2:0:0:
329,317,240420,1,8,1:2:0:0:
304,313,240507,1,2,1:2:0:0:
280,311,240594,1,2,1:2:0:0:
254,316,240681,1,2,1:2:0:0:
232,326,240769,6,0,B|221:277|221:277|233:227,1,100,14|0,1:2|0:0,0:0:0:0:
410,192,241117,1,8,1:2:0:0:
389,206,241205,1,2,1:2:0:0:
364,212,241292,1,2,1:2:0:0:
340,212,241379,1,0,1:2:0:0:
316,203,241466,6,0,B|327:154|327:154|315:104,1,100,10|2,0:0|0:0,0:0:0:0:
142,61,241815,1,8,1:2:0:0:
163,75,241902,1,2,1:2:0:0:
188,81,241989,1,2,1:2:0:0:
212,81,242077,1,2,1:2:0:0:
236,72,242164,2,0,B|241:47|241:47|235:22,1,50,14|0,1:2|0:0,0:0:0:0:
64,113,242338,5,0,1:2:0:0:
66,138,242425,1,2,1:2:0:0:
69,163,242513,1,8,1:2:0:0:
189,270,242687,1,2,1:2:0:0:
187,245,242774,1,0,1:2:0:0:
184,220,242862,2,0,B|159:214|159:214|134:220,1,50,10|0,1:2|0:0,0:0:0:0:
27,290,243036,1,2,1:2:0:0:
52,288,243123,1,0,1:2:0:0:
77,285,243210,1,8,1:2:0:0:
300,157,243385,1,2,1:2:0:0:
275,159,243472,1,0,1:0:0:0:
250,162,243559,5,0,1:0:0:0:
237,130,243646,1,0,1:0:0:0:
235,95,243734,1,0,1:0:0:0:
244,62,243821,1,0,1:0:0:0:
263,34,243908,1,0,1:0:0:0:
290,12,243995,1,0,1:0:0:0:
322,0,244082,1,0,1:0:0:0:
356,0,244170,1,0,1:0:0:0:
389,8,244257,1,0,1:0:0:0:
417,27,244344,1,0,1:0:0:0:
438,53,244431,1,0,1:0:0:0:
450,85,244519,1,0,1:0:0:0:
452,120,244606,1,0,1:0:0:0:
442,153,244693,1,0,1:0:0:0:
423,181,244780,1,0,1:0:0:0:
396,202,244867,1,0,1:0:0:0:
364,214,244955,5,2,1:2:0:0:
362,220,245042,1,2,0:2:0:0:
361,226,245129,1,2,0:2:0:0:
361,232,245216,1,2,0:2:0:0:
362,238,245303,1,2,0:2:0:0:
363,244,245391,1,2,0:2:0:0:
365,250,245478,1,2,0:2:0:0:
368,256,245565,1,2,0:2:0:0:
371,261,245652,2,0,P|373:285|364:307,1,50,8|0,0:2|0:2,0:2:0:0:
292,355,245827,1,2,0:2:0:0:
209,53,246001,5,8,0:0:0:0:
433,198,246175,1,0,1:0:0:0:
196,319,246350,1,4,1:2:0:0:
260,249,246524,5,2,0:0:0:0:
261,246,246612,1,2,0:0:0:0:
266,241,246699,1,2,0:0:0:0:
274,234,246786,1,2,0:0:0:0:
279,225,246873,1,2,0:0:0:0:
286,214,246960,1,2,0:0:0:0:
291,199,247048,1,2,0:0:0:0:
294,182,247135,1,2,0:0:0:0:
291,163,247222,1,2,0:0:0:0:
281,143,247309,1,2,0:0:0:0:
267,122,247396,1,2,0:0:0:0:
263,94,247484,1,2,0:0:0:0:
270,65,247571,1,2,0:0:0:0:
292,41,247658,1,2,0:0:0:0:
351,35,247745,5,2,1:2:0:0:
386,70,247832,1,2,1:2:0:0:
404,117,247920,1,2,1:2:0:0:
402,166,248007,1,2,1:2:0:0:
381,211,248094,5,2,1:2:0:0:
307,221,248181,1,2,1:2:0:0:
234,202,248269,1,2,1:2:0:0:
175,158,248356,1,2,1:2:0:0:
137,93,248443,5,2,1:2:0:0:
90,175,248530,1,2,1:2:0:0:
103,274,248617,1,2,1:2:0:0:
168,347,248705,1,2,1:2:0:0:
264,370,248792,6,0,B|281:333|281:333|263:347|263:347|245:335|245:335|264:369,1,125,2|0,0:0|1:0,0:0:0:0:
456,141,249141,6,0,P|391:107|322:124,1,145.000004425049,0|0,1:0|0:0,0:0:0:0:
354,288,249402,1,2,0:0:0:0:
366,279,249489,2,0,P|381:246|380:210,1,72.5000022125245,8|0,0:0|0:0,0:0:0:0:
234,84,249664,1,2,0:0:0:0:
234,84,249751,1,2,0:0:0:0:
234,84,249838,2,0,P|169:118|100:101,1,145.000004425049,2|0,1:2|0:0,0:0:0:0:
23,36,250100,1,2,0:0:0:0:
15,48,250187,2,0,P|0:81|1:117,1,72.5000022125245,10|0,0:0|0:0,0:0:0:0:
62,339,250362,1,2,0:0:0:0:
62,339,250449,1,2,0:0:0:0:
62,339,250536,6,0,B|81:269|81:269|65:199,1,145.000004425049,0|0,1:0|0:0,0:0:0:0:
185,294,250798,1,2,0:0:0:0:
178,307,250885,2,0,L|184:380,1,72.5000022125245,8|0,0:0|0:0,0:0:0:0:
424,334,251059,1,2,0:0:0:0:
424,334,251146,1,2,0:0:0:0:
424,334,251234,2,0,B|354:315|354:315|284:331,1,145.000004425049,2|0,1:2|0:0,0:0:0:0:
269,229,251495,1,2,0:0:0:0:
258,219,251582,2,0,B|248:184|248:184|256:149,1,72.5000022125245,10|0,0:0|0:0,0:0:0:0:
341,20,251757,2,0,B|351:55|351:55|343:90,1,72.5000022125245,0|0,1:0|0:0,0:0:0:0:
155,222,251931,6,0,P|86:237|24:204,1,145.000004425049,4|0,1:2|0:0,0:0:0:0:
74,57,252193,1,2,0:0:0:0:
85,65,252280,2,0,P|100:98|100:134,1,72.5000022125245,8|0,0:0|0:0,0:0:0:0:
78,293,252455,5,2,0:0:0:0:
137,334,252542,1,2,0:0:0:0:
207,347,252629,1,2,1:2:0:0:
277,330,252716,1,2,0:0:0:0:
334,286,252803,1,2,0:0:0:0:
367,222,252891,1,2,0:0:0:0:
370,149,252978,1,10,0:0:0:0:
300,130,253065,1,2,0:0:0:0:
229,137,253152,1,2,0:0:0:0:
165,172,253239,1,2,0:0:0:0:
124,231,253327,6,0,P|87:168|100:98,1,145.000004425049,0|0,1:0|0:0,0:0:0:0:
203,58,253588,1,2,0:0:0:0:
216,68,253675,2,0,P|231:101|229:136,1,72.5000022125245,8|0,0:0|0:0,0:0:0:0:
212,324,253850,5,2,0:0:0:0:
271,365,253937,1,2,0:0:0:0:
341,378,254024,1,2,1:2:0:0:
411,361,254112,1,2,0:0:0:0:
468,317,254199,1,2,0:0:0:0:
501,253,254286,1,2,0:0:0:0:
506,181,254373,1,10,0:0:0:0:
442,148,254460,1,2,0:0:0:0:
370,138,254548,1,2,0:0:0:0:
301,162,254635,1,2,0:0:0:0:
245,208,254722,6,0,B|175:227|175:227|105:211,1,145.000004425049,0|0,1:0|0:0,0:0:0:0:
366,14,255071,5,0,1:0:0:0:
370,138,255158,1,0,1:0:0:0:
374,262,255245,2,0,L|377:317,3,36.2500011062622,0|0|0|0,1:0|0:0|0:0|0:0,0:0:0:0:
366,305,255420,6,0,P|317:371|280:298,1,200,0|0,1:0|0:0,0:0:0:0:
104,210,255681,2,0,P|153:143|190:217,1,200,0|0,1:0|0:0,0:0:0:0:
8,63,255943,6,0,P|32:29|50:67,1,100,0|0,1:0|0:0,0:0:0:0:
50,318,256117,2,0,P|25:351|7:313,1,100,4|0,1:2|0:0,0:0:0:0:
0,190,256292,5,2,0:0:0:0:
0,190,256379,1,2,0:0:0:0:
0,190,256466,1,2,0:0:0:0:
104,210,256641,1,2,0:0:0:0:
104,210,256728,1,2,0:0:0:0:
104,210,256815,6,0,B|139:219|139:219|173:211,1,72.5000022125245,2|2,1:2|0:0,0:0:0:0:
320,41,256989,2,0,B|285:31|285:31|250:39,1,72.5000022125245,2|2,1:2|0:0,0:0:0:0:
348,169,257164,5,2,0:0:0:0:
371,154,257251,1,2,0:0:0:0:
407,178,257338,1,2,1:2:0:0:
446,138,257425,1,2,1:2:0:0:
491,202,257513,6,0,P|506:271|472:333,1,145.000004425049,0|0,1:0|0:0,0:0:0:0:
297,334,257774,1,2,0:0:0:0:
303,320,257862,2,0,P|336:305|372:306,1,72.5000022125245,8|0,0:0|0:0,0:0:0:0:
230,249,258036,1,2,0:0:0:0:
230,249,258123,1,2,0:0:0:0:
230,249,258210,2,0,P|167:214|98:229,1,145.000004425049,2|0,1:2|0:0,0:0:0:0:
0,119,258472,1,2,0:0:0:0:
11,108,258559,2,0,P|47:108|80:123,1,72.5000022125245,10|0,0:0|0:0,0:0:0:0:
246,135,258734,1,2,0:0:0:0:
246,135,258821,1,2,0:0:0:0:
246,135,258908,6,0,L|395:123,1,145.000004425049,0|0,1:2|0:0,0:0:0:0:
510,222,259170,1,2,0:0:0:0:
497,229,259257,2,0,L|424:223,1,72.5000022125245,8|0,0:0|0:0,0:0:0:0:
317,83,259431,5,2,0:0:0:0:
258,40,259519,1,2,0:0:0:0:
187,28,259606,1,2,1:2:0:0:
118,45,259693,1,2,0:0:0:0:
60,88,259780,1,2,0:0:0:0:
27,152,259867,1,2,0:0:0:0:
23,224,259955,6,0,B|93:243|93:243|163:227,1,145.000004425049,10|2,0:0|0:0,0:0:0:0:
253,176,260216,1,2,0:0:0:0:
267,168,260303,6,0,L|279:317,1,145.000004425049,0|0,1:0|0:0,0:0:0:0:
366,380,260565,1,2,0:0:0:0:
376,369,260652,2,0,L|382:296,1,72.5000022125245,8|0,0:0|0:0,0:0:0:0:
473,166,260827,1,2,0:0:0:0:
473,166,260914,1,2,0:0:0:0:
472,165,261001,2,0,L|483:309,1,145.000004425049,2|0,1:2|0:0,0:0:0:0:
373,192,261263,1,2,0:0:0:0:
365,118,261350,2,0,L|359:45,1,72.5000022125245,10|0,0:0|0:0,0:0:0:0:
117,22,261524,1,2,0:0:0:0:
117,22,261612,1,2,0:0:0:0:
117,22,261699,6,0,B|98:92|98:92|114:162,1,145.000004425049,0|0,1:0|0:0,0:0:0:0:
159,295,261960,1,2,0:0:0:0:
194,230,262048,2,0,B|229:221|229:221|264:230,1,72.5000022125245,8|0,0:0|0:0,0:0:0:0:
439,318,262222,1,2,0:0:0:0:
432,246,262309,1,2,0:0:0:0:
425,174,262396,5,2,1:2:0:0:
388,130,262484,1,2,0:0:0:0:
344,167,262571,1,2,0:0:0:0:
307,123,262658,1,2,0:0:0:0:
263,160,262745,6,0,B|255:195|255:195|264:230,1,72.5000022125245,10|0,0:0|0:0,0:0:0:0:
473,145,262920,2,0,B|482:110|482:110|474:75,1,72.5000022125245,2|2,1:2|0:0,0:0:0:0:
210,56,263094,6,0,P|141:41|79:75,1,145.000004425049,0|0,1:0|0:0,0:0:0:0:
132,222,263356,1,2,0:0:0:0:
145,214,263443,2,0,P|158:180|154:144,1,72.5000022125245,8|0,0:0|0:0,0:0:0:0:
2,285,263617,5,2,0:0:0:0:
59,331,263705,1,2,0:0:0:0:
130,343,263792,1,2,1:2:0:0:
199,326,263879,1,2,0:0:0:0:
257,283,263966,1,2,0:0:0:0:
290,219,264053,1,2,0:0:0:0:
294,147,264141,6,0,B|224:128|224:128|154:144,1,145.000004425049,10|0,0:0|0:0,0:0:0:0:
16,45,264402,1,2,0:0:0:0:
6,33,264489,6,0,L|155:45,1,145.000004425049,4|0,1:2|0:0,0:0:0:0:
334,11,264751,1,2,0:0:0:0:
321,4,264838,2,0,L|248:10,1,72.5000022125245,8|0,0:0|0:0,0:0:0:0:
455,55,265013,5,2,0:0:0:0:
498,113,265100,1,2,0:0:0:0:
510,184,265187,1,2,1:2:0:0:
493,253,265274,1,2,0:0:0:0:
450,311,265362,1,2,0:0:0:0:
386,344,265449,1,2,0:0:0:0:
314,348,265536,6,0,B|295:278|295:278|311:208,1,145.000004425049,10|2,0:0|0:0,0:0:0:0:
510,184,265885,5,0,1:0:0:0:
211,310,266059,1,0,1:0:0:0:
202,26,266234,5,0,1:0:0:0:
206,150,266321,1,0,1:0:0:0:
210,274,266408,2,0,L|213:329,3,36.2500011062622,0|0|0|0,1:0|0:0|0:0|0:0,0:0:0:0:
202,316,266582,6,0,P|153:382|116:309,1,200,0|0,1:0|0:0,0:0:0:0:
7,196,266844,2,0,P|56:130|90:207,1,200,0|0,1:0|0:0,0:0:0:0:
246,154,267106,2,0,P|221:187|205:149,1,100,0|0,1:0|0:0,0:0:0:0:
203,13,267280,6,0,B|143:-1|143:-1|82:15,1,125,0|0,1:0|0:0,0:0:0:0:
147,90,267542,1,2,0:0:0:0:
147,90,267629,1,2,0:0:0:0:
1,110,267803,2,0,L|6:48,1,62.5,0|0,1:0|0:0,0:0:0:0:
7,196,267978,1,2,0:0:0:0:
205,228,268152,5,0,1:0:0:0:
212,300,268239,1,0,1:0:0:0:
219,372,268327,1,0,1:0:0:0:
198,156,268501,1,0,1:0:0:0:
413,237,268675,5,2,1:2:0:0:
481,106,268850,1,2,0:0:0:0:
486,191,268937,1,2,1:2:0:0:
335,105,269112,1,2,1:2:0:0:
340,190,269199,1,2,1:2:0:0:
408,60,269373,1,2,1:2:0:0:
417,323,269548,1,2,1:2:0:0:
475,6,269722,1,10,0:0:0:0:
413,237,269896,1,2,1:2:0:0:
259,49,270071,5,0,1:0:0:0:
94,113,270245,1,2,0:0:0:0:
106,122,270332,2,0,L|180:115,1,75.0000028610231,2|8,0:0|0:0,0:0:0:0:
340,190,270507,1,2,0:0:0:0:
329,180,270594,2,0,L|255:187,1,75.0000028610231,2|0,0:0|0:0,0:0:0:0:
39,260,270769,2,0,B|110:244|110:244|183:264,1,150.000005722046,2|0,1:2|0:0,0:0:0:0:
275,313,271030,1,2,0:0:0:0:
286,323,271117,2,0,B|358:339|358:339|431:319,1,150.000005722046,10|0,0:0|0:0,0:0:0:0:
422,69,271466,6,0,B|351:53|351:53|278:73,1,150.000005722046,0|0,1:0|0:0,0:0:0:0:
184,30,271728,1,2,0:0:0:0:
127,79,271815,1,8,0:0:0:0:
94,146,271902,1,2,0:0:0:0:
91,221,271989,1,2,0:0:0:0:
119,290,272077,1,2,0:0:0:0:
174,342,272164,2,0,B|246:358|246:358|319:338,1,150.000005722046,2|2,1:2|0:0,0:0:0:0:
420,367,272425,1,2,0:0:0:0:
430,356,272513,6,0,L|423:282,1,75.0000028610231,10|0,0:0|0:0,0:0:0:0:
338,137,272687,2,0,L|345:211,1,75.0000028610231,2|0,0:0|0:0,0:0:0:0:
174,342,272862,5,0,1:0:0:0:
103,266,273036,1,2,0:0:0:0:
95,256,273123,2,0,L|102:181,1,75.0000028610231,2|8,0:0|0:0,0:0:0:0:
191,39,273298,1,2,0:0:0:0:
201,50,273385,2,0,L|194:125,1,75.0000028610231,2|2,0:0|0:0,0:0:0:0:
174,342,273559,2,0,B|246:358|246:358|319:338,1,150.000005722046,2|0,1:2|0:0,0:0:0:0:
512,295,273908,1,10,0:0:0:0:
246,252,274082,1,2,1:2:0:0:
504,79,274257,6,0,B|459:58|459:58|355:73,1,150.000005722046,0|2,1:0|0:0,0:0:0:0:
287,145,274519,1,2,0:0:0:0:
214,162,274606,1,8,0:0:0:0:
140,149,274693,1,2,0:0:0:0:
79,108,274780,2,0,B|70:72|70:72|79:36,1,75.0000028610231,2|0,0:0|0:0,0:0:0:0:
271,0,274955,1,2,1:2:0:0:
394,178,275129,1,2,0:0:0:0:
394,178,275216,1,2,0:0:0:0:
394,178,275303,6,0,L|402:252,1,75.0000028610231,10|0,0:0|0:0,0:0:0:0:
324,381,275478,2,0,L|316:307,1,75.0000028610231,2|0,0:0|0:0,0:0:0:0:
234,165,275652,5,0,1:0:0:0:
69,229,275827,1,2,0:0:0:0:
81,238,275914,2,0,L|155:231,1,75.0000028610231,2|8,0:0|0:0,0:0:0:0:
315,306,276088,1,2,0:0:0:0:
304,296,276175,2,0,L|230:303,1,75.0000028610231,2|0,0:0|0:0,0:0:0:0:
64,374,276350,2,0,B|48:303|48:303|68:230,1,150.000005722046,2|2,1:2|0:0,0:0:0:0:
2,145,276612,1,2,0:0:0:0:
13,135,276699,2,0,B|85:119|85:119|158:139,1,150.000005722046,10|2,0:0|0:0,0:0:0:0:
431,35,277048,6,0,B|450:107|450:107|434:179,1,150.000005722046,0|0,1:0|0:0,0:0:0:0:
313,336,277396,5,0,1:0:0:0:
316,236,277484,1,0,1:0:0:0:
319,137,277571,2,0,L|320:100,3,37.5000014305115,0|0|0|0,1:0|0:0|0:0|0:0,0:0:0:0:
327,88,277745,6,0,P|293:11|243:77,1,200,0|0,1:0|0:0,0:0:0:0:
115,138,278007,1,0,1:0:0:0:
158,143,278094,6,0,P|140:105|116:139,1,100,8|0,0:0|0:0,0:0:0:0:
2,51,278269,2,0,P|26:17|43:55,1,100,0|0,1:0|0:0,0:0:0:0:
50,243,278443,5,2,1:2:0:0:
113,301,278617,1,2,0:0:0:0:
128,297,278705,1,2,0:0:0:0:
197,351,278879,1,2,0:0:0:0:
212,347,278966,1,2,0:0:0:0:
378,198,279141,5,2,1:2:0:0:
50,243,279315,1,2,1:2:0:0:
167,186,279489,5,2,0:0:0:0:
152,163,279577,1,2,0:0:0:0:
176,127,279664,1,2,1:2:0:0:
136,88,279751,1,2,1:2:0:0:
200,43,279838,6,0,B|245:22|245:22|349:37,1,150.000005722046,0|2,1:0|0:0,0:0:0:0:
444,62,280100,1,2,0:0:0:0:
451,137,280187,1,8,0:0:0:0:
426,208,280274,1,2,0:0:0:0:
375,263,280362,1,2,0:0:0:0:
307,292,280449,1,2,0:0:0:0:
231,290,280536,2,0,B|159:274|159:274|86:294,1,150.000005722046,2|0,1:2|0:0,0:0:0:0:
0,194,280798,1,2,0:0:0:0:
11,184,280885,6,0,L|85:191,1,75.0000028610231,10|0,0:0|0:0,0:0:0:0:
250,134,281059,2,0,L|176:127,1,75.0000028610231,2|0,0:0|0:0,0:0:0:0:
69,22,281234,5,0,1:0:0:0:
166,114,281408,1,2,0:0:0:0:
175,126,281495,2,0,L|168:200,1,75.0000028610231,2|8,0:0|0:0,0:0:0:0:
88,379,281670,1,2,0:0:0:0:
78,368,281757,2,0,L|85:294,1,75.0000028610231,2|0,0:0|0:0,0:0:0:0:
251,262,281931,2,0,B|322:246|322:246|395:266,1,150.000005722046,2|0,1:2|0:0,0:0:0:0:
468,42,282280,1,10,0:0:0:0:
431,45,282367,1,2,0:0:0:0:
394,49,282455,1,2,0:0:0:0:
357,53,282542,1,2,0:0:0:0:
319,57,282629,6,0,B|303:128|303:128|323:201,1,150.000005722046,0|0,1:0|0:0,0:0:0:0:
270,129,282891,1,2,0:0:0:0:
195,122,282978,1,8,0:0:0:0:
124,147,283065,1,2,0:0:0:0:
69,198,283152,1,2,0:0:0:0:
40,266,283239,1,2,0:0:0:0:
42,342,283327,2,0,B|113:358|113:358|186:338,1,150.000005722046,2|2,1:2|0:0,0:0:0:0:
326,373,283588,1,2,0:0:0:0:
361,305,283675,2,0,B|325:296|325:296|289:305,1,75.0000028610231,10|0,0:0|0:0,0:0:0:0:
69,198,283850,2,0,B|105:189|105:189|141:198,1,75.0000028610231,2|0,0:0|0:0,0:0:0:0:
420,171,284024,5,0,1:0:0:0:
253,107,284199,1,2,0:0:0:0:
265,98,284286,2,0,L|340:106,1,75.0000028610231,2|8,0:0|0:0,0:0:0:0:
512,53,284460,1,2,0:0:0:0:
502,64,284548,2,0,L|427:56,1,75.0000028610231,2|2,0:0|0:0,0:0:0:0:
161,31,284722,5,2,1:2:0:0:
288,305,284896,1,0,1:0:0:0:
62,272,285071,5,10,0:0:0:0:
65,235,285158,1,2,0:0:0:0:
69,198,285245,1,2,1:2:0:0:
73,161,285332,1,2,0:0:0:0:
77,123,285420,2,0,B|151:102|151:102|222:118,1,150.000005722046,0|2,1:0|0:0,0:0:0:0:
487,217,285769,5,8,0:0:0:0:
484,180,285856,1,2,0:0:0:0:
480,143,285943,1,2,0:0:0:0:
476,106,286030,1,2,0:0:0:0:
472,68,286117,2,0,B|397:47|397:47|326:63,1,150.000005722046,2|2,1:2|0:0,0:0:0:0:
193,227,286466,5,10,0:0:0:0:
190,264,286553,1,2,0:0:0:0:
186,301,286641,1,2,0:0:0:0:
182,338,286728,1,2,0:0:0:0:
178,376,286815,1,0,1:0:0:0:
283,173,286989,5,2,0:0:0:0:
345,179,287077,1,2,0:0:0:0:
406,186,287164,1,8,0:0:0:0:
193,227,287338,1,2,0:0:0:0:
131,221,287425,1,2,0:0:0:0:
70,214,287513,1,2,1:2:0:0:
406,186,287687,1,2,0:0:0:0:
399,247,287774,1,2,0:0:0:0:
393,309,287862,1,10,0:0:0:0:
70,214,288036,1,2,0:0:0:0:
76,152,288123,1,2,0:0:0:0:
83,91,288210,5,0,1:0:0:0:
96,81,288298,1,2,0:0:0:0:
108,73,288385,1,2,0:0:0:0:
123,68,288472,1,2,0:0:0:0:
140,66,288559,1,0,1:0:0:0:
155,64,288646,1,0,1:0:0:0:
170,66,288734,1,0,1:0:0:0:
185,71,288821,1,0,0:0:0:0:
200,77,288908,5,0,1:0:0:0:
264,36,288995,1,2,0:0:0:0:
339,29,289082,1,2,0:0:0:0:
408,62,289170,1,0,1:0:0:0:
453,123,289257,1,2,0:0:0:0:
462,198,289344,1,2,0:0:0:0:
433,268,289431,1,0,1:0:0:0:
373,314,289519,1,2,0:0:0:0:
298,326,289606,6,0,P|261:326|228:310,1,75.0000028610231,2|0,1:2|0:0,0:0:0:0:
169,225,289780,1,2,0:0:0:0:
155,212,289867,2,0,P|118:211|85:227,1,75.0000028610231,2|0,0:0|0:0,0:0:0:0:
3,113,290042,1,2,0:0:0:0:
17,100,290129,2,0,P|54:99|87:115,1,75.0000028610231,2|0,0:0|0:0,0:0:0:0:
172,56,290303,1,2,0:2:0:0:
84,300,290478,6,0,B|75:264|75:264|84:228,1,75.0000028610231,2|0,1:2|0:0,0:0:0:0:
236,147,290652,1,2,0:2:0:0:
428,300,290827,2,0,B|437:264|437:264|428:228,1,75.0000028610231,2|0,1:2|0:2,0:0:0:0:
345,158,291001,6,0,B|305:138|305:138|237:146,1,115.000002193451,4|0,1:2|0:0,0:0:0:0:
222,259,291263,1,2,0:0:0:0:
232,249,291350,2,0,L|288:244,1,57.5000010967255,8|0,0:0|0:0,0:0:0:0:
427,227,291524,1,2,0:0:0:0:
307,40,291699,1,2,1:2:0:0:
198,30,291873,1,2,0:0:0:0:
417,52,292048,1,8,0:0:0:0:
126,157,292222,1,2,0:0:0:0:
126,157,292309,1,2,0:0:0:0:
126,157,292396,5,2,1:2:0:0:
17,168,292571,1,2,0:0:0:0:
236,146,292745,2,0,P|262:203|255:267,1,115.000002193451,8|0,0:0|0:0,0:0:0:0:
307,40,293094,1,2,1:2:0:0:
198,30,293269,1,2,0:0:0:0:
417,52,293443,2,0,P|440:103|437:160,1,115.000002193451,8|0,0:0|0:0,0:0:0:0:
439,315,293792,6,0,B|398:337|398:337|327:329,1,115.000002193451,0|0,1:2|0:0,0:0:0:0:
208,260,294053,1,2,0:0:0:0:
201,249,294141,2,0,L|260:254,1,57.5000010967255,8|0,0:0|0:0,0:0:0:0:
350,209,294315,1,2,0:0:0:0:
95,237,294489,1,2,1:2:0:0:
86,136,294664,1,2,0:0:0:0:
106,337,294838,1,8,0:0:0:0:
211,148,295013,1,2,0:0:0:0:
211,148,295100,1,2,0:0:0:0:
211,148,295187,5,2,1:2:0:0:
201,249,295362,1,2,0:0:0:0:
221,48,295536,1,8,0:0:0:0:
86,136,295710,1,2,0:0:0:0:
86,136,295798,1,2,0:0:0:0:
86,136,295885,2,0,P|80:79|103:27,1,115.000002193451,2|2,1:2|0:0,0:0:0:0:
356,34,296234,5,8,1:2:0:0:
359,37,296408,1,0,1:0:0:0:
437,220,296582,6,0,B|394:242|394:242|318:233,1,115.000002193451,0|0,1:2|0:0,0:0:0:0:
276,142,296844,1,2,0:0:0:0:
268,153,296931,2,0,L|203:147,1,57.5000010967255,8|0,0:0|0:0,0:0:0:0:
133,216,297106,1,2,0:0:0:0:
275,324,297280,1,2,1:2:0:0:
169,314,297455,1,2,0:0:0:0:
382,336,297629,1,8,0:0:0:0:
369,143,297803,1,2,0:0:0:0:
369,143,297891,1,2,0:0:0:0:
369,143,297978,5,2,1:2:0:0:
268,153,298152,1,2,0:0:0:0:
476,131,298327,2,0,P|501:187|494:248,1,115.000002193451,8|0,0:0|0:0,0:0:0:0:
275,324,298675,1,2,1:2:0:0:
382,336,298850,1,2,0:0:0:0:
169,314,299024,2,0,P|165:257|189:205,1,115.000002193451,8|0,0:0|0:0,0:0:0:0:
367,53,299373,6,0,P|348:55|367:55,1,57.5000010967255,0|0,1:2|0:0,0:0:0:0:
268,153,299548,5,2,0:0:0:0:
268,153,299722,2,0,P|266:133|266:153,1,57.5000010967255,8|0,0:0|0:0,0:0:0:0:
169,50,299896,5,2,0:0:0:0:
169,50,299984,1,2,0:0:0:0:
169,50,300071,2,0,P|188:46|171:46,1,57.5000010967255,2|0,1:2|0:0,0:0:0:0:
65,203,300245,5,2,0:0:0:0:
65,203,300332,1,0,1:0:0:0:
65,203,300420,6,0,P|104:166|73:123,1,115.000002193451,8|0,0:0|0:0,0:0:0:0:
74,124,300594,2,0,P|35:160|66:203,1,115.000002193451,2|0,1:2|0:0,0:0:0:0:
157,272,300769,6,0,P|208:288|268:278,1,115.000002193451,2|0,1:2|0:0,0:0:0:0:
416,206,301030,1,2,0:0:0:0:
416,206,301117,6,0,P|361:190|305:200,1,115.000002193451,2|0,0:0|0:0,0:0:0:0:
305,199,301292,2,0,P|318:254|355:297,1,115.000002193451,2|0,0:0|0:0,0:0:0:0:
355,298,301466,2,0,P|396:258|414:204,1,115.000002193451,2|0,1:2|0:0,0:0:0:0:
372,10,301641,6,0,P|333:47|364:90,1,115.000002193451,2|0,1:2|0:0,0:0:0:0:
363,89,301815,2,0,P|402:53|371:10,1,115.000002193451,2|0,0:2|0:0,0:0:0:0:
177,55,301989,5,0,1:0:0:0:
105,46,302077,1,0,1:0:0:0:
33,44,302164,6,0,B|12:84|12:84|20:152,1,115.000002193451,4|0,1:2|0:0,0:0:0:0:
79,245,302425,1,2,0:0:0:0:
79,245,302513,2,0,L|141:240,1,57.5000010967255,8|0,0:0|0:0,0:0:0:0:
15,332,302687,1,2,0:0:0:0:
239,230,302862,1,2,1:2:0:0:
249,332,303036,1,2,0:0:0:0:
229,128,303210,1,8,0:0:0:0:
390,227,303385,1,2,0:0:0:0:
390,227,303472,1,2,0:0:0:0:
390,227,303559,5,2,1:2:0:0:
380,328,303734,1,2,0:0:0:0:
401,124,303908,2,0,P|458:119|510:143,1,115.000002193451,8|0,0:0|0:0,0:0:0:0:
239,230,304257,1,2,1:2:0:0:
229,128,304431,1,2,0:0:0:0:
249,332,304606,1,8,0:0:0:0:
275,349,304693,1,2,0:0:0:0:
304,358,304780,1,2,0:0:0:0:
332,358,304867,1,2,0:0:0:0:
361,349,304955,6,0,B|403:327|403:327|475:335,1,115.000002193451,0|0,1:2|0:0,0:0:0:0:
506,237,305216,1,2,0:0:0:0:
511,224,305303,2,0,L|452:217,1,57.5000010967255,8|0,0:0|0:0,0:0:0:0:
351,211,305478,1,2,0:0:0:0:
409,113,305652,1,2,1:2:0:0:
307,102,305827,1,2,0:0:0:0:
511,122,306001,1,8,0:0:0:0:
249,222,306175,1,2,0:0:0:0:
249,222,306263,1,2,0:0:0:0:
249,222,306350,5,2,1:2:0:0:
351,211,306524,1,2,0:0:0:0:
147,231,306699,1,8,0:0:0:0:
409,113,306873,1,2,0:0:0:0:
409,113,306960,1,2,0:0:0:0:
409,113,307048,1,2,1:2:0:0:
511,122,307222,1,2,0:0:0:0:
301,112,307396,5,8,1:2:0:0:
292,84,307484,1,2,0:0:0:0:
292,55,307571,1,0,1:0:0:0:
301,26,307658,1,2,0:0:0:0:
318,0,307745,1,0,1:2:0:0:
198,19,307920,1,0,0:0:0:0:
301,112,308094,5,8,0:0:0:0:
310,140,308181,1,2,0:0:0:0:
310,169,308269,1,2,0:0:0:0:
301,198,308356,1,2,0:0:0:0:
284,224,308443,1,2,1:2:0:0:
403,212,308617,1,2,0:0:0:0:
267,336,308792,5,8,0:0:0:0:
258,308,308879,1,2,0:0:0:0:
258,279,308966,1,2,0:0:0:0:
267,250,309053,1,2,0:0:0:0:
284,224,309141,1,2,1:2:0:0:
164,76,309315,5,2,0:0:0:0:
168,43,309402,1,2,0:0:0:0:
173,9,309489,1,8,0:0:0:0:
81,140,309664,1,2,0:0:0:0:
48,136,309751,1,2,0:0:0:0:
14,131,309838,1,2,1:2:0:0:
145,221,310013,1,2,0:0:0:0:
141,254,310100,1,2,0:0:0:0:
136,288,310187,1,8,0:0:0:0:
229,158,310362,1,0,1:0:0:0:
262,162,310449,1,2,0:0:0:0:
297,167,310536,6,0,P|316:165|297:165,1,57.5000010967255,0|0,1:2|0:0,0:0:0:0:
401,264,310710,5,2,0:0:0:0:
401,264,310798,1,2,0:0:0:0:
401,264,310885,2,0,P|384:255|396:266,1,57.5000010967255,8|0,0:0|0:0,0:0:0:0:
504,180,311059,5,2,0:0:0:0:
504,180,311146,1,2,0:0:0:0:
504,180,311234,2,0,P|495:191|504:182,1,57.5000010967255,2|0,1:2|0:0,0:0:0:0:
403,25,311408,5,2,0:0:0:0:
403,25,311495,1,0,1:0:0:0:
403,25,311582,6,0,P|364:62|395:105,1,115.000002193451,8|0,0:0|0:0,0:0:0:0:
394,104,311757,2,0,P|433:68|402:25,1,115.000002193451,2|0,1:2|0:0,0:0:0:0:
232,69,311931,6,0,B|215:32|215:32|233:46|233:46|251:34|251:34|232:68,1,125,2|0,1:2|0:0,0:0:0:0:
122,171,312280,6,0,B|105:134|105:134|123:148|123:148|141:136|141:136|122:170,1,125,2|0,0:0|0:0,0:0:0:0:
218,235,312455,2,0,B|235:198|235:198|217:212|217:212|199:200|199:200|218:234,1,125,2|0,0:0|0:0,0:0:0:0:
116,288,312629,2,0,B|99:251|99:251|117:265|117:265|135:253|135:253|116:287,1,125,2|0,0:0|0:0,0:0:0:0:
334,328,312803,6,0,P|303:344|280:319,1,75.0000028610231,2|0,0:0|0:0,0:0:0:0:
280,318,312978,2,0,P|311:302|334:327,1,75.0000028610231,2|0,0:0|0:0,0:0:0:0:
428,284,313152,5,0,1:0:0:0:
423,54,313327,5,4,0:1:0:0:
