osu file format v14

[General]
AudioFilename: audio.mp3
AudioLeadIn: 0
PreviewTime: 56715
Countdown: 0
SampleSet: Drum
StackLeniency: 0.7
Mode: 2
LetterboxInBreaks: 0
EpilepsyWarning: 1
WidescreenStoryboard: 0

[Editor]
Bookmarks: 1727,20459,39191,48556,57922,76654,78996,95386,114117
DistanceSpacing: 1.1
BeatDivisor: 4
GridSize: 4
TimelineZoom: 2.899999

[Metadata]
Title:Absolute Gate
TitleUnicode:Absolute Gate
Artist:E0ri4
ArtistUnicode:E0ri4
Creator:autofanboy
Version:Rain
Source:BOFU2017 - LEGENDA EST A MYTH -
Tags:alienflybot AFB osu!catch Academy Tournament CAT Grand Finals GF NoMod NM2 featured artist FA mappers’ guild MG MPG BOF BMS of Fighters Ultimate まさいたちの夜 Starry Gate GAMEBAKA2000 げ〜むばか Kengo Nakao Trance Core Artcore eori4 e0ria eoria Electronic Instrumental
BeatmapID:3911767
BeatmapSetID:1897932

[Difficulty]
HPDrainRate:6
CircleSize:4.2
OverallDifficulty:9.2
ApproachRate:9.2
SliderMultiplier:1.76
SliderTickRate:2

[Events]
//Background and Video events
0,0,"Celestial Loom_Julian-Faylona.jpg",0,0
Video,-200,"Absolute Gate Video.mp4"
//Break Periods
//Storyboard Layer 0 (Background)
//Storyboard Layer 1 (Fail)
//Storyboard Layer 2 (Pass)
//Storyboard Layer 3 (Foreground)
//Storyboard Layer 4 (Overlay)
//Storyboard Sound Samples

[TimingPoints]
562,292.682926829268,4,3,1,55,1,0
1732,-100,4,3,1,60,0,0
11098,-100,4,3,1,65,0,0
11391,-100,4,3,2,65,0,0
11537,-100,4,3,1,65,0,0
11976,-100,4,3,2,65,0,0
12122,-100,4,3,1,65,0,0
12561,-100,4,3,2,65,0,0
12708,-100,4,3,1,65,0,0
13147,-100,4,3,2,65,0,0
13293,-100,4,3,1,65,0,0
13732,-100,4,3,2,65,0,0
13879,-100,4,3,1,65,0,0
14318,-100,4,3,2,65,0,0
14464,-100,4,3,1,65,0,0
14903,-100,4,3,2,65,0,0
15049,-100,4,3,1,65,0,0
15488,-100,4,3,2,65,0,0
15635,-100,4,3,1,65,0,0
15781,-100,4,3,1,70,0,0
16074,-100,4,3,2,70,0,0
16220,-100,4,3,1,70,0,0
16659,-100,4,3,2,70,0,0
16805,-100,4,3,1,70,0,0
17244,-100,4,3,2,70,0,0
17391,-100,4,3,1,70,0,0
17830,-100,4,3,2,70,0,0
17976,-100,4,3,1,70,0,0
18122,-100,4,3,1,75,0,0
19293,-100,4,3,1,60,0,0
20464,-100,4,3,1,45,0,0
24415,-100,4,3,2,45,0,0
24561,-100,4,3,1,45,0,0
25147,-100,4,3,1,50,0,0
27488,-100,4,3,1,55,0,0
29098,-100,4,3,2,55,0,0
29244,-100,4,3,1,55,0,0
29830,-100,4,3,1,60,0,0
30269,-100,4,3,2,60,0,0
30415,-100,4,3,1,60,0,0
30708,-100,4,3,3,60,0,1
30854,-100,4,3,1,60,0,0
32025,-100,4,3,2,60,0,0
32171,-100,4,3,1,60,0,0
33049,-100,4,3,3,60,0,1
33196,-100,4,3,1,60,0,0
33781,-100,4,3,2,60,0,0
33927,-100,4,3,1,60,0,0
35391,-100,4,3,3,60,0,1
35537,-100,4,3,1,60,0,0
38318,-100,4,1,1,60,0,0
38464,-100,4,3,1,60,0,0
39196,-100,4,3,3,55,0,0
39342,-100,4,3,1,55,0,0
43293,-100,4,3,1,65,0,0
43440,-100,4,3,1,55,0,0
43586,-100,4,3,1,65,0,0
43732,-100,4,3,1,55,0,0
48561,-100,4,3,1,60,0,0
53244,-100,4,3,1,65,0,0
55586,-100,4,3,1,70,0,0
56171,-100,4,3,1,75,0,0
56757,-100,4,3,1,60,0,0
57635,-100,4,3,1,70,0,0
57927,-100,4,3,1,80,0,1
58952,-100,4,3,2,80,0,1
59098,-100,4,3,1,80,0,1
61293,-100,4,3,2,80,0,1
61440,-100,4,3,1,80,0,1
63635,-100,4,3,2,80,0,1
63781,-100,4,3,1,80,0,1
64805,-100,4,3,2,80,0,1
64952,-100,4,3,1,80,0,1
65976,-100,4,3,2,80,0,1
66122,-100,4,3,1,80,0,1
68318,-100,4,3,2,80,0,1
68464,-100,4,3,1,80,0,1
70659,-100,4,3,2,80,0,1
70805,-100,4,3,1,80,0,1
73001,-100,4,3,2,80,0,1
73147,-100,4,3,1,80,0,1
74171,-100,4,3,2,80,0,1
74318,-100,4,3,1,80,0,1
75342,-100,4,3,2,80,0,1
75488,-100,4,3,1,80,0,1
76659,-100,4,3,1,60,0,0
78708,-100,4,3,1,70,0,0
79001,-100,4,3,1,80,0,1
79440,-100,4,3,2,80,0,1
79586,-100,4,3,1,80,0,1
80025,-100,4,3,2,80,0,1
80171,-100,4,3,1,80,0,1
80610,-100,4,3,2,80,0,1
80757,-100,4,3,1,80,0,1
81196,-100,4,3,2,80,0,1
81342,-100,4,3,1,80,0,1
82074,-100,4,3,2,80,0,1
82220,-100,4,3,1,80,0,1
82366,-100,4,3,2,80,0,1
82513,-100,4,3,1,80,0,1
82952,-100,4,3,2,80,0,1
83098,-100,4,3,1,80,0,1
83537,-100,4,3,2,80,0,1
83683,-100,4,3,1,80,0,1
84122,-100,4,3,2,80,0,1
84269,-100,4,3,1,80,0,1
84415,-100,4,3,2,80,0,1
84561,-100,4,3,1,80,0,1
84708,-100,4,3,2,80,0,1
84854,-100,4,3,1,80,0,1
85147,-100,4,2,1,80,0,1
85293,-100,4,3,1,80,0,1
86757,-100,4,3,1,80,0,0
86903,-100,4,3,3,80,0,1
87049,-100,4,3,1,80,0,1
89098,-100,4,3,1,80,0,0
89244,-100,4,3,3,80,0,1
89391,-100,4,3,1,80,0,1
91440,-100,4,3,1,80,0,0
91586,-100,4,3,3,80,0,1
91732,-100,4,3,1,80,0,1
95244,-100,4,3,1,80,0,0
95391,-100,4,3,3,60,0,1
95537,-100,4,3,1,60,0,0
99488,-100,4,3,1,70,0,0
99635,-100,4,3,1,60,0,0
99781,-100,4,3,1,70,0,0
99927,-100,4,3,1,60,0,0
104757,-100,4,3,1,55,0,0
108854,-100,4,3,1,65,0,0
109001,-100,4,3,1,55,0,0
109147,-100,4,3,1,65,0,0
109293,-100,4,3,1,55,0,0
114122,-100,4,1,3,50,0,0
116025,-100,4,1,3,25,0,0
116464,-100,4,1,3,12,0,0
116903,-100,4,1,3,5,0,0

[Colours]
Combo1 : 79,239,255
Combo2 : 190,202,233
Combo3 : 19,72,188
Combo4 : 42,78,78

[HitObjects]
412,152,1586,6,0,L|456:150,1,44,0|0,2:3|2:3,0:0:0:0:
300,104,1732,6,0,L|212:100,2,88,4|0|0,2:2|2:3|2:3,0:0:0:0:
152,192,2171,2,0,P|76:160|36:80,2,176,0|0|0,2:3|2:3|2:3,0:0:0:0:
356,104,2903,6,0,L|268:100,1,88,4|0,3:2|2:3,0:0:0:0:
120,12,3196,2,0,L|208:8,1,88,0|0,2:3|0:0,0:0:0:0:
412,96,3488,2,0,L|416:8,1,88,2|0,2:2|0:0,0:0:0:0:
152,184,3781,2,0,L|148:96,1,88,2|0,2:2|0:0,0:0:0:0:
352,272,4074,6,0,L|440:268,2,88,4|0|0,2:2|2:3|2:3,0:0:0:0:
204,184,4513,2,0,L|380:176,2,176,0|0|0,2:3|2:3|2:3,0:0:0:0:
408,360,5244,6,0,L|412:272,1,88,4|0,3:2|2:3,0:0:0:0:
324,268,5537,1,0,2:3:0:0:
176,180,5683,2,0,L|220:178,1,44,2|2,3:3|3:3,0:0:0:0:
376,132,5830,2,0,L|288:128,1,88,2|0,2:2|0:0,0:0:0:0:
112,172,6049,2,0,P|84:132|112:60,1,132,2|2,3:2|3:2,0:0:0:0:
316,324,6415,6,0,L|404:320,2,88,4|0|0,2:2|0:0|0:0,0:0:0:0:
168,236,6854,2,0,P|208:155|284:123,1,176,0|0,2:3|0:0,0:0:0:0:
432,212,7293,2,0,L|436:124,1,88,0|0,2:3|2:3,0:0:0:0:
232,300,7586,6,0,L|144:296,1,88,4|0,3:2|0:0,0:0:0:0:
292,208,7879,2,0,L|380:204,1,88,0|0,2:3|0:0,0:0:0:0:
176,380,8171,2,0,L|172:292,1,88,2|0,2:2|0:0,0:0:0:0:
328,248,8391,2,0,P|356:208|328:136,1,132,2|2,3:2|3:2,0:0:0:0:
120,48,8757,6,0,L|32:52,2,88,4|0|0,2:2|0:0|0:0,0:0:0:0:
268,136,9196,1,0,2:3:0:0:
64,312,9342,2,0,L|60:224,1,88,4|0,3:2|0:0,0:0:0:0:
208,136,9635,2,0,L|76:133,1,132,0|0,2:3|0:0,0:0:0:0:
228,264,9927,6,0,L|316:260,1,88,2|0,2:2|0:0,0:0:0:0:
168,172,10220,2,0,L|256:168,1,88,2|0,3:2|2:3,0:0:0:0:
460,256,10513,2,0,L|464:168,1,88,2|0,3:2|0:0,0:0:0:0:
308,124,10732,2,0,L|264:122,1,44,2|0,3:2|2:3,0:0:0:0:
412,32,10952,2,0,L|456:30,1,44,2|0,2:2|0:0,0:0:0:0:
300,204,11098,6,0,L|212:200,2,88,6|0|8,2:3|2:3|2:3,0:0:0:0:
152,380,11537,2,0,L|148:292,1,88,0|2,2:3|3:3,0:0:0:0:
296,116,11830,2,0,L|300:28,1,88,0|8,2:3|3:3,0:0:0:0:
152,204,12122,2,0,L|64:200,1,88,0|2,2:3|3:3,0:0:0:0:
268,288,12415,6,0,L|356:284,2,88,0|8|0,2:3|2:3|0:0,0:0:0:0:
120,376,12854,2,0,L|100:336,2,44,2|0|0,2:3|0:0|0:0,0:0:0:0:
324,200,13147,1,8,2:3:0:0:
344,156,13220,1,0,0:0:0:0:
324,112,13293,1,0,0:0:0:0:
280,92,13366,1,0,0:0:0:0:
124,48,13440,6,0,L|120:136,1,88,2|0,2:3|2:3,0:0:0:0:
208,140,13732,1,8,2:3:0:0:
356,228,13879,2,0,L|360:140,1,88,0|2,2:3|3:3,0:0:0:0:
212,316,14171,2,0,L|124:312,1,88,0|8,2:3|3:3,0:0:0:0:
328,224,14464,2,0,L|416:220,2,88,0|2|0,2:3|3:3|2:3,0:0:0:0:
180,136,14903,6,0,L|176:48,1,88,8|0,2:3|0:0,0:0:0:0:
324,312,15196,2,0,L|344:272,2,44,2|0|0,2:3|0:0|0:0,0:0:0:0:
120,224,15488,1,8,2:3:0:0:
132,176,15561,1,0,0:0:0:0:
168,140,15635,1,0,0:0:0:0:
216,128,15708,1,0,0:0:0:0:
372,172,15781,6,0,L|376:84,1,88,4|0,2:2|0:0,0:0:0:0:
228,260,16074,2,0,L|316:256,1,88,8|0,2:3|2:3,0:0:0:0:
112,344,16366,2,0,L|108:256,1,88,4|0,3:2|2:3,0:0:0:0:
256,168,16659,1,8,3:3:0:0:
300,148,16732,1,0,0:0:0:0:
320,104,16805,1,0,2:3:0:0:
300,60,16878,1,0,0:0:0:0:
144,16,16952,6,0,L|56:20,1,88,4|0,3:2|2:3,0:0:0:0:
204,108,17244,2,0,L|116:112,1,88,8|0,2:3|0:0,0:0:0:0:
320,200,17537,2,0,L|408:204,1,88,4|0,2:2|2:3,0:0:0:0:
260,292,17830,1,8,2:3:0:0:
240,248,17903,1,0,0:0:0:0:
260,204,17976,1,0,2:3:0:0:
304,184,18049,1,0,0:0:0:0:
460,140,18122,5,4,2:2:0:0:
480,96,18196,1,0,0:0:0:0:
460,52,18269,1,0,0:0:0:0:
416,32,18342,1,0,0:0:0:0:
260,76,18415,2,0,L|216:78,1,44,4|0,3:2|0:0,0:0:0:0:
260,124,18561,2,0,L|304:126,1,44,0|0,0:0|0:0,0:0:0:0:
260,172,18708,6,0,L|216:174,1,44,4|0,3:2|0:0,0:0:0:0:
260,220,18854,2,0,L|304:222,1,44,0|0,0:0|0:0,0:0:0:0:
148,268,19001,1,4,3:2:0:0:
128,224,19074,1,0,0:0:0:0:
148,180,19147,1,0,0:0:0:0:
192,160,19220,1,0,0:0:0:0:
348,116,19293,6,0,L|352:28,1,88,2|0,2:2|0:0,0:0:0:0:
196,72,19513,2,0,L|64:66,1,132,2|2,3:2|3:2,0:0:0:0:
212,240,19879,2,0,L|300:236,1,88,2|0,3:2|0:0,0:0:0:0:
144,192,20098,2,0,P|116:152|144:80,1,132,2|2,3:2|3:2,0:0:0:0:
404,344,20464,6,0,L|424:304,2,44,6|0|0,3:3|0:0|1:3,0:0:0:0:
316,340,20757,1,2,3:3:0:0:
168,252,20903,2,0,L|148:212,2,44,0|0|2,1:3|0:0|3:3,0:0:0:0:
256,248,21196,1,0,1:3:0:0:
404,160,21342,2,0,L|420:120,2,44,2|0|0,3:3|0:0|1:3,0:0:0:0:
256,248,21635,6,0,L|236:208,2,44,2|0|0,3:3|0:0|1:3,0:0:0:0:
344,244,21927,1,2,3:3:0:0:
196,156,22074,1,0,1:3:0:0:
152,154,22147,1,0,0:0:0:0:
108,152,22220,1,2,3:3:0:0:
196,64,22366,1,0,1:3:0:0:
48,240,22513,2,0,L|28:200,2,44,2|0|0,3:3|0:0|1:3,0:0:0:0:
196,328,22805,5,2,3:3:0:0:
240,326,22879,1,0,0:0:0:0:
284,324,22952,1,0,1:3:0:0:
196,236,23098,1,2,3:3:0:0:
344,148,23244,2,0,L|364:108,2,44,0|0|2,1:3|0:0|3:3,0:0:0:0:
256,144,23537,1,0,1:3:0:0:
404,56,23683,1,2,3:3:0:0:
360,54,23757,1,0,0:0:0:0:
316,52,23830,1,0,1:3:0:0:
168,228,23976,6,0,L|148:188,2,44,2|0|0,2:3|0:0|1:3,0:0:0:0:
256,232,24269,1,2,3:3:0:0:
108,320,24415,1,0,1:3:0:0:
196,316,24561,2,0,L|216:276,2,44,2|0|0,3:3|0:0|1:3,0:0:0:0:
48,228,24854,2,0,L|28:188,2,44,2|0|0,2:3|0:0|1:3,0:0:0:0:
196,140,25147,5,2,3:3:0:0:
152,138,25220,1,0,0:0:0:0:
108,136,25293,1,0,1:3:0:0:
312,224,25440,2,0,L|316:136,1,88,10|0,3:3|1:3,0:0:0:0:
168,312,25732,2,0,L|148:272,2,44,2|0|0,3:3|0:0|1:3,0:0:0:0:
372,224,26025,2,0,L|460:220,1,88,10|0,3:3|1:3,0:0:0:0:
312,132,26318,6,0,L|268:130,2,44,2|0|0,3:3|0:0|1:3,0:0:0:0:
108,220,26610,2,0,L|104:132,1,88,10|0,3:3|1:3,0:0:0:0:
252,44,26903,2,0,L|272:4,2,44,2|0|0,3:3|0:0|1:3,0:0:0:0:
48,220,27196,2,0,L|136:216,1,88,10|0,3:3|1:3,0:0:0:0:
284,304,27488,6,0,L|328:302,2,44,2|0|0,3:3|0:0|1:3,0:0:0:0:
80,128,27781,2,0,L|76:40,1,88,10|0,3:3|1:3,0:0:0:0:
224,216,28074,1,2,3:3:0:0:
180,214,28147,1,0,0:0:0:0:
136,212,28220,1,0,1:3:0:0:
340,124,28366,2,0,L|428:120,1,88,10|0,3:3|1:3,0:0:0:0:
280,32,28659,6,0,L|278:76,1,44,2|0,2:3|0:0,0:0:0:0:
432,164,28805,1,2,1:2:0:0:
452,208,28879,1,0,0:0:0:0:
432,252,28952,1,10,3:3:0:0:
388,272,29025,1,0,0:0:0:0:
232,316,29098,2,0,L|188:314,1,44,2|0,1:2|0:0,0:0:0:0:
232,268,29244,2,0,L|276:266,1,44,2|0,3:3|0:0,0:0:0:0:
120,220,29391,2,0,B|32:216|32:216|120:220,1,176,8|0,1:3|1:3,0:0:0:0:
400,308,29830,6,0,L|404:220,1,88,6|0,2:1|1:3,0:0:0:0:
256,220,30122,2,0,L|256:132,1,88,2|0,2:1|1:3,0:0:0:0:
108,132,30415,2,0,L|104:44,1,88,2|0,3:1|1:3,0:0:0:0:
340,308,30708,2,0,L|428:304,1,88,10|0,3:3|1:3,0:0:0:0:
280,216,31001,6,0,L|192:212,2,88,2|2|8,3:1|1:1|3:3,0:0:0:0:
428,128,31440,2,0,L|432:40,1,88,2|2,1:1|3:1,0:0:0:0:
228,216,31732,2,0,L|208:176,2,44,0|0|8,1:3|0:0|3:3,0:0:0:0:
316,212,32025,1,0,1:3:0:0:
112,300,32171,6,0,L|108:212,1,88,2|0,2:1|1:3,0:0:0:0:
256,212,32464,2,0,L|256:124,1,88,2|0,3:1|1:3,0:0:0:0:
404,124,32757,2,0,L|408:36,1,88,2|0,3:1|1:3,0:0:0:0:
172,300,33049,2,0,L|260:296,1,88,10|0,3:3|1:3,0:0:0:0:
408,208,33342,6,0,L|320:204,2,88,2|2|8,2:1|1:1|3:3,0:0:0:0:
260,120,33781,2,0,L|256:32,1,88,2|2,1:1|3:1,0:0:0:0:
460,208,34074,2,0,L|480:168,2,44,0|0|8,1:3|0:0|2:3,0:0:0:0:
372,204,34366,1,0,1:3:0:0:
168,292,34513,5,6,2:1:0:0:
164,204,34659,2,0,L|208:202,1,44,0|0,1:3|0:0,0:0:0:0:
296,156,34805,1,2,3:1:0:0:
300,68,34952,2,0,L|256:66,1,44,0|0,1:3|0:0,0:0:0:0:
168,108,35098,1,2,3:1:0:0:
164,20,35244,2,0,L|208:18,1,44,0|0,1:3|0:0,0:0:0:0:
364,60,35391,2,0,L|452:56,1,88,10|0,3:3|1:3,0:0:0:0:
248,144,35683,5,6,3:1:0:0:
160,140,35830,2,0,L|140:100,2,44,2|0|8,1:1|0:0|3:3,0:0:0:0:
308,228,36122,2,0,L|328:188,2,44,2|0|2,1:1|0:0|3:1,0:0:0:0:
104,316,36415,1,0,1:3:0:0:
60,314,36488,1,0,0:0:0:0:
16,312,36561,1,8,3:3:0:0:
104,224,36708,1,0,1:3:0:0:
308,136,36854,5,6,3:1:0:0:
312,48,37001,2,0,L|268:46,1,44,0|0,1:3|0:0,0:0:0:0:
180,220,37147,1,6,3:1:0:0:
176,132,37293,2,0,L|220:130,1,44,0|0,1:3|0:0,0:0:0:0:
376,220,37440,2,0,L|288:216,1,88,6|0,3:1|1:3,0:0:0:0:
112,260,37659,2,0,P|84:220|112:148,1,132,6|2,3:1|1:1,0:0:0:0:
316,60,38025,5,4,3:1:0:0:
228,64,38171,2,0,L|404:72,1,176,0|0,1:3|1:3,0:0:0:0:
256,248,38610,2,0,L|252:160,1,88,4|0,3:1|1:3,0:0:0:0:
456,336,38903,2,0,L|460:248,1,88,4|0,3:1|1:3,0:0:0:0:
256,72,39196,6,0,P|204:96|256:172,1,176,4|0,2:3|0:0,0:0:0:0:
344,176,39635,2,0,P|396:200|344:276,1,176,0|0,2:3|0:0,0:0:0:0:
196,364,40074,2,0,L|108:360,1,88,0|0,2:3|2:3,0:0:0:0:
216,184,40513,5,0,2:3:0:0:
64,360,40659,2,0,L|60:272,1,88,0|0,2:3|2:3,0:0:0:0:
192,184,41098,1,0,2:3:0:0:
104,96,41244,2,0,L|192:92,1,88,0|0,2:3|2:3,0:0:0:0:
340,4,41537,5,0,2:3:0:0:
376,96,41683,1,0,2:3:0:0:
340,188,41830,1,0,2:3:0:0:
252,224,41976,2,0,P|176:192|136:112,2,176,0|0|0,2:3|2:3|2:3,0:0:0:0:
340,312,42708,6,0,L|252:316,1,88,8|0,3:1|0:0,0:0:0:0:
400,228,43001,2,0,L|404:140,1,88,0|0,2:3|0:0,0:0:0:0:
256,52,43293,1,0,2:3:0:0:
168,88,43440,1,0,0:0:0:0:
132,180,43586,1,0,2:3:0:0:
168,272,43732,1,0,0:0:0:0:
316,360,43879,6,0,L|404:356,2,88,0|0|0,2:3|2:3|2:3,0:0:0:0:
168,272,44318,2,0,P|208:191|284:159,1,176,0|0,2:3|2:3,0:0:0:0:
372,156,44757,2,0,L|376:68,1,88,0|0,2:3|2:3,0:0:0:0:
228,244,45049,5,0,2:3:0:0:
140,240,45196,2,0,L|136:152,1,88,0|0,2:3|2:3,0:0:0:0:
284,328,45488,2,0,P|360:296|400:216,1,176,0|0,2:3|2:3,0:0:0:0:
364,140,45927,1,0,2:3:0:0:
284,104,46074,1,0,2:3:0:0:
136,16,46220,6,0,P|84:40|136:116,1,176,0|0,2:3|2:3,0:0:0:0:
284,292,46659,2,0,L|372:288,1,88,0|0,2:3|0:0,0:0:0:0:
284,200,46952,2,0,L|196:196,1,88,0|0,2:3|0:0,0:0:0:0:
344,372,47244,2,0,L|348:284,1,88,0|0,2:3|0:0,0:0:0:0:
144,108,47537,6,0,L|124:68,2,44,0|0|0,2:3|2:3|2:3,0:0:0:0:
292,196,47830,2,0,L|292:152,2,44,0|0|0,2:3|2:3|2:3,0:0:0:0:
440,284,48122,2,0,L|460:244,2,44,0|0|0,2:3|2:3|2:3,0:0:0:0:
292,368,48415,2,0,L|248:366,1,44,0|0,2:3|2:3,0:0:0:0:
404,324,48561,6,0,L|492:320,2,88,4|0|8,2:3|1:3|3:3,0:0:0:0:
256,236,49001,2,0,L|252:148,1,88,0|2,2:3|3:3,0:0:0:0:
340,144,49293,1,0,1:3:0:0:
136,56,49440,1,8,2:3:0:0:
116,100,49513,1,0,0:0:0:0:
136,144,49586,1,0,1:3:0:0:
180,164,49659,1,0,0:0:0:0:
336,208,49732,6,0,L|340:296,1,88,2|0,2:3|1:3,0:0:0:0:
296,298,49952,1,0,0:0:0:0:
252,300,50025,2,0,L|340:304,1,88,8|0,2:3|1:3,0:0:0:0:
192,216,50318,2,0,L|104:212,1,88,2|0,2:3|1:3,0:0:0:0:
148,210,50537,1,0,0:0:0:0:
192,208,50610,2,0,L|280:204,1,88,8|0,2:3|1:3,0:0:0:0:
76,116,50903,6,0,L|72:28,1,88,2|0,2:3|1:3,0:0:0:0:
220,292,51196,2,0,L|132:288,1,88,8|0,2:3|1:3,0:0:0:0:
280,200,51488,2,0,L|368:196,1,88,2|0,2:3|1:3,0:0:0:0:
324,194,51708,2,0,L|192:188,1,132,0|0,2:3|2:3,0:0:0:0:
396,276,52074,6,0,L|400:188,1,88,2|0,2:3|1:3,0:0:0:0:
356,186,52293,1,0,0:0:0:0:
312,184,52366,2,0,L|400:180,1,88,8|0,2:3|1:3,0:0:0:0:
252,356,52659,2,0,L|164:352,1,88,2|0,2:3|1:3,0:0:0:0:
208,350,52879,1,0,0:0:0:0:
252,348,52952,1,8,2:3:0:0:
104,260,53098,2,0,L|60:258,1,44,0|0,1:3|0:0,0:0:0:0:
216,212,53244,6,0,L|304:208,1,88,6|0,2:3|1:3,0:0:0:0:
156,296,53537,2,0,L|152:208,1,88,8|0,2:3|1:3,0:0:0:0:
356,120,53830,2,0,L|444:116,3,88,6|0|8|0,2:3|1:3|2:3|1:3,0:0:0:0:
240,292,54415,6,0,L|236:204,1,88,6|0,2:3|1:3,0:0:0:0:
384,116,54708,2,0,L|296:112,1,88,8|0,2:3|1:3,0:0:0:0:
92,24,55001,2,0,L|4:20,3,88,6|0|8|0,2:3|1:3|2:3|1:3,0:0:0:0:
208,284,55586,5,6,2:3:0:0:
228,240,55659,1,0,0:0:0:0:
208,196,55732,1,0,1:3:0:0:
164,176,55805,1,0,0:0:0:0:
76,220,55879,1,12,2:3:0:0:
56,176,55952,1,0,0:0:0:0:
76,132,56025,1,0,1:3:0:0:
120,112,56098,1,0,0:0:0:0:
276,156,56171,6,0,L|320:152,1,44,6|0,2:3|0:0,0:0:0:0:
276,108,56318,2,0,L|232:104,1,44,0|0,2:3|0:0,0:0:0:0:
388,60,56464,1,12,2:3:0:0:
408,104,56537,1,0,2:3:0:0:
388,148,56610,1,0,2:3:0:0:
344,168,56683,1,0,2:3:0:0:
188,212,56757,6,0,L|182:80,1,132,0|0,2:3|2:3,0:0:0:0:
330,258,57122,1,0,0:0:0:0:
374,256,57196,2,0,L|380:124,1,132,0|0,2:3|2:3,0:0:0:0:
176,302,57561,1,0,0:0:0:0:
132,300,57635,2,0,L|220:296,1,88,4|0,2:3|2:3,0:0:0:0:
484,384,57927,6,0,L|488:296,1,88,6|0,2:3|1:0,0:0:0:0:
340,208,58220,2,0,L|252:204,1,88,8|0,0:3|1:0,0:0:0:0:
104,292,58513,2,0,L|100:204,1,88,2|0,2:3|1:0,0:0:0:0:
160,160,58732,2,0,L|292:154,1,132,0|0,2:3|1:3,0:0:0:0:
88,64,59098,6,0,L|0:60,1,88,2|0,2:3|1:0,0:0:0:0:
148,324,59391,2,0,L|236:320,1,88,8|0,2:3|1:0,0:0:0:0:
148,232,59683,2,0,L|128:192,2,44,2|0|0,2:3|0:0|1:0,0:0:0:0:
296,144,59976,2,0,L|300:56,1,88,8|0,2:3|1:0,0:0:0:0:
96,320,60269,6,0,L|92:232,1,88,2|0,2:3|1:0,0:0:0:0:
240,144,60561,2,0,L|152:140,1,88,8|0,2:3|1:0,0:0:0:0:
300,228,60854,2,0,L|304:140,1,88,2|0,2:3|1:0,0:0:0:0:
244,140,61074,2,0,P|216:100|244:28,1,132,0|0,2:3|1:3,0:0:0:0:
448,116,61440,6,0,L|452:28,1,88,2|0,2:3|1:0,0:0:0:0:
304,292,61732,2,0,L|216:288,1,88,8|0,2:3|1:0,0:0:0:0:
304,200,62025,1,2,2:3:0:0:
324,156,62098,1,0,0:0:0:0:
304,112,62171,1,0,1:0:0:0:
260,92,62244,1,0,0:0:0:0:
172,136,62318,2,0,L|168:48,1,88,8|0,2:3|1:0,0:0:0:0:
372,312,62610,6,0,L|460:308,1,88,6|0,2:3|1:0,0:0:0:0:
312,220,62903,2,0,L|224:216,1,88,8|0,2:3|1:0,0:0:0:0:
372,128,63196,2,0,L|376:40,1,88,2|0,2:3|1:0,0:0:0:0:
316,36,63415,2,0,P|288:76|316:148,1,132,0|0,2:3|1:3,0:0:0:0:
112,236,63781,6,0,L|108:148,1,88,6|0,2:3|1:0,0:0:0:0:
256,60,64074,2,0,L|344:64,1,88,8|0,2:3|1:0,0:0:0:0:
196,328,64366,2,0,L|108:324,1,88,2|0,2:3|1:0,0:0:0:0:
64,280,64586,2,0,L|196:274,1,132,0|0,2:3|1:3,0:0:0:0:
400,360,64952,6,0,L|404:272,1,88,6|0,2:3|1:0,0:0:0:0:
256,184,65244,2,0,L|252:96,1,88,8|0,2:3|1:0,0:0:0:0:
456,8,65537,2,0,L|460:96,1,88,6|0,2:3|1:0,0:0:0:0:
400,140,65757,2,0,L|268:146,1,132,0|0,2:3|1:3,0:0:0:0:
64,236,66123,5,2,0:3:0:0:
44,192,66196,1,0,0:0:0:0:
64,148,66269,1,0,1:0:0:0:
108,128,66342,1,0,0:0:0:0:
196,172,66415,2,0,L|216:132,3,44,12|0|0|0,0:3|0:0|1:0|0:0,0:0:0:0:
372,88,66708,6,0,L|416:86,2,44,6|0|0,0:3|0:0|1:0,0:0:0:0:
216,264,66927,2,0,P|188:224|216:152,1,132,4|0,0:3|1:0,0:0:0:0:
420,328,67293,6,0,L|424:240,1,88,6|0,2:3|1:0,0:0:0:0:
276,152,67586,2,0,L|188:148,1,88,8|0,2:3|1:0,0:0:0:0:
336,60,67879,2,0,L|424:56,1,88,2|0,2:3|1:0,0:0:0:0:
468,16,68098,2,0,L|336:6,1,132,0|0,2:3|1:3,0:0:0:0:
132,184,68464,6,0,L|128:96,1,88,2|0,2:3|1:0,0:0:0:0:
276,272,68757,2,0,L|364:268,1,88,8|0,2:3|1:0,0:0:0:0:
276,180,69049,1,2,2:3:0:0:
232,178,69122,1,0,0:0:0:0:
188,176,69196,1,0,1:0:0:0:
336,352,69342,2,0,L|340:264,1,88,8|0,2:3|1:0,0:0:0:0:
136,88,69635,6,0,L|48:84,1,88,6|0,2:3|1:0,0:0:0:0:
196,260,69927,2,0,L|108:256,1,88,8|0,2:3|1:0,0:0:0:0:
256,168,70220,2,0,L|260:80,1,88,2|0,2:3|1:0,0:0:0:0:
200,76,70440,2,0,P|172:116|200:188,1,132,0|0,2:3|1:3,0:0:0:0:
404,276,70805,6,0,L|492:272,1,88,6|0,2:3|1:0,0:0:0:0:
344,96,71098,2,0,L|432:92,1,88,8|0,2:3|1:0,0:0:0:0:
228,356,71391,2,0,L|224:268,1,88,2|0,2:3|1:0,0:0:0:0:
268,266,71610,1,0,0:0:0:0:
312,264,71683,1,12,2:2:0:0:
164,176,71830,2,0,L|120:174,1,44,0|0,1:0|0:0,0:0:0:0:
276,128,71976,6,0,L|364:124,1,88,6|0,2:3|1:0,0:0:0:0:
216,212,72269,2,0,L|212:124,1,88,8|0,2:3|1:0,0:0:0:0:
360,300,72561,2,0,L|364:212,1,88,2|0,2:3|1:0,0:0:0:0:
304,168,72781,2,0,L|436:162,1,132,0|0,2:3|1:3,0:0:0:0:
232,248,73147,6,0,L|228:160,1,88,6|0,2:3|1:0,0:0:0:0:
376,72,73440,2,0,L|288:68,1,88,8|0,2:3|1:0,0:0:0:0:
140,156,73732,2,0,L|52:152,1,88,2|0,2:3|1:0,0:0:0:0:
8,112,73952,2,0,L|140:106,1,132,0|0,2:3|1:3,0:0:0:0:
344,368,74318,6,0,L|364:328,2,44,6|0|0,2:3|0:0|1:0,0:0:0:0:
196,280,74610,2,0,L|192:192,1,88,8|0,2:3|1:0,0:0:0:0:
396,104,74903,1,6,2:3:0:0:
416,148,74976,1,0,0:0:0:0:
396,192,75049,1,0,1:0:0:0:
352,212,75122,2,0,L|220:218,1,132,0|0,2:3|1:3,0:0:0:0:
424,308,75488,6,0,L|444:268,3,44,2|0|0|0,0:3|0:0|1:0|0:0,0:0:0:0:
356,224,75781,2,0,L|312:222,1,44,12|0,0:3|0:0,0:0:0:0:
356,176,75927,2,0,L|400:174,1,44,0|0,1:0|0:0,0:0:0:0:
244,128,76074,6,0,L|200:126,2,44,6|0|0,0:3|0:0|1:0,0:0:0:0:
400,84,76293,2,0,P|428:124|400:196,1,132,4|0,0:3|2:0,0:0:0:0:
356,198,76586,1,0,2:0:0:0:
200,244,76659,5,4,2:2:0:0:
164,152,76805,1,0,2:3:0:0:
200,60,76952,1,0,2:3:0:0:
288,24,77098,1,0,2:3:0:0:
140,288,77244,2,0,L|136:200,1,88,0|0,2:3|0:0,0:0:0:0:
196,196,77464,2,0,P|224:156|196:84,1,132,0|0,2:3|2:3,0:0:0:0:
108,80,77830,1,0,2:3:0:0:
312,344,77976,6,0,L|316:256,1,88,8|0,2:3|2:3,0:0:0:0:
228,252,78269,1,8,3:3:0:0:
432,164,78415,2,0,L|436:76,1,88,8|0,2:3|0:0,0:0:0:0:
280,32,78635,2,0,P|252:72|280:144,1,132,0|0,2:3|2:3,0:0:0:0:
484,320,79001,6,0,L|488:232,1,88,6|0,2:3|1:0,0:0:0:0:
444,230,79220,1,0,2:3:0:0:
400,228,79293,1,8,0:3:0:0:
252,140,79440,2,0,L|164:136,1,88,0|2,1:3|0:3,0:0:0:0:
208,134,79659,1,0,2:3:0:0:
252,132,79732,1,0,1:0:0:0:
104,44,79879,2,0,L|100:132,1,88,8|0,2:3|1:3,0:0:0:0:
304,220,80171,6,0,L|392:224,1,88,6|0,2:3|1:0,0:0:0:0:
348,226,80391,1,0,2:3:0:0:
304,228,80464,2,0,L|216:232,1,88,8|0,0:3|1:3,0:0:0:0:
420,320,80757,2,0,L|424:232,1,88,2|0,0:3|1:0,0:0:0:0:
380,230,80976,1,0,0:0:0:0:
224,184,81049,2,0,L|220:96,1,88,12|0,2:2|1:3,0:0:0:0:
424,8,81342,6,0,L|428:96,1,88,6|0,2:3|1:0,0:0:0:0:
280,184,81635,2,0,L|368:188,1,88,8|0,2:3|1:0,0:0:0:0:
220,276,81927,2,0,L|216:188,1,88,2|0,2:3|1:3,0:0:0:0:
304,184,82220,2,0,L|308:96,1,88,8|0,2:3|1:3,0:0:0:0:
104,360,82513,6,0,L|100:272,1,88,6|0,2:3|1:0,0:0:0:0:
248,184,82805,2,0,L|160:180,1,88,8|0,0:3|1:3,0:0:0:0:
308,268,83098,1,2,0:3:0:0:
328,224,83171,1,0,2:3:0:0:
308,180,83244,1,0,1:0:0:0:
264,160,83318,1,0,0:0:0:0:
176,116,83391,2,0,L|264:112,1,88,8|0,2:3|1:3,0:0:0:0:
468,200,83683,6,0,L|472:112,1,88,6|0,2:3|1:0,0:0:0:0:
428,110,83903,1,0,2:3:0:0:
384,108,83976,1,8,0:3:0:0:
180,284,84122,2,0,L|268:280,1,88,0|6,1:3|0:3,0:0:0:0:
288,240,84342,2,0,L|268:280,1,44,0|0,0:0|1:3,0:0:0:0:
64,192,84561,6,0,L|60:104,1,88,8|0,2:3|1:3,0:0:0:0:
104,102,84781,1,0,0:0:0:0:
148,100,84854,1,2,0:3:0:0:
296,188,85001,2,0,L|120:180,1,176,0|0,1:0|1:0,0:0:0:0:
324,268,85440,5,6,0:3:0:0:
344,224,85513,1,0,0:0:0:0:
324,180,85586,1,0,1:0:0:0:
280,160,85659,1,0,0:0:0:0:
192,116,85732,1,12,0:3:0:0:
172,72,85805,1,0,0:0:0:0:
192,28,85879,1,0,1:0:0:0:
236,8,85952,1,0,0:0:0:0:
400,140,86025,6,0,L|404:52,1,88,6|0,3:1|1:0,0:0:0:0:
256,228,86318,2,0,L|256:184,2,44,2|0|0,2:1|0:0|1:0,0:0:0:0:
108,316,86610,2,0,L|104:228,1,88,2|0,2:1|2:3,0:0:0:0:
308,52,86903,2,0,L|396:56,1,88,10|0,2:3|2:3,0:0:0:0:
192,144,87196,6,0,L|104:148,2,88,2|2|8,2:1|2:1|3:3,0:0:0:0:
340,232,87635,2,0,L|344:144,1,88,2|2,2:1|2:1,0:0:0:0:
140,320,87927,2,0,L|120:280,2,44,4|0|8,1:1|0:0|3:3,0:0:0:0:
228,316,88220,1,4,1:1:0:0:
24,228,88366,6,0,L|20:140,1,88,2|0,2:1|1:0,0:0:0:0:
168,316,88659,2,0,L|168:228,1,88,2|0,3:1|2:3,0:0:0:0:
316,140,88952,2,0,L|320:52,1,88,2|0,3:1|1:0,0:0:0:0:
116,140,89244,2,0,L|204:136,1,88,10|0,2:3|2:3,0:0:0:0:
408,224,89537,6,0,L|320:220,2,88,6|2|8,2:1|1:1|3:3,0:0:0:0:
260,312,89976,2,0,L|240:272,2,44,2|0|2,2:1|0:0|3:1,0:0:0:0:
464,136,90269,2,0,L|484:96,2,44,0|0|8,1:0|0:0|2:3,0:0:0:0:
376,132,90561,1,0,2:3:0:0:
172,220,90708,5,6,3:1:0:0:
168,132,90854,2,0,L|212:130,1,44,0|0,1:0|0:0,0:0:0:0:
300,304,91001,1,2,2:1:0:0:
304,216,91147,2,0,L|260:214,1,44,0|0,1:0|0:0,0:0:0:0:
172,172,91293,1,2,2:1:0:0:
168,84,91440,2,0,L|212:82,1,44,0|0,1:0|0:0,0:0:0:0:
368,36,91586,2,0,L|456:32,1,88,10|0,2:3|1:0,0:0:0:0:
252,296,91879,6,0,L|164:292,1,88,6|2,2:1|1:1,0:0:0:0:
208,290,92098,1,0,2:3:0:0:
252,288,92171,1,8,3:3:0:0:
104,200,92318,2,0,L|100:112,1,88,2|2,2:1|2:1,0:0:0:0:
304,24,92610,1,0,1:0:0:0:
348,26,92683,1,0,0:0:0:0:
392,28,92757,2,0,L|304:32,1,88,8|0,2:3|1:0,0:0:0:0:
40,296,93049,5,2,3:1:0:0:
20,252,93122,1,0,0:0:0:0:
40,208,93196,1,0,2:3:0:0:
84,188,93269,1,0,2:3:0:0:
172,232,93342,2,0,L|192:192,3,44,2|0|0|0,3:1|0:0|2:3|2:3,0:0:0:0:
348,148,93635,6,0,L|392:146,2,44,6|0|0,3:1|0:0|2:3,0:0:0:0:
192,324,93854,2,0,P|164:284|192:212,1,132,2|2,2:1|1:1,0:0:0:0:
396,300,94220,5,2,3:1:0:0:
416,256,94293,1,0,0:0:0:0:
396,212,94366,1,2,2:1:0:0:
352,192,94440,1,0,2:3:0:0:
264,236,94513,2,0,L|244:196,3,44,6|0|2|0,3:1|0:0|2:1|2:3,0:0:0:0:
156,152,94805,5,6,3:1:0:0:
136,108,94879,1,0,0:0:0:0:
156,64,94952,1,2,2:1:0:0:
200,44,95025,1,0,2:3:0:0:
356,220,95098,1,2,2:1:0:0:
376,176,95171,1,0,2:3:0:0:
356,132,95244,1,2,2:1:0:0:
312,112,95318,1,0,2:3:0:0:
156,288,95391,6,0,P|104:264|156:188,1,176,4|0,2:3|0:0,0:0:0:0:
244,192,95830,2,0,P|296:168|244:92,1,176,0|0,2:3|0:0,0:0:0:0:
96,4,96269,2,0,L|92:92,1,88,0|0,2:3|2:3,0:0:0:0:
240,180,96561,6,0,P|292:204|240:280,1,176,8|0,3:1|0:0,0:0:0:0:
236,192,97001,1,0,0:0:0:0:
384,104,97147,2,0,L|472:100,1,88,0|0,2:3|0:0,0:0:0:0:
384,12,97440,2,0,L|296:8,1,88,0|0,2:3|0:0,0:0:0:0:
444,272,97732,6,0,P|404:191|328:159,1,176,0|0,2:3|0:0,0:0:0:0:
240,156,98171,2,0,P|164:124|124:44,1,176,0|0,2:3|0:0,0:0:0:0:
272,220,98610,2,0,L|276:132,1,88,0|0,2:3|2:3,0:0:0:0:
128,308,98903,6,0,P|168:227|244:195,1,176,8|0,3:1|0:0,0:0:0:0:
332,192,99342,1,0,0:0:0:0:
184,280,99488,2,0,L|180:192,1,88,0|0,2:3|0:0,0:0:0:0:
328,104,99781,2,0,L|332:16,1,88,0|0,2:3|0:0,0:0:0:0:
184,104,100074,6,0,P|108:136|68:216,1,176,0|0,2:3|0:0,0:0:0:0:
216,304,100513,2,0,P|268:280|216:204,1,176,0|0,2:3|0:0,0:0:0:0:
128,116,100952,2,0,L|216:112,1,88,0|0,2:3|0:0,0:0:0:0:
364,200,101244,6,0,L|368:112,1,88,0|0,2:3|0:0,0:0:0:0:
280,108,101537,2,0,L|276:20,1,88,0|0,2:3|0:0,0:0:0:0:
424,284,101830,1,0,2:3:0:0:
460,192,101976,1,0,0:0:0:0:
424,100,102122,1,0,2:3:0:0:
336,64,102269,1,0,0:0:0:0:
188,240,102415,6,0,P|136:216|188:140,1,176,0|0,2:3|0:0,0:0:0:0:
336,316,102854,2,0,P|412:284|452:204,1,176,0|0,2:3|0:0,0:0:0:0:
416,128,103293,1,0,2:3:0:0:
336,92,103440,1,0,2:3:0:0:
188,180,103586,6,0,P|112:148|72:68,1,176,8|0,3:1|0:0,0:0:0:0:
160,64,104025,1,0,0:0:0:0:
308,152,104171,2,0,L|312:64,1,88,0|0,2:3|0:0,0:0:0:0:
164,240,104464,2,0,L|160:152,1,88,0|0,2:3|2:3,0:0:0:0:
204,150,104683,1,0,2:3:0:0:
360,324,104757,6,0,P|412:300|360:224,1,176,0|0,2:3|0:0,0:0:0:0:
272,136,105196,2,0,L|448:128,1,176,0|0,2:3|0:0,0:0:0:0:
300,40,105635,2,0,L|212:36,1,88,0|0,2:3|2:3,0:0:0:0:
360,124,105927,6,0,P|412:148|360:224,1,176,8|0,3:1|0:0,0:0:0:0:
272,228,106366,1,0,0:0:0:0:
124,316,106513,2,0,L|120:228,1,88,0|0,2:3|0:0,0:0:0:0:
208,140,106805,2,0,L|296:136,1,88,0|0,2:3|0:0,0:0:0:0:
148,48,107098,6,0,P|96:72|148:148,1,176,0|0,2:3|0:0,0:0:0:0:
236,236,107537,2,0,L|60:244,1,176,0|0,2:3|0:0,0:0:0:0:
208,332,107976,2,0,L|212:244,1,88,0|0,2:3|2:3,0:0:0:0:
360,156,108269,6,0,L|184:148,1,176,8|0,3:1|0:0,0:0:0:0:
272,144,108708,1,0,0:0:0:0:
420,232,108854,2,0,L|424:144,1,88,0|0,2:3|0:0,0:0:0:0:
276,320,109147,2,0,L|272:232,1,88,0|0,2:3|0:0,0:0:0:0:
420,56,109440,6,0,P|472:80|420:156,1,176,0|0,2:3|0:0,0:0:0:0:
272,244,109879,2,0,P|196:212|156:132,1,176,0|0,2:3|0:0,0:0:0:0:
192,56,110318,1,0,2:3:0:0:
272,20,110464,1,0,0:0:0:0:
124,284,110610,6,0,L|120:196,1,88,0|0,2:3|0:0,0:0:0:0:
208,192,110903,2,0,L|208:104,1,88,0|0,2:3|0:0,0:0:0:0:
296,100,111196,2,0,L|300:12,1,88,0|0,2:3|0:0,0:0:0:0:
152,364,111488,2,0,L|64:360,1,88,0|0,2:3|2:3,0:0:0:0:
212,272,111781,6,0,L|388:264,1,176,8|0,3:1|0:0,0:0:0:0:
240,176,112220,2,0,P|188:152|240:76,1,176,0|0,2:3|0:0,0:0:0:0:
328,164,112659,2,0,L|240:168,1,88,0|0,2:3|0:0,0:0:0:0:
92,256,112952,6,0,P|40:232|92:156,1,176,0|0,2:3|0:0,0:0:0:0:
180,152,113391,1,0,2:3:0:0:
328,240,113537,2,0,L|332:152,1,88,0|0,0:0|0:0,0:0:0:0:
184,328,113830,2,0,L|180:240,1,88,0|0,2:3|0:0,0:0:0:0:
444,64,114122,5,4,3:2:0:0:
256,192,114269,12,0,117342,0:0:0:0:
