osu file format v14

[General]
AudioFilename: audio.mp3
AudioLeadIn: 0
PreviewTime: 56715
Countdown: 0
SampleSet: Drum
StackLeniency: 0.7
Mode: 2
LetterboxInBreaks: 0
EpilepsyWarning: 1
WidescreenStoryboard: 1

[Editor]
Bookmarks: 1727,20459,39191,48556,57922,76654,78996,95386,114117
DistanceSpacing: 1
BeatDivisor: 4
GridSize: 4
TimelineZoom: 2.899999

[Metadata]
Title:Absolute Gate
TitleUnicode:Absolute Gate
Artist:E0ri4
ArtistUnicode:E0ri4
Creator:autofanboy
Version:Platter
Source:BOFU2017 - LEGENDA EST A MYTH -
Tags:alienflybot AFB osu!catch Academy Tournament CAT Grand Finals GF NoMod NM2 featured artist FA mappers’ guild MG MPG BOF BMS of Fighters Ultimate まさいたちの夜 Starry Gate GAMEBAKA2000 げ〜むばか Kengo Nakao Trance Core Artcore eori4 e0ria eoria Electronic Instrumental
BeatmapID:3928967
BeatmapSetID:1897932

[Difficulty]
HPDrainRate:5
CircleSize:3.9
OverallDifficulty:8.2
ApproachRate:8.2
SliderMultiplier:1.6
SliderTickRate:2

[Events]
//Background and Video events
0,0,"Celestial Loom_Julian-Faylona.jpg",0,0
Video,-200,"Absolute Gate Video.mp4"
//Break Periods
//Storyboard Layer 0 (Background)
//Storyboard Layer 1 (Fail)
//Storyboard Layer 2 (Pass)
//Storyboard Layer 3 (Foreground)
//Storyboard Layer 4 (Overlay)
//Storyboard Sound Samples

[TimingPoints]
562,292.682926829268,4,3,1,55,1,0
1732,-100,4,3,1,60,0,0
11098,-100,4,3,1,65,0,0
11391,-100,4,3,2,65,0,0
11537,-100,4,3,1,65,0,0
11976,-100,4,3,2,65,0,0
12122,-100,4,3,1,65,0,0
12269,-100,4,3,2,65,0,0
12415,-100,4,3,1,65,0,0
12561,-100,4,3,2,65,0,0
12708,-100,4,3,1,65,0,0
13147,-100,4,3,2,65,0,0
13293,-100,4,3,1,65,0,0
13732,-100,4,3,2,65,0,0
13879,-100,4,3,1,65,0,0
14318,-100,4,3,2,65,0,0
14464,-100,4,3,1,65,0,0
14610,-100,4,3,2,65,0,0
14757,-100,4,3,1,65,0,0
14903,-100,4,3,2,65,0,0
15049,-100,4,3,1,65,0,0
15488,-100,4,3,2,65,0,0
15635,-100,4,3,1,65,0,0
15781,-100,4,3,1,70,0,0
16074,-100,4,3,2,70,0,0
16220,-100,4,3,1,70,0,0
16659,-100,4,3,2,70,0,0
16805,-100,4,3,1,70,0,0
17244,-100,4,3,2,70,0,0
17391,-100,4,3,1,70,0,0
17830,-100,4,3,2,70,0,0
17976,-100,4,3,1,70,0,0
18122,-100,4,3,1,75,0,0
19293,-100,4,3,1,60,0,0
20464,-100,4,3,1,45,0,0
24122,-100,4,1,2,45,0,0
24269,-100,4,3,1,45,0,0
24415,-100,4,3,2,45,0,0
24708,-100,4,3,1,45,0,0
25147,-100,4,3,1,50,0,0
27488,-100,4,3,1,55,0,0
29098,-100,4,3,2,55,0,0
29244,-100,4,3,1,55,0,0
29830,-100,4,3,1,60,0,0
30269,-100,4,3,2,60,0,0
30415,-100,4,3,1,60,0,0
30708,-100,4,3,3,60,0,1
30854,-100,4,1,2,60,0,0
31001,-100,4,3,1,60,0,0
32025,-100,4,3,2,60,0,0
32171,-100,4,3,1,60,0,0
33049,-100,4,3,3,60,0,1
33196,-100,4,1,2,60,0,0
33342,-100,4,3,1,60,0,0
33781,-100,4,3,2,60,0,0
33927,-100,4,3,1,60,0,0
35391,-100,4,3,3,60,0,1
35537,-100,4,1,2,60,0,0
35683,-100,4,3,1,60,0,0
37586,-100,4,1,2,60,0,0
37659,-100,4,3,1,60,0,0
38318,-100,4,1,1,60,0,0
38464,-100,4,3,1,60,0,0
39196,-100,4,3,3,55,0,0
39342,-100,4,3,1,55,0,0
43293,-100,4,3,1,65,0,0
43440,-100,4,3,1,55,0,0
43586,-100,4,3,1,65,0,0
43732,-100,4,3,1,55,0,0
48561,-100,4,3,1,60,0,0
53244,-100,4,3,1,65,0,0
55586,-100,4,3,1,70,0,0
56171,-100,4,3,1,75,0,0
56757,-100,4,3,1,60,0,0
57635,-100,4,3,1,70,0,0
57927,-100,4,3,1,80,0,1
58659,-100,4,1,2,80,0,1
58732,-100,4,3,1,80,0,1
58952,-100,4,3,2,80,0,1
59098,-100,4,3,1,80,0,1
61001,-100,4,1,2,80,0,1
61074,-100,4,3,1,80,0,1
61293,-100,4,3,2,80,0,1
61440,-100,4,3,1,80,0,1
63342,-100,4,1,2,80,0,1
63415,-100,4,3,1,80,0,1
63635,-100,4,3,2,80,0,1
63781,-100,4,3,1,80,0,1
64513,-100,4,1,2,80,0,1
64586,-100,4,3,1,80,0,1
64805,-100,4,3,2,80,0,1
64952,-100,4,3,1,80,0,1
65683,-100,4,1,2,80,0,1
65757,-100,4,3,1,80,0,1
65976,-100,4,3,2,80,0,1
66122,-100,4,3,1,80,0,1
68318,-100,4,3,2,80,0,1
68464,-100,4,3,1,80,0,1
70659,-100,4,3,2,80,0,1
70805,-100,4,3,1,80,0,1
72708,-100,4,1,2,80,0,1
72781,-100,4,3,1,80,0,1
73001,-100,4,3,2,80,0,1
73147,-100,4,3,1,80,0,1
73879,-100,4,1,2,80,0,1
73952,-100,4,3,1,80,0,1
74171,-100,4,3,2,80,0,1
74318,-100,4,3,1,80,0,1
75342,-100,4,3,2,80,0,1
75488,-100,4,3,1,80,0,1
76659,-100,4,3,1,60,0,0
78708,-100,4,3,1,70,0,0
79001,-100,4,3,1,80,0,1
79147,-100,4,1,2,80,0,1
79220,-100,4,3,1,80,0,1
79440,-100,4,3,2,80,0,1
79659,-100,4,3,1,80,0,1
80025,-100,4,3,2,80,0,1
80171,-100,4,3,1,80,0,1
80318,-100,4,1,2,80,0,1
80391,-100,4,3,1,80,0,1
80610,-100,4,3,2,80,0,1
80757,-100,4,3,1,80,0,1
81196,-100,4,3,2,80,0,1
81342,-100,4,3,1,80,0,1
82074,-100,4,3,2,80,0,1
82220,-100,4,3,1,80,0,1
82366,-100,4,3,2,80,0,1
82513,-100,4,3,1,80,0,1
82952,-100,4,3,2,80,0,1
83098,-100,4,3,1,80,0,1
83537,-100,4,3,2,80,0,1
83683,-100,4,3,1,80,0,1
83830,-100,4,1,2,80,0,1
83903,-100,4,3,1,80,0,1
84122,-100,4,3,2,80,0,1
84269,-100,4,2,1,80,0,1
84342,-100,4,3,1,80,0,1
84415,-100,4,3,2,80,0,1
84561,-100,4,3,1,80,0,1
84708,-100,4,1,2,80,0,1
84781,-100,4,3,2,80,0,1
84854,-100,4,3,1,80,0,1
85147,-100,4,2,1,80,0,1
85293,-100,4,3,1,80,0,1
86757,-100,4,3,1,80,0,0
86903,-100,4,3,3,80,0,1
87049,-100,4,1,2,80,0,1
87196,-100,4,3,1,80,0,1
89098,-100,4,3,1,80,0,0
89244,-100,4,3,3,80,0,1
89391,-100,4,1,2,80,0,1
89537,-100,4,3,1,80,0,1
91440,-100,4,3,1,80,0,0
91586,-100,4,3,3,80,0,1
91732,-100,4,1,2,80,0,1
91879,-100,4,3,1,80,0,1
95244,-100,4,3,1,80,0,0
95391,-100,4,3,3,60,0,1
95537,-100,4,3,1,60,0,0
99488,-100,4,3,1,70,0,0
99635,-100,4,3,1,60,0,0
99781,-100,4,3,1,70,0,0
99927,-100,4,3,1,60,0,0
104757,-100,4,3,1,55,0,0
108854,-100,4,3,1,65,0,0
109001,-100,4,3,1,55,0,0
109147,-100,4,3,1,65,0,0
109293,-100,4,3,1,55,0,0
114122,-100,4,1,3,50,0,0
116025,-100,4,1,3,25,0,0
116464,-100,4,1,3,12,0,0
116903,-100,4,1,3,5,0,0

[Colours]
Combo1 : 79,239,255
Combo2 : 190,202,233
Combo3 : 19,72,188
Combo4 : 42,78,78

[HitObjects]
84,152,1586,5,0,2:3:0:0:
292,232,1732,5,4,2:2:0:0:
324,160,1879,1,0,2:3:0:0:
292,88,2025,1,0,2:3:0:0:
220,56,2171,2,0,L|60:48,2,160,0|0|0,2:3|2:3|2:3,0:0:0:0:
428,136,2903,5,4,3:2:0:0:
416,216,3049,1,0,2:3:0:0:
364,276,3196,1,0,2:3:0:0:
296,320,3342,1,0,0:0:0:0:
216,320,3488,1,2,2:2:0:0:
456,160,3781,1,2,2:2:0:0:
104,0,4074,5,4,2:2:0:0:
124,76,4220,1,0,2:3:0:0:
180,132,4366,1,0,2:3:0:0:
256,152,4513,2,0,L|416:144,2,160,0|0|0,2:3|2:3|2:3,0:0:0:0:
48,232,5244,6,0,L|40:152,2,80,4|0|0,3:2|2:3|2:3,0:0:0:0:
192,312,5683,2,0,L|232:310,1,40,2|2,3:3|3:3,0:0:0:0:
192,268,5830,2,0,L|72:262,2,120,2|2|2,2:2|3:2|3:2,0:0:0:0:
400,348,6415,6,0,L|400:188,1,160,4|0,2:2|0:0,0:0:0:0:
256,108,6854,2,0,P|200:84|256:40,1,160,0|0,2:3|0:0,0:0:0:0:
336,120,7293,2,0,L|256:124,1,80,0|0,2:3|2:3,0:0:0:0:
48,204,7586,6,0,L|48:44,1,160,4|0,3:2|2:3,0:0:0:0:
128,40,8025,1,0,0:0:0:0:
272,120,8171,2,0,L|392:114,2,120,2|2|2,2:2|3:2|3:2,0:0:0:0:
64,200,8757,6,0,P|8:224|64:268,1,160,4|0,2:2|0:0,0:0:0:0:
144,264,9196,1,0,2:3:0:0:
288,344,9342,2,0,L|128:336,1,160,4|0,3:2|2:3,0:0:0:0:
480,176,9927,6,0,P|432:96|372:80,1,160,2|2,2:2|3:2,0:0:0:0:
292,76,10366,1,0,2:3:0:0:
148,156,10513,2,0,L|268:150,2,120,2|2|2,3:2|3:2|2:2,0:0:0:0:
388,236,11098,6,0,L|468:232,2,80,6|0|8,2:3|2:3|2:3,0:0:0:0:
308,316,11537,2,0,L|304:236,1,80,0|2,2:3|3:3,0:0:0:0:
384,156,11830,2,0,L|388:76,1,80,0|8,2:3|3:3,0:0:0:0:
244,156,12122,6,0,P|188:180|244:224,1,160,0|0,2:3|2:3,0:0:0:0:
324,304,12561,2,0,L|244:308,1,80,8|0,2:3|0:0,0:0:0:0:
164,228,12854,2,0,L|244:224,1,80,2|0,2:3|0:0,0:0:0:0:
388,144,13147,2,0,L|404:108,2,40,8|0|0,2:3|0:0|0:0,0:0:0:0:
180,64,13440,6,0,L|100:60,2,80,2|0|8,2:3|2:3|2:3,0:0:0:0:
260,144,13879,2,0,L|264:64,1,80,0|2,2:3|3:3,0:0:0:0:
184,224,14171,2,0,L|180:144,1,80,0|8,2:3|3:3,0:0:0:0:
324,304,14464,6,0,L|164:296,1,160,0|0,2:3|2:3,0:0:0:0:
84,216,14903,2,0,L|164:212,1,80,8|0,2:3|0:0,0:0:0:0:
244,292,15196,2,0,L|248:212,1,80,2|0,2:3|0:0,0:0:0:0:
104,132,15488,2,0,L|88:96,2,40,8|0|0,2:3|0:0|0:0,0:0:0:0:
344,52,15781,6,0,L|424:56,1,80,4|0,2:2|0:0,0:0:0:0:
344,136,16074,2,0,L|264:140,1,80,8|0,2:3|2:3,0:0:0:0:
408,220,16366,2,0,L|412:300,1,80,4|0,3:2|2:3,0:0:0:0:
332,380,16659,1,8,3:3:0:0:
372,378,16732,1,0,0:0:0:0:
412,376,16805,1,0,2:3:0:0:
172,296,16952,6,0,L|168:216,1,80,4|0,3:2|2:3,0:0:0:0:
248,212,17244,2,0,L|252:132,1,80,8|0,2:3|0:0,0:0:0:0:
108,52,17537,2,0,L|28:56,1,80,4|0,2:2|2:3,0:0:0:0:
108,136,17830,1,8,2:3:0:0:
68,138,17903,1,0,0:0:0:0:
28,140,17976,1,0,2:3:0:0:
268,220,18122,5,4,2:2:0:0:
308,208,18196,1,0,0:0:0:0:
336,180,18269,1,0,0:0:0:0:
348,140,18342,1,0,0:0:0:0:
336,100,18415,1,4,3:2:0:0:
308,72,18488,1,0,0:0:0:0:
268,60,18561,1,0,0:0:0:0:
124,300,18708,5,4,3:2:0:0:
108,264,18781,1,0,0:0:0:0:
124,228,18854,1,0,0:0:0:0:
164,208,18927,1,0,0:0:0:0:
204,188,19001,1,4,3:2:0:0:
220,152,19074,1,0,0:0:0:0:
204,116,19147,1,0,0:0:0:0:
60,356,19293,6,0,L|54:236,1,120,2|2,2:2|3:2,0:0:0:0:
176,230,19732,1,2,3:2:0:0:
320,310,19879,2,0,L|326:190,1,120,2|2,3:2|3:2,0:0:0:0:
204,184,20318,1,2,3:2:0:0:
412,344,20464,5,6,3:3:0:0:
468,288,20610,1,0,1:3:0:0:
488,212,20757,1,2,3:3:0:0:
468,136,20903,1,0,1:3:0:0:
412,80,21049,1,2,3:3:0:0:
336,60,21196,1,0,1:3:0:0:
192,220,21342,2,0,L|176:184,2,40,2|0|0,3:3|0:0|1:3,0:0:0:0:
336,380,21635,5,2,3:3:0:0:
368,308,21781,1,0,1:3:0:0:
336,236,21927,1,2,3:3:0:0:
264,204,22074,1,0,1:3:0:0:
232,132,22220,1,2,3:3:0:0:
264,60,22366,1,0,1:3:0:0:
408,220,22513,2,0,L|424:184,2,40,2|0|0,3:3|0:0|1:3,0:0:0:0:
264,380,22806,5,2,3:3:0:0:
232,308,22952,1,0,1:3:0:0:
264,236,23098,1,2,3:3:0:0:
336,204,23244,1,0,1:3:0:0:
368,132,23391,1,2,3:3:0:0:
336,60,23537,1,0,1:3:0:0:
192,220,23683,1,2,3:3:0:0:
190,180,23757,1,0,0:0:0:0:
188,140,23830,1,0,1:3:0:0:
44,300,23976,6,0,L|44:140,1,160,2|2,2:3|3:3,0:0:0:0:
188,220,24415,2,0,P|244:196|188:152,1,160,0|0,1:3|1:3,0:0:0:0:
108,148,24854,2,0,L|104:68,1,80,2|0,2:3|1:3,0:0:0:0:
184,308,25147,5,2,3:3:0:0:
144,306,25220,1,0,0:0:0:0:
104,304,25293,1,0,1:3:0:0:
248,224,25440,2,0,L|328:220,1,80,10|0,3:3|1:3,0:0:0:0:
248,140,25732,2,0,L|232:104,2,40,2|0|0,3:3|0:0|1:3,0:0:0:0:
392,220,26025,2,0,L|396:140,1,80,10|0,3:3|1:3,0:0:0:0:
316,60,26318,5,2,3:3:0:0:
356,58,26391,1,0,0:0:0:0:
396,56,26464,1,0,1:3:0:0:
252,296,26610,2,0,L|172:292,1,80,10|0,3:3|1:3,0:0:0:0:
252,212,26903,2,0,L|268:176,2,40,2|0|0,3:3|0:0|1:3,0:0:0:0:
108,132,27196,2,0,L|188:128,1,80,10|0,3:3|1:3,0:0:0:0:
268,48,27488,5,2,3:3:0:0:
228,46,27561,1,0,0:0:0:0:
188,44,27635,1,0,1:3:0:0:
44,204,27781,2,0,L|40:124,1,80,10|0,3:3|1:3,0:0:0:0:
120,284,28074,1,2,3:3:0:0:
122,244,28147,1,0,0:0:0:0:
124,204,28220,1,0,1:3:0:0:
268,364,28366,2,0,L|272:284,1,80,10|0,3:3|1:3,0:0:0:0:
128,44,28659,5,2,2:3:0:0:
88,64,28732,1,0,0:0:0:0:
72,100,28805,1,2,1:2:0:0:
88,136,28879,1,0,0:0:0:0:
128,156,28952,1,10,3:3:0:0:
272,236,29098,2,0,L|288:200,2,40,2|0|2,1:2|0:0|3:3,0:0:0:0:
128,316,29391,2,0,P|176:236|236:220,1,160,8|0,1:3|1:3,0:0:0:0:
444,300,29830,6,0,L|448:220,1,80,6|0,2:1|1:3,0:0:0:0:
304,140,30122,2,0,L|224:136,1,80,2|0,2:1|1:3,0:0:0:0:
304,56,30415,2,0,L|384:52,1,80,2|0,3:1|1:3,0:0:0:0:
176,212,30708,2,0,P|120:188|176:144,1,160,10|2,3:3|3:1,0:0:0:0:
256,64,31147,6,0,L|176:60,1,80,2|8,1:1|3:3,0:0:0:0:
32,220,31440,2,0,L|28:140,1,80,2|2,1:1|3:1,0:0:0:0:
172,300,31732,1,0,1:3:0:0:
252,296,31879,2,0,L|256:216,1,80,8|0,3:3|1:3,0:0:0:0:
112,376,32171,6,0,L|108:296,1,80,2|0,2:1|1:3,0:0:0:0:
252,216,32464,2,0,L|332:212,1,80,2|0,3:1|1:3,0:0:0:0:
252,132,32757,2,0,L|172:128,1,80,2|0,3:1|1:3,0:0:0:0:
380,48,33049,2,0,P|436:72|380:116,1,160,10|2,3:3|2:1,0:0:0:0:
300,196,33488,6,0,L|380:200,1,80,2|8,1:1|3:3,0:0:0:0:
236,280,33781,2,0,L|156:284,1,80,2|2,1:1|3:1,0:0:0:0:
300,364,34074,2,0,L|316:328,2,40,0|0|8,1:3|0:0|2:3,0:0:0:0:
220,360,34366,1,0,1:3:0:0:
428,280,34513,6,0,L|432:200,1,80,6|0,2:1|1:3,0:0:0:0:
288,120,34805,2,0,L|208:116,1,80,2|0,3:1|1:3,0:0:0:0:
288,36,35098,2,0,L|368:32,1,80,2|0,3:1|1:3,0:0:0:0:
160,192,35391,2,0,P|100:176|52:96,1,160,10|6,3:3|3:1,0:0:0:0:
132,16,35830,6,0,L|52:12,1,80,2|8,1:1|3:3,0:0:0:0:
196,172,36122,2,0,L|200:92,1,80,2|2,1:1|3:1,0:0:0:0:
344,252,36415,2,0,L|264:248,2,80,0|8|0,1:3|3:3|1:3,0:0:0:0:
136,332,36854,6,0,L|132:252,1,80,6|0,3:1|1:3,0:0:0:0:
276,172,37147,2,0,L|356:168,1,80,6|0,3:1|1:3,0:0:0:0:
212,88,37440,2,0,L|92:82,2,120,6|6|2,3:1|3:1|1:1,0:0:0:0:
420,248,38025,5,4,3:1:0:0:
424,168,38171,2,0,L|264:160,1,160,0|0,1:3|1:3,0:0:0:0:
120,320,38610,2,0,L|116:240,1,80,4|0,3:1|1:3,0:0:0:0:
260,160,38903,2,0,L|264:80,1,80,4|0,3:1|1:3,0:0:0:0:
56,240,39196,6,0,P|104:160|164:144,1,160,4|0,2:3|0:0,0:0:0:0:
244,140,39635,2,0,P|304:124|352:44,1,160,0|0,2:3|0:0,0:0:0:0:
208,284,40074,2,0,L|204:204,1,80,0|0,2:3|2:3,0:0:0:0:
364,364,40513,6,0,L|444:360,2,80,0|0|0,2:3|2:3|2:3,0:0:0:0:
124,44,41098,2,0,L|44:40,2,80,0|0|0,2:3|2:3|2:3,0:0:0:0:
268,124,41537,5,0,2:3:0:0:
300,196,41683,1,0,2:3:0:0:
268,268,41830,1,0,2:3:0:0:
196,300,41976,2,0,L|36:308,2,160,0|0|0,2:3|2:3|2:3,0:0:0:0:
116,296,42708,6,0,L|112:216,1,80,8|0,3:1|0:0,0:0:0:0:
256,136,43001,2,0,L|416:128,2,160,0|0|0,2:3|2:3|2:3,0:0:0:0:
496,296,43879,5,0,2:3:0:0:
476,220,44025,1,0,2:3:0:0:
420,164,44171,1,0,2:3:0:0:
344,144,44318,2,0,L|184:136,1,160,0|0,2:3|2:3,0:0:0:0:
264,132,44757,2,0,L|268:52,1,80,0|0,2:3|2:3,0:0:0:0:
124,292,45049,5,0,2:3:0:0:
92,220,45196,1,0,2:3:0:0:
124,148,45342,1,0,2:3:0:0:
196,116,45488,2,0,L|356:124,1,160,0|0,2:3|2:3,0:0:0:0:
276,204,45927,2,0,L|356:208,1,80,0|0,2:3|2:3,0:0:0:0:
212,288,46220,6,0,P|152:272|104:192,1,160,0|0,2:3|2:3,0:0:0:0:
248,272,46659,2,0,L|252:192,1,80,0|0,2:3|0:0,0:0:0:0:
172,188,46952,2,0,L|168:108,1,80,0|0,2:3|0:0,0:0:0:0:
312,28,47244,2,0,L|392:32,1,80,0|0,2:3|0:0,0:0:0:0:
248,112,47537,6,0,L|232:148,2,40,0|0|0,2:3|2:3|2:3,0:0:0:0:
328,192,47830,2,0,L|328:232,2,40,0|0|0,2:3|2:3|2:3,0:0:0:0:
408,272,48122,2,0,L|424:308,2,40,0|0|0,2:3|2:3|2:3,0:0:0:0:
328,268,48415,1,0,2:3:0:0:
120,348,48561,6,0,L|40:344,2,80,4|0|8,2:3|1:3|3:3,0:0:0:0:
264,268,49001,2,0,L|268:188,1,80,0|2,2:3|3:3,0:0:0:0:
188,184,49293,1,0,1:3:0:0:
44,104,49440,2,0,L|28:68,2,40,8|0|0,2:3|0:0|1:3,0:0:0:0:
188,184,49732,6,0,L|268:180,1,80,2|0,2:3|1:3,0:0:0:0:
228,182,49952,1,0,0:0:0:0:
188,184,50025,2,0,L|184:104,1,80,8|0,2:3|1:3,0:0:0:0:
328,264,50318,2,0,L|408:260,1,80,2|0,2:3|1:3,0:0:0:0:
368,262,50537,1,0,0:0:0:0:
328,264,50610,2,0,L|248:268,1,80,8|0,2:3|1:3,0:0:0:0:
456,348,50903,6,0,L|460:268,1,80,2|0,2:3|1:3,0:0:0:0:
380,264,51196,2,0,L|376:184,1,80,8|0,2:3|1:3,0:0:0:0:
232,104,51488,2,0,L|152:100,1,80,2|0,2:3|1:3,0:0:0:0:
192,102,51708,1,0,2:3:0:0:
232,104,51781,2,0,L|312:108,1,80,8|0,3:3|2:3,0:0:0:0:
168,188,52074,6,0,L|248:192,1,80,2|0,2:3|1:3,0:0:0:0:
328,272,52366,2,0,L|248:276,1,80,8|0,2:3|1:3,0:0:0:0:
104,356,52659,2,0,L|100:276,1,80,2|0,2:3|1:3,0:0:0:0:
140,274,52879,1,0,0:0:0:0:
180,272,52952,2,0,L|100:268,1,80,8|0,2:3|1:3,0:0:0:0:
340,188,53244,6,0,L|344:108,1,80,6|0,2:3|1:3,0:0:0:0:
264,104,53537,2,0,L|260:24,1,80,8|0,2:3|1:3,0:0:0:0:
404,264,53830,2,0,L|484:260,1,80,6|0,2:3|1:3,0:0:0:0:
404,180,54122,1,8,2:3:0:0:
444,178,54196,1,0,0:0:0:0:
484,176,54269,1,0,1:3:0:0:
244,336,54415,6,0,L|164:332,1,80,6|0,2:3|1:3,0:0:0:0:
244,252,54708,2,0,L|324:248,1,80,8|0,2:3|1:3,0:0:0:0:
180,168,55001,2,0,L|176:88,1,80,6|0,2:3|1:3,0:0:0:0:
256,84,55293,2,0,L|276:48,2,40,8|0|0,2:3|0:0|1:3,0:0:0:0:
16,324,55586,5,6,2:3:0:0:
24,284,55659,1,0,0:0:0:0:
36,248,55732,1,0,1:3:0:0:
60,216,55805,1,0,0:0:0:0:
92,192,55879,1,12,2:3:0:0:
128,176,55952,1,0,0:0:0:0:
168,172,56025,1,0,1:3:0:0:
312,252,56171,6,0,L|332:216,2,40,6|0|0,2:3|0:0|2:3,0:0:0:0:
168,332,56464,2,0,L|148:296,2,40,12|0|0,2:3|2:3|2:3,0:0:0:0:
312,252,56757,6,0,L|432:246,2,120,0|0|0,2:3|2:3|2:3,0:0:0:0:
192,132,57415,1,0,2:3:0:0:
400,12,57635,1,4,2:3:0:0:
48,332,57927,6,0,L|44:252,1,80,6|0,2:3|1:0,0:0:0:0:
124,172,58220,2,0,L|44:168,1,80,8|0,0:3|1:0,0:0:0:0:
188,248,58513,2,0,L|308:242,2,120,2|0|0,2:3|2:3|1:3,0:0:0:0:
332,328,59098,6,0,L|336:248,1,80,2|0,2:3|1:0,0:0:0:0:
256,244,59391,2,0,L|252:164,1,80,8|0,2:3|1:0,0:0:0:0:
396,84,59683,2,0,L|416:48,2,40,2|0|0,2:3|0:0|1:0,0:0:0:0:
316,164,59976,2,0,L|396:168,1,80,8|0,2:3|1:0,0:0:0:0:
188,328,60269,6,0,L|108:324,1,80,2|0,2:3|1:0,0:0:0:0:
188,244,60561,2,0,L|268:240,1,80,8|0,2:3|1:0,0:0:0:0:
124,160,60854,2,0,L|4:154,2,120,2|0|0,2:3|2:3|1:3,0:0:0:0:
268,240,61440,6,0,L|272:160,1,80,2|0,2:3|1:0,0:0:0:0:
192,80,61732,2,0,L|272:76,1,80,8|0,2:3|1:0,0:0:0:0:
416,156,62025,1,2,2:3:0:0:
428,196,62098,1,0,0:0:0:0:
416,236,62171,1,0,1:0:0:0:
388,264,62244,1,0,0:0:0:0:
348,276,62318,2,0,L|268:280,1,80,8|0,2:3|1:0,0:0:0:0:
60,360,62610,6,0,L|56:280,1,80,6|0,2:3|1:0,0:0:0:0:
136,200,62903,2,0,L|216:196,1,80,8|0,2:3|1:0,0:0:0:0:
72,116,63196,2,0,L|192:110,2,120,2|0|0,2:3|2:3|1:3,0:0:0:0:
216,276,63781,6,0,L|296:272,1,80,6|0,2:3|1:0,0:0:0:0:
216,192,64074,2,0,L|296:188,1,80,8|0,2:3|1:0,0:0:0:0:
440,108,64366,2,0,L|320:102,2,120,2|0|0,2:3|2:3|1:3,0:0:0:0:
232,348,64952,6,0,L|228:268,1,80,6|0,2:3|1:0,0:0:0:0:
308,264,65244,2,0,L|312:184,1,80,8|0,2:3|1:0,0:0:0:0:
168,104,65537,2,0,L|48:98,2,120,6|0|0,2:3|2:3|1:3,0:0:0:0:
312,24,66122,5,2,0:3:0:0:
352,36,66196,1,0,0:0:0:0:
380,64,66269,1,0,1:0:0:0:
392,104,66342,1,0,0:0:0:0:
380,144,66415,1,12,0:3:0:0:
352,172,66488,1,0,0:0:0:0:
312,184,66561,1,0,1:0:0:0:
168,264,66708,5,6,0:3:0:0:
152,228,66781,1,0,0:0:0:0:
168,192,66854,1,0,1:0:0:0:
208,172,66927,2,0,L|328:166,1,120,4|0,0:3|1:0,0:0:0:0:
120,324,67293,6,0,L|40:320,1,80,6|0,2:3|1:0,0:0:0:0:
120,240,67586,2,0,L|200:236,1,80,8|0,2:3|1:0,0:0:0:0:
344,316,67879,2,0,L|348:236,1,80,2|0,2:3|1:0,0:0:0:0:
308,234,68098,2,0,L|302:114,1,120,0|0,2:3|1:3,0:0:0:0:
444,32,68464,6,0,L|448:112,1,80,2|0,2:3|1:0,0:0:0:0:
368,192,68757,2,0,L|288:196,1,80,8|0,2:3|1:0,0:0:0:0:
144,276,69049,2,0,L|124:240,2,40,2|0|0,2:3|0:0|1:0,0:0:0:0:
224,356,69342,2,0,L|304:352,1,80,8|0,2:3|1:0,0:0:0:0:
96,192,69635,6,0,L|176:188,1,80,6|0,2:3|1:0,0:0:0:0:
256,268,69927,2,0,L|260:188,1,80,8|0,2:3|1:0,0:0:0:0:
116,108,70220,2,0,L|112:28,1,80,2|0,2:3|1:0,0:0:0:0:
152,26,70440,2,0,L|32:20,1,120,0|0,2:3|1:3,0:0:0:0:
176,260,70805,6,0,L|256:256,1,80,6|0,2:3|1:0,0:0:0:0:
176,176,71098,2,0,L|172:96,1,80,8|0,2:3|1:0,0:0:0:0:
316,336,71391,2,0,L|320:256,1,80,2|0,2:3|1:0,0:0:0:0:
280,254,71610,1,0,0:0:0:0:
240,252,71683,2,0,L|236:172,1,80,12|0,2:2|1:0,0:0:0:0:
444,92,71976,6,0,L|448:172,1,80,6|0,2:3|1:0,0:0:0:0:
368,252,72269,2,0,L|448:256,1,80,8|0,2:3|1:0,0:0:0:0:
304,336,72561,2,0,L|184:342,2,120,2|0|0,2:3|2:3|1:3,0:0:0:0:
160,256,73147,6,0,L|80:252,1,80,6|0,2:3|1:0,0:0:0:0:
160,172,73440,2,0,L|240:168,1,80,8|0,2:3|1:0,0:0:0:0:
384,88,73732,2,0,L|264:82,2,120,2|0|0,2:3|2:3|1:3,0:0:0:0:
176,248,74318,6,0,L|160:212,2,40,6|0|0,2:3|0:0|1:0,0:0:0:0:
256,244,74610,2,0,L|260:164,1,80,8|0,2:3|1:0,0:0:0:0:
116,324,74903,1,6,2:3:0:0:
100,288,74976,1,0,0:0:0:0:
116,252,75049,1,0,1:0:0:0:
156,232,75122,2,0,L|276:226,1,120,0|0,2:3|1:3,0:0:0:0:
420,304,75488,5,2,0:3:0:0:
436,268,75561,1,0,0:0:0:0:
420,232,75635,1,0,1:0:0:0:
380,212,75708,1,0,0:0:0:0:
364,176,75781,1,12,0:3:0:0:
380,140,75854,1,0,0:0:0:0:
420,120,75927,1,0,1:0:0:0:
276,200,76074,5,6,0:3:0:0:
236,180,76147,1,0,0:0:0:0:
220,144,76220,1,0,1:0:0:0:
236,108,76293,1,4,0:3:0:0:
276,88,76366,2,0,L|356:84,1,80,8|0,0:3|2:0,0:0:0:0:
148,4,76659,6,0,L|144:84,1,80,4|0,2:2|2:3,0:0:0:0:
224,164,76952,2,0,L|224:244,1,80,0|0,2:3|2:3,0:0:0:0:
304,324,77244,2,0,L|424:330,2,120,0|0|0,2:3|2:3|2:3,0:0:0:0:
64,164,77976,5,8,2:3:0:0:
64,164,78269,2,0,L|144:160,1,80,8|8,3:3|2:3,0:0:0:0:
352,280,78635,2,0,L|358:160,1,120,0|0,2:3|2:3,0:0:0:0:
148,80,79001,6,0,P|124:152|148:180,1,120,6|0,2:3|2:3,0:0:0:0:
188,182,79293,1,8,0:3:0:0:
332,264,79440,2,0,L|212:270,1,120,0|0,1:3|2:3,0:0:0:0:
212,270,79732,1,0,1:0:0:0:
292,352,79879,2,0,L|296:272,1,80,8|0,2:3|1:3,0:0:0:0:
152,192,80171,6,0,L|32:186,2,120,6|0|0,2:3|2:3|1:3,0:0:0:0:
296,272,80757,2,0,L|300:192,1,80,2|0,0:3|1:0,0:0:0:0:
260,190,80976,1,0,0:0:0:0:
220,188,81049,2,0,L|216:108,1,80,12|0,2:2|1:3,0:0:0:0:
424,28,81342,6,0,L|428:108,1,80,6|0,2:3|1:0,0:0:0:0:
348,188,81635,2,0,L|428:192,1,80,8|0,2:3|1:0,0:0:0:0:
284,272,81927,2,0,L|204:276,1,80,2|0,2:3|1:3,0:0:0:0:
284,356,82220,2,0,L|364:360,1,80,8|0,2:3|1:3,0:0:0:0:
156,280,82513,6,0,L|152:200,1,80,6|0,2:3|1:0,0:0:0:0:
232,196,82805,2,0,L|236:116,1,80,8|0,0:3|1:3,0:0:0:0:
92,36,83098,1,2,0:3:0:0:
52,56,83171,1,0,2:3:0:0:
36,92,83244,1,0,1:0:0:0:
52,128,83318,1,0,0:0:0:0:
92,148,83391,2,0,L|172:152,1,80,8|0,2:3|1:3,0:0:0:0:
380,312,83683,6,0,P|404:240|380:212,1,120,6|0,2:3|2:3,0:0:0:0:
340,210,83976,1,8,0:3:0:0:
196,128,84122,2,0,L|316:122,1,120,0|0,1:3|0:0,0:0:0:0:
315,122,84415,1,0,1:3:0:0:
172,39,84561,6,0,P|148:111|172:139,1,120,8|0,2:3|0:0,0:0:0:0:
212,142,84854,1,2,0:3:0:0:
356,224,85001,2,0,P|412:248|356:292,1,160,0|0,1:0|1:0,0:0:0:0:
212,372,85440,5,6,0:3:0:0:
196,336,85513,1,0,0:0:0:0:
212,300,85586,1,0,1:0:0:0:
252,280,85659,1,0,0:0:0:0:
292,260,85732,1,12,0:3:0:0:
308,224,85805,1,0,0:0:0:0:
292,188,85879,1,0,1:0:0:0:
84,108,86025,6,0,L|80:28,1,80,6|0,3:1|1:0,0:0:0:0:
224,104,86318,1,2,2:1:0:0:
264,106,86391,1,0,0:0:0:0:
304,108,86464,1,0,1:0:0:0:
224,188,86610,2,0,L|144:192,1,80,2|0,2:1|2:3,0:0:0:0:
352,272,86903,2,0,P|408:296|352:340,1,160,10|2,2:3|2:1,0:0:0:0:
272,336,87342,6,0,L|268:256,1,80,2|8,2:1|3:3,0:0:0:0:
412,176,87635,2,0,L|416:96,1,80,2|2,2:1|2:1,0:0:0:0:
208,16,87927,2,0,L|128:12,2,80,4|8|4,1:1|3:3|1:1,0:0:0:0:
352,96,88366,6,0,L|356:176,1,80,2|0,2:1|1:0,0:0:0:0:
212,256,88659,2,0,L|132:260,1,80,2|0,3:1|2:3,0:0:0:0:
212,340,88952,2,0,L|292:344,1,80,2|0,3:1|1:0,0:0:0:0:
84,184,89244,2,0,P|132:104|192:88,1,160,10|6,2:3|2:1,0:0:0:0:
272,92,89683,6,0,L|276:12,1,80,2|8,1:1|3:3,0:0:0:0:
132,172,89976,2,0,L|128:92,1,80,2|2,2:1|3:1,0:0:0:0:
272,252,90269,1,0,1:0:0:0:
312,254,90342,1,0,0:0:0:0:
352,256,90415,2,0,L|272:260,1,80,8|0,2:3|2:3,0:0:0:0:
64,340,90708,6,0,L|60:260,1,80,6|0,3:1|1:0,0:0:0:0:
204,180,91001,2,0,L|284:176,1,80,2|0,2:1|1:0,0:0:0:0:
204,96,91293,2,0,L|124:92,1,80,2|0,2:1|1:0,0:0:0:0:
332,12,91586,2,0,P|392:28|440:108,1,160,10|6,2:3|2:1,0:0:0:0:
360,188,92025,6,0,L|280:192,1,80,2|8,1:1|3:3,0:0:0:0:
424,272,92318,2,0,L|504:276,1,80,2|2,2:1|2:1,0:0:0:0:
360,356,92610,2,0,L|340:320,2,40,0|0|8,1:0|0:0|2:3,0:0:0:0:
440,352,92903,1,0,1:0:0:0:
232,272,93050,5,2,3:1:0:0:
192,252,93122,1,0,0:0:0:0:
176,216,93196,1,0,2:3:0:0:
192,180,93269,1,0,2:3:0:0:
232,160,93342,2,0,L|312:156,1,80,2|0,3:1|2:3,0:0:0:0:
168,76,93635,5,6,3:1:0:0:
180,116,93708,1,0,0:0:0:0:
208,144,93781,1,0,2:3:0:0:
248,156,93854,2,0,L|128:162,1,120,2|2,2:1|1:1,0:0:0:0:
336,324,94220,5,2,3:1:0:0:
376,312,94293,1,0,0:0:0:0:
404,284,94366,1,2,2:1:0:0:
416,244,94440,1,0,2:3:0:0:
404,204,94513,1,6,3:1:0:0:
376,176,94586,1,0,0:0:0:0:
336,164,94659,1,2,2:1:0:0:
192,84,94805,6,0,L|172:48,2,40,6|0|2,3:1|0:0|2:1,0:0:0:0:
400,204,95098,2,0,L|420:168,2,40,2|0|2,2:1|2:3|2:1,0:0:0:0:
192,324,95391,6,0,P|132:308|84:228,1,160,4|0,2:3|0:0,0:0:0:0:
164,224,95830,2,0,P|224:208|272:128,1,160,0|0,2:3|0:0,0:0:0:0:
128,48,96269,2,0,L|124:128,1,80,0|0,2:3|2:3,0:0:0:0:
204,132,96561,6,0,P|264:148|312:228,1,160,8|0,3:1|0:0,0:0:0:0:
232,232,97001,1,0,0:0:0:0:
88,312,97147,2,0,L|80:152,1,160,0|0,2:3|2:3,0:0:0:0:
320,312,97732,6,0,P|376:288|320:244,1,160,0|0,2:3|0:0,0:0:0:0:
240,240,98171,2,0,P|184:216|240:172,1,160,0|0,2:3|0:0,0:0:0:0:
384,92,98610,2,0,L|464:96,1,80,0|0,2:3|2:3,0:0:0:0:
384,176,98903,6,0,L|224:184,1,160,8|0,3:1|0:0,0:0:0:0:
304,188,99342,1,0,0:0:0:0:
448,268,99488,2,0,L|456:108,1,160,0|0,2:3|2:3,0:0:0:0:
216,268,100074,6,0,L|208:108,1,160,0|0,2:3|0:0,0:0:0:0:
352,28,100513,2,0,P|412:44|460:124,1,160,0|0,2:3|0:0,0:0:0:0:
424,192,100952,1,0,2:3:0:0:
352,220,101098,1,0,0:0:0:0:
208,300,101244,6,0,L|48:292,1,160,0|0,2:3|2:3,0:0:0:0:
128,288,101683,1,0,0:0:0:0:
208,208,101830,2,0,L|368:200,1,160,0|0,2:3|2:3,0:0:0:0:
128,40,102415,6,0,L|120:200,1,160,0|0,2:3|0:0,0:0:0:0:
264,280,102854,2,0,P|320:256|264:212,1,160,0|0,2:3|0:0,0:0:0:0:
184,132,103293,2,0,L|264:128,1,80,0|0,2:3|2:3,0:0:0:0:
408,208,103586,6,0,L|416:48,1,160,8|0,3:1|0:0,0:0:0:0:
336,44,104025,1,0,0:0:0:0:
192,124,104171,2,0,L|352:132,1,160,0|0,2:3|2:3,0:0:0:0:
272,136,104610,1,0,2:3:0:0:
64,216,104757,6,0,P|8:240|64:284,1,160,0|0,2:3|0:0,0:0:0:0:
144,280,105196,2,0,P|96:200|36:184,1,160,0|0,2:3|0:0,0:0:0:0:
180,104,105635,2,0,L|260:100,1,80,0|0,2:3|2:3,0:0:0:0:
180,20,105927,6,0,P|124:44|180:88,1,160,8|0,3:1|0:0,0:0:0:0:
260,92,106366,1,0,0:0:0:0:
404,172,106513,2,0,L|412:332,1,160,0|0,2:3|2:3,0:0:0:0:
172,172,107098,6,0,P|116:196|172:240,1,160,0|0,2:3|0:0,0:0:0:0:
252,320,107537,2,0,L|92:312,1,160,0|0,2:3|0:0,0:0:0:0:
236,232,107976,2,0,L|316:228,1,80,0|0,2:3|2:3,0:0:0:0:
236,148,108269,6,0,L|396:140,1,160,8|0,3:1|0:0,0:0:0:0:
316,136,108708,1,0,0:0:0:0:
172,216,108854,2,0,L|164:56,1,160,0|0,2:3|2:3,0:0:0:0:
404,376,109440,6,0,L|412:216,1,160,0|0,2:3|0:0,0:0:0:0:
268,136,109879,2,0,P|212:160|268:204,1,160,0|0,2:3|0:0,0:0:0:0:
348,284,110318,2,0,L|268:288,1,80,0|0,2:3|0:0,0:0:0:0:
124,368,110610,6,0,L|116:208,1,160,0|0,2:3|2:3,0:0:0:0:
356,48,111196,2,0,L|196:56,1,160,0|0,2:3|2:3,0:0:0:0:
276,60,111635,1,0,2:3:0:0:
420,140,111781,6,0,P|476:164|420:208,1,160,8|0,3:1|0:0,0:0:0:0:
340,288,112220,2,0,L|500:296,1,160,0|0,2:3|0:0,0:0:0:0:
356,376,112659,2,0,L|276:372,1,80,0|0,2:3|0:0,0:0:0:0:
356,292,112952,6,0,L|196:284,1,160,0|0,2:3|0:0,0:0:0:0:
276,280,113391,1,0,2:3:0:0:
420,200,113537,2,0,L|428:40,1,160,0|0,0:0|2:3,0:0:0:0:
76,360,114122,5,4,3:2:0:0:
256,192,114269,12,0,117342,0:0:0:0:
